Поиск

(Crossover Jazz, Smooth, Pop Jazz) Sadao Watanabe (feat. Russ Ferrante, Don Grusin, Paul Jackson Jr., Abraham Laboriel, John Patitucci, Peter Erskine etc) - Sweet Deal - 1991, FLAC (tracks+.cue), lossless

(Crossover Jazz, Smooth, Pop Jazz) Sadao Watanabe (feat. Russ Ferrante, Don Grusin, Paul Jackson Jr., Abraham Laboriel, John Patitucci, Peter Erskine etc) - Sweet Deal - 1991, FLAC (tracks+.cue), lossless
Sadao Watanabe - Sweet Deal
Жанр: Crossover Jazz, Smooth, Pop Jazz
Страна-производитель диска: USA
Год издания диска: 1991
Издатель (лейбл): Elektra
Номер по каталогу: 61120-2
Аудиокодек: FLAC (*.flac)
Тип рипа: tracks+.cue
Битрейт аудио: lossless
Продолжительность: 51:52
Наличие сканов в содержимом раздачи: нет
Источник (релизер): nnm, thanks indeep1
1. Passing By
2. Sweet Deal
3. Early Spring
4. After Goodbye
5. With The Wind
6. Catch Me In The Sun
7. Old Photograph
8. As You Say
9. Only Love
10. Blue On Green
11. Masai Talk
12. Cycling
渡辺 貞夫:
Sax (Alto) ••••••• Sadao Watanabe
Vocals (7, 9) •••• Warren Wiebe
Keyboards •••••••• Russ Ferrante
•••••••••••••••••• Robbie Buchanan
•••••••••••••••••• Don Grusin
Guitar ••••••••••• Paul Jackson Jr.
•••••••••••••••••• Dori Caymmi
•••••••••••••••••• Michael Landau
Bass ••••••••••••• Abraham Laboriel
•••••••••••••••••• John Patitucci
•••••••••••••••••• Neil Stubenhaus
Drums •••••••••••• Peter Erskine
•••••••••••••••••• William Kennedy
•••••••••••••••••• Michael Shapiro
•••••••••••••••••• Carlos Vega
Percussion ••••••• Alex Acuna
•••••••••••••••••• Paulinho Da Costa
 
Лог EAC
EAC extraction logfile from 26. February 2008, 7:12 for CD
Sadao Watanabe / Sweet Deal
Used drive : HL-DT-STDVDRAM GSA-H42N Adapter: 3 ID: 1
Read mode : Secure with NO C2, accurate stream, disable cache
Read offset correction : 667
Overread into Lead-In and Lead-Out : No
Used output format : C:\Program Files\Exact Audio Copy\flac.exe (User Defined Encoder)
320 kBit/s
Additional command line options : -8 -V -T "ARTIST=%a" -T "TITLE=%t" -T "ALBUM=%g" -T "DATE=%y" -T "TRACKNUMBER=%n" -T "GENRE=%m" -T "COMMENT=EAC Flac 1.1.4 -8" %s
Other options :
Fill up missing offset samples with silence : Yes
Delete leading and trailing silent blocks : No
Native Win32 interface for Win NT & 2000
Track 1
Filename D:\XtremeBG\Emo rips\Sadao Watanabe - 1991- Sweet Deal\01-Passing By.wav
Pre-gap length 0:00:02.00
Peak level 100.0 %
Track quality 100.0 %
Test CRC A3B34C6F
Copy CRC A3B34C6F
Copy OK
Track 2
Filename D:\XtremeBG\Emo rips\Sadao Watanabe - 1991- Sweet Deal\02-Sweet Deal.wav
Peak level 100.0 %
Track quality 100.0 %
Test CRC 887B2DDA
Copy CRC 887B2DDA
Copy OK
Track 3
Filename D:\XtremeBG\Emo rips\Sadao Watanabe - 1991- Sweet Deal\03-Early Spring.wav
Peak level 100.0 %
Track quality 100.0 %
Test CRC E74350D0
Copy CRC E74350D0
Copy OK
Track 4
Filename D:\XtremeBG\Emo rips\Sadao Watanabe - 1991- Sweet Deal\04-After Goodbye.wav
Peak level 100.0 %
Track quality 100.0 %
Test CRC 6925ECB0
Copy CRC 6925ECB0
Copy OK
Track 5
Filename D:\XtremeBG\Emo rips\Sadao Watanabe - 1991- Sweet Deal\05-With The Wind.wav
Peak level 99.2 %
Track quality 100.0 %
Test CRC 12115A01
Copy CRC 12115A01
Copy OK
Track 6
Filename D:\XtremeBG\Emo rips\Sadao Watanabe - 1991- Sweet Deal\06-Catch Me In The Sun.wav
Peak level 86.1 %
Track quality 100.0 %
Test CRC 4FB50842
Copy CRC 4FB50842
Copy OK
Track 7
Filename D:\XtremeBG\Emo rips\Sadao Watanabe - 1991- Sweet Deal\07-Old Photograph.wav
Peak level 88.6 %
Track quality 99.9 %
Test CRC 89B5CD30
Copy CRC 89B5CD30
Copy OK
Track 8
Filename D:\XtremeBG\Emo rips\Sadao Watanabe - 1991- Sweet Deal\08-As You Say.wav
Peak level 88.2 %
Track quality 100.0 %
Test CRC 01E4ABD8
Copy CRC 01E4ABD8
Copy OK
Track 9
Filename D:\XtremeBG\Emo rips\Sadao Watanabe - 1991- Sweet Deal\09-Only Love.wav
Peak level 100.0 %
Track quality 100.0 %
Test CRC EB8B8CE0
Copy CRC EB8B8CE0
Copy OK
Track 10
Filename D:\XtremeBG\Emo rips\Sadao Watanabe - 1991- Sweet Deal\10-Blue On Green.wav
Peak level 82.9 %
Track quality 100.0 %
Test CRC F86F80E2
Copy CRC F86F80E2
Copy OK
Track 11
Filename D:\XtremeBG\Emo rips\Sadao Watanabe - 1991- Sweet Deal\11-Masai Talk.wav
Peak level 100.0 %
Track quality 100.0 %
Test CRC BC38837A
Copy CRC BC38837A
Copy OK
Track 12
Filename D:\XtremeBG\Emo rips\Sadao Watanabe - 1991- Sweet Deal\12-Cycling.wav
Peak level 100.0 %
Track quality 100.0 %
Test CRC EC9B0F49
Copy CRC EC9B0F49
Copy OK
No errors occured
End of status report
 
Содержание индексной карты (.CUE)
REM GENRE Jazz
REM DATE 1991
REM DISCID B30C460C
REM COMMENT "ExactAudioCopy v0.95b3"
PERFORMER "Sadao Watanabe"
TITLE "Sweet Deal"
FILE "01-Passing By.flac" WAVE
TRACK 01 AUDIO
TITLE "Passing By"
PERFORMER "Sadao Watanabe"
INDEX 01 00:00:00
FILE "02-Sweet Deal.flac" WAVE
TRACK 02 AUDIO
TITLE "Sweet Deal"
PERFORMER "Sadao Watanabe"
INDEX 01 00:00:00
FILE "03-Early Spring.flac" WAVE
TRACK 03 AUDIO
TITLE "Early Spring"
PERFORMER "Sadao Watanabe"
INDEX 01 00:00:00
FILE "04-After Goodbye.flac" WAVE
TRACK 04 AUDIO
TITLE "After Goodbye"
PERFORMER "Sadao Watanabe"
INDEX 01 00:00:00
FILE "05-With The Wind.flac" WAVE
TRACK 05 AUDIO
TITLE "With The Wind"
PERFORMER "Sadao Watanabe"
INDEX 01 00:00:00
FILE "06-Catch Me In The Sun.flac" WAVE
TRACK 06 AUDIO
TITLE "Catch Me In The Sun"
PERFORMER "Sadao Watanabe"
INDEX 01 00:00:00
FILE "07-Old Photograph.flac" WAVE
TRACK 07 AUDIO
TITLE "Old Photograph"
PERFORMER "Sadao Watanabe"
INDEX 01 00:00:00
FILE "08-As You Say.flac" WAVE
TRACK 08 AUDIO
TITLE "As You Say"
PERFORMER "Sadao Watanabe"
INDEX 01 00:00:00
FILE "09-Only Love.flac" WAVE
TRACK 09 AUDIO
TITLE "Only Love"
PERFORMER "Sadao Watanabe"
INDEX 01 00:00:00
FILE "10-Blue On Green.flac" WAVE
TRACK 10 AUDIO
TITLE "Blue On Green"
PERFORMER "Sadao Watanabe"
INDEX 01 00:00:00
FILE "11-Masai Talk.flac" WAVE
TRACK 11 AUDIO
TITLE "Masai Talk"
PERFORMER "Sadao Watanabe"
INDEX 01 00:00:00
FILE "12-Cycling.flac" WAVE
TRACK 12 AUDIO
TITLE "Cycling"
PERFORMER "Sadao Watanabe"
INDEX 01 00:00:00
Садао Ватанабе - патриарх японского и мирового джаза, создатель 70 "лидерских" альбомов, первый из которых вышел еще в 1961 году. Родился будущий музыкант в префектуре Точиги 1 февраля 1933 года. Его отец был профессиональным учителем музыки, вследствии чего Садао с ранних лет изучал кларнет, а позже играл на нем в школьной группе, затем он переключился на альт-саксофон; в 18 лет приехал в Токио и брал частные уроки у флейтиста из симфонического оркестра. В 1955 году вошел в квартет Тошико Акиёши и возглавил его после отъезда пианистки в США (1956). В начале 60-х годов учился в школе Беркли в Бостоне (много позже Ватанабе получил там звание почетного доктора), играл с Габором Сабо, Чико Хамильтоном и вибрафонистом Гэри МакФарлендом. В 1965 вернулся в Токио и возглавил при поддержке фирмы Yamaha Институт популярной музыки - аналог школы Беркли. В этом же году организовал биг-бэнд, с которым выступал во всех частях света. В 1968 играл на Ньюпортском фестивале, в 1970 - в Монтре. В 70-е годы отошел от традиционного свинга и бибопа, увлекся фьюжн, латиноамериканскими ритмами и этно-джазом. Получили широкую известность его совместные работы с Chick Corea, Ron Carter, Marcus Miller, Nicholas Payton и др. Садао Ватанабе является обладателем множества различных наград, в том числе и правительственных: Императорская медаль почета, Орден Восходящего Солнца, а также MontBlanc International Culture Prize и иных призов в сфере искусства по всему миру. В Японии вышло шесть книг-фотоальбомов его авторства.
02:26
766
Нет комментариев. Ваш будет первым!