Поиск

(Crossover Jazz/Mainstream Jazz) George Benson - White Rabbit (CTI Records 40th Anniversary Edition) - 1973 / 2011, FLAC (tracks+.cue), lossless

(Crossover Jazz/Mainstream Jazz) George Benson - White Rabbit (CTI Records 40th Anniversary Edition) - 1973 / 2011, FLAC (tracks+.cue), lossless
George Benson / White Rabbit (CTI Records 40th Anniversary Edition)
Жанр: Crossover Jazz/Mainstream Jazz
Год издания диска: 1973 / 2011
Издатель (лейбл): CTI / SONY MASTERWORKS
Номер по каталогу: 88697 78477 2
Аудиокодек: FLAC (*.flac)
Тип рипа: tracks+.cue
Битрейт аудио: lossless
Продолжительность: 36:11
Источник (релизер): Источник - Вата, релизер - BrokenLadder
Наличие сканов в содержимом раздачи: нет
Треклист:
1. White Rabbit
2. Theme From Summer Of '42
3. Little Train
4. California Dreamin'
5. El Mar
 
Лог создания рипа
X Lossless Decoder version 20100711 (120.5)
XLD extraction logfile from 2011-10-17 14:21:35 -0700
George Benson / White Rabbit
Used drive : TSSTcorp CDDVDW SH-S222L (revision SB02)
Use cdparanoia mode : YES (CDParanoia III 10.2 engine)
Disable audio cache : OK for the drive with cache less than 2750KB
Make use of C2 pointers : NO
Read offset correction : 6
Max retry count : 100
Gap status : Analyzed, Appended (except HTOA)
TOC of the extracted CD
Track | Start | Length | Start sector | End sector
---------------------------------------------------------
1 | 00:00:00 | 07:01:69 | 0 | 31643
2 | 07:01:69 | 05:08:61 | 31644 | 54804
3 | 12:10:55 | 05:48:18 | 54805 | 80922
4 | 17:58:73 | 07:23:35 | 80923 | 114182
5 | 25:22:33 | 10:48:13 | 114183 | 162795
All Tracks
Album gain : -2.70 dB
Peak : 1.000000
Track 01
Filename : /Users/colinlarussa/Desktop/George Benson - White Rabbit/George Benson - White Rabbit (2011) [FLAC]/01 White Rabbit.flac
Pre-gap length : 00:02:00
Track gain : -3.11 dB
Peak : 0.912689
CRC32 hash (test run) : 954896C9
CRC32 hash : 954896C9
CRC32 hash (skip zero) : EB279FAE
AccurateRip signature : 7E39999D
->Rip may not be accurate.
Statistics
Read error : 0
Skipped (treated as error) : 0
Edge jitter error (maybe fixed) : 0
Atom jitter error (maybe fixed) : 0
Drift error (maybe fixed) : 0
Dropped bytes error (maybe fixed) : 0
Duplicated bytes error (maybe fixed) : 0
Track 02
Filename : /Users/colinlarussa/Desktop/George Benson - White Rabbit/George Benson - White Rabbit (2011) [FLAC]/02 Theme from "Summer of '42".flac
Pre-gap length : 00:02:73
Track gain : -2.12 dB
Peak : 0.966614
CRC32 hash (test run) : 92C6A642
CRC32 hash : 92C6A642
CRC32 hash (skip zero) : 6ED94A15
AccurateRip signature : AF369962
->Rip may not be accurate.
Statistics
Read error : 0
Skipped (treated as error) : 0
Edge jitter error (maybe fixed) : 0
Atom jitter error (maybe fixed) : 0
Drift error (maybe fixed) : 0
Dropped bytes error (maybe fixed) : 0
Duplicated bytes error (maybe fixed) : 0
Track 03
Filename : /Users/colinlarussa/Desktop/George Benson - White Rabbit/George Benson - White Rabbit (2011) [FLAC]/03 Little Train.flac
Pre-gap length : 00:01:72
Track gain : -2.64 dB
Peak : 0.896606
CRC32 hash (test run) : 1618EA41
CRC32 hash : 1618EA41
CRC32 hash (skip zero) : 3A0B9255
AccurateRip signature : 6C86FB9E
->Rip may not be accurate.
Statistics
Read error : 0
Skipped (treated as error) : 0
Edge jitter error (maybe fixed) : 0
Atom jitter error (maybe fixed) : 0
Drift error (maybe fixed) : 0
Dropped bytes error (maybe fixed) : 0
Duplicated bytes error (maybe fixed) : 0
Track 04
Filename : /Users/colinlarussa/Desktop/George Benson - White Rabbit/George Benson - White Rabbit (2011) [FLAC]/04 California Dreamin'.flac
Pre-gap length : 00:01:37
Track gain : -3.14 dB
Peak : 0.917389
CRC32 hash (test run) : 95C3C3D6
CRC32 hash : 95C3C3D6
CRC32 hash (skip zero) : 56B79F71
AccurateRip signature : B4396875
->Rip may not be accurate.
Statistics
Read error : 0
Skipped (treated as error) : 0
Edge jitter error (maybe fixed) : 0
Atom jitter error (maybe fixed) : 0
Drift error (maybe fixed) : 0
Dropped bytes error (maybe fixed) : 0
Duplicated bytes error (maybe fixed) : 0
Track 05
Filename : /Users/colinlarussa/Desktop/George Benson - White Rabbit/George Benson - White Rabbit (2011) [FLAC]/05 El Mar.flac
Pre-gap length : 00:01:57
Track gain : -1.61 dB
Peak : 1.000000
CRC32 hash (test run) : 8FC11355
CRC32 hash : 8FC11355
CRC32 hash (skip zero) : 1B6BA9EC
AccurateRip signature : 68A2D3D2
->Rip may not be accurate.
Statistics
Read error : 0
Skipped (treated as error) : 0
Edge jitter error (maybe fixed) : 0
Atom jitter error (maybe fixed) : 0
Drift error (maybe fixed) : 0
Dropped bytes error (maybe fixed) : 0
Duplicated bytes error (maybe fixed) : 0
No errors occurred
End of status report
 
Содержание индексной карты (.CUE)
TITLE "White Rabbit"
PERFORMER "George Benson"
REM GENRE "CTI Masterworks"
REM DATE 2011
REM DISCID 2C087A05
FILE "01 White Rabbit.wav" WAVE
TRACK 01 AUDIO
TITLE "White Rabbit"
ISRC USSM10021833
INDEX 01 00:00:00
TRACK 02 AUDIO
TITLE "Theme from "Summer of '42""
ISRC USSM10021834
INDEX 00 06:58:71
FILE "02 Theme from "Summer of '42".wav" WAVE
INDEX 01 00:00:00
TRACK 03 AUDIO
TITLE "Little Train"
ISRC USSM10024864
INDEX 00 05:06:64
FILE "03 Little Train.wav" WAVE
INDEX 01 00:00:00
TRACK 04 AUDIO
TITLE "California Dreamin'"
ISRC USSM10021835
INDEX 00 05:46:56
FILE "04 California Dreamin'.wav" WAVE
INDEX 01 00:00:00
TRACK 05 AUDIO
TITLE "El Mar"
ISRC USSM10024763
INDEX 00 07:21:53
FILE "05 El Mar.wav" WAVE
INDEX 01 00:00:00
 
Лог проверки качества
AUDIOCHECKER v2.0 beta (build 457) - by Dester - opdester@freemail.hu
~~~~~~~~~~~~~~~~~~~~~~~~~~~~~~~~~~
-=== DO NOT EDIT THIS FILE! ===-
Path: ...\George Benson - White Rabbit (CTI Records 40th Anniversary Edition)
01 -=- 01 White Rabbit.flac -=- CDDA (99%)
02 -=- 02 Theme from _Summer of '42_.flac -=- CDDA (100%)
03 -=- 03 Little Train.flac -=- CDDA (100%)
04 -=- 04 California Dreamin'.flac -=- CDDA (100%)
05 -=- 05 El Mar.flac -=- CDDA (100%)
Summary 99,80% CDDA
175667172
 
Состав
George Benson - Guitar, Vocals, Main Performer
George Marge - Clarinet, Flute, Flute (Alto), Horn (English), Oboe
Romeo Penque - Clarinet, Flute (Alto), Horn (English), Oboe, Clarinet (Bass)
Alan Rubin - Trumpet, Flugelhorn
Jane Taylor - Bassoon
Jay Berliner - Guitar
Airto Moreira - Percussion, Vocals
Gloria Agostini - Harp
Wayne Andre - Trombone, Horn (Baritone)
James Buffington - French Horn
Billy Cobham - Drums
John Frosk - Trumpet, Flugelhorn
Phil Kraus - Percussion, Vibraphone
Phil Bodner - Clarinet, Flute, Flute (Alto), Horn (English), Oboe
Ron Carter - Bass
Herbie Hancock - Keyboards, Piano (Electric)
Earl Klugh - Guitar
Hubert Laws - Flute, Flute (Alto), Piccolo
 
Об альбоме
By JOHN KELMAN,
Published: February 5, 2011
George Benson: White Rabbit
After three late-1960s A&M albums with mastermind Creed Taylor prior to the creation of CTI Records, guitarist George Benson hit 1971 running with two CTI debuts, issued a few months apart. Beyond the Blue Horizon was closer, in complexion, to his A&M recordings—harkening back, even, to his impressive 1966 Columbia Records two-punch, It's Uptown and The George Benson Cookbook—although the virtuosic, soul- drenched guitarist was clearly evolving as a player and maturing into one whose firebrand, virtuosic tendencies were becoming refreshingly balanced with greater maturity and restraint.
White Rabbit was (and remains) an anomaly in Benson's prodigious catalogue, with its heavy orchestration by CTI regular Don Sebesky. It's also the album that first paired Earl Klugh—a guitarist who, in the face of Charlie Byrd and Laurindo Almeida, took the nylon-string into the realm of light funk and soul—with the electric Benson. The partnership would last a couple more years to the more decidedly groove- centric Body Talk (CTI, 1973), which foreshadowed Benson's rocket to stardom with his move to Warner Bros. and 1976's megahit, Breezin'.
Despite some truly dated material—in particular the title track, an overblown look at Jefferson Airplane's drug-drenched, 1967 hit single—Benson transcends it all, with some brilliant playing, even as "White Rabbit" strives to break out of Sebesky's overbearing bolero-like arrangement. Herbie Hancock, too, turns in an energetic electric piano solo, and comps with soft (and welcome) pushes towards the outer reaches during Hubert Laws' flute feature, creating some much-needed tension and release, even as the track heads towards an overly cluttered ending that, with tympanis pounding, is indicative of CTI at its worst.
That said, Sebesky's gentle strings and harp on "Theme from 'Summer of 42'" are far more successful—and appropriate. It's easy listening, to be sure, with Benson joining Klugh on nylon string guitar, as the song moves into light Latin territory, but the more change-heavy take on a classical piece—Villa Lobos' "Little Train," taken from the composer's "Bachianas Brasilerias #2," is an album highlight; Benson's fleet-fingers matched by Hancock and bolstered by bassist Ron Carter and drummer Billy Cobham, who cook without overbearance.
Another dated track, The Mamas and The Papas' pre-Summer of Love hit, "California Dreamin,'" begins with an almost non-sequitur of Spanish tinges but, more than anywhere else on the album, demonstrates the simpatico interplay between Benson and Klugh, suggesting that Klugh was, indeed, a star in the making. Klugh's gorgeous intro to Benson's closing "El Mar"—the album's only original—sets the stage for an 11-minute highlight that suggests a stylistic breadth to Benson that, despite a subsequent career living as much in the pop world as anywhere else, has continued to this day.
An anomaly in Benson's catalogue, perhaps, and one with its fair share of weaknesses to offset its many strengths, this CTI Masterworks reissue of White Rabbit remains, in many ways, a curiosity that transitions between his more mainstream efforts and the soulful jazz/pop star he was about to become; not without its merits, but not essential either
Доп. информация:
Original Release Date: January 25, 2011.
Информация о серии CTI Records 40th Anniversary Edition - http://www.ctimasterworks.com/discography
"Родные" сканы, к сожалению, отсутствовали. Ремастер 1995 года от nepekyp-01 (со сканами) можно скачать здесь.
Скачивание доступно после регистрации!!
Приватный:
Нет (DHT включён)
Размер:
204.85 Мб (214,797,870 байт) » файлов: 10
Участники:
0 раздают, 1 качают (1 участников всего)
Внешние участники:
2 раздают, 1 качают (3 участников всего) [ Обновить ]
Скорость:
339.97 Кб/c 0/c
09:18
731
Нет комментариев. Ваш будет первым!