Поиск

(Dixieland, Mainstream Jazz, New Orleans Jazz) [CD] Harry Edison & Buck Clayton, Red Allen, Roy Eldridge - Swing Trumpet Kings - 1996 (Verve), FLAC (tracks+.cue), lossless

(Dixieland, Mainstream Jazz, New Orleans Jazz) [CD] Harry Edison & Buck Clayton, Red Allen, Roy Eldridge - Swing Trumpet Kings - 1996 (Verve), FLAC (tracks+.cue), lossless
Треклист:


Harry Edison & Buck Clayton, Red Allen, Roy Eldridge - Swing Trumpet Kings - 1996 (Verve)

Жанр: Dixieland, Mainstream Jazz, New Orleans Jazz
Носитель: CD (compilation, archival)
Страна-производитель диска (релиза): Germany
Год издания оригинала: 1996
Издатель (лейбл): Verve
Номер по каталогу: 314 533 263-2
Страна исполнителя (группы) : USA
Аудио кодек: FLAC (*.flac)
Тип рипа: (tracks + .cue)
Битрейт аудио: lossless
Корректность рипа: Test and copy was not used
Наличие сканов в содержимом раздачи: full scans
Продолжительность: 2:35:17
Источник (релизер): LolaMontes (Demonoid)
 
CD1
Трэклист:
Harry Edison Swings Buck Clayton and Vice Versa
1. Memories for the Count (Harry "Sweets" Edison) 8:50
2. Come With Me (Harry Edison) 5:51
3. Critics' Delight (Harry Edison) 6:47
4. Oh, How I Hate to Get Up in the Afternoon (Harry Edison) 9:04
5. Medley 8:58
5.1. It All Depends on You (Ray Henderson-Lew Brown-Buddy DeSylva)
5.2. Charmaine (Lew Pollack-Erno Rapee)
5.3. Makin' Whoopee (Walter Donaldson-Gus Kahn)
5.43 How Long Has This Been Going On? (George and Ira Gershwin)
6. Come With Me [alternative take] 5:16
7. Memories for the Count [alternative take]. 6:38
Harry Edison and Buck Clayton (t) with Jimmy Forrest (ts); Jimmy Jones (p); Freddie Green (g); Joe Benjamin (b); Charli Persip (d).
Track 3: Persip replaces (d) with (vb).
Recorded October 16,1958 at Nola Recording Studios, New York City
Tracks 1-5
original LP issue: Harry Edison Swings Buck Clayton and Vice Versa (Verve MGVS 6016)
Tracks 6 and 7
original CD issue: Harry Edison Swings Buck Clayton and Vice Versa (Verve Japan POCJ-2076)
Red Allen Plays King Oliver
8. Ballin' the Jack (James Reese Europe-Chris Smith) 3:19
9. Canal Street Blues (Joseph "King" Oliver) 3:45
10. Someday, Sweetheart (Benjamin F. "Ben" and John C. "Reb" Spikes)* 3:57
11. Dixie medley 6:29
11.1. Dixie
11.2. Marching Through Georgia
11.3. Battle Hymn of the Republic
11.4. Bourbon Street Parade (Adolphe Paul Barbarin)
12. How Long, How Long Blues (Leroy Carr-Ann Engberg) 3:13
13. Just a Closer Walk With Thee 3:21
Red Allen (t) with Herb Fleming (tb); Buster Bailey (cl); Bob Hammer (p); Milt Hinton (b); Sol Hall (d).
Tracks 11 and 12: Add Allen (vcl).
Track 12: Sammy Price replaces Hammer.
Recorded November 21,1960 at Nola Recording Studios, New York City
Original LP issue: Red Allen Plays King Oliver (Verve MGVS 1025)
Лог создания рипа
Exact Audio Copy V1.0 beta 3 from 29. August 2011
EAC extraction logfile from 12. November 2014, 21:26
Harry Edison & Buck Clayton, Red Allen, Roy Eldridge / Swing Trumpet Kings
Used drive : HL-DT-STDVD+-RW GH82N Adapter: 0 ID: 2
Read mode : Secure
Utilize accurate stream : Yes
Defeat audio cache : Yes
Make use of C2 pointers : No
Read offset correction : 667
Overread into Lead-In and Lead-Out : No
Fill up missing offset samples with silence : Yes
Delete leading and trailing silent blocks : No
Null samples used in CRC calculations : Yes
Used interface : Native Win32 interface for Win NT & 2000
Gap handling : Appended to previous track
Used output format : User Defined Encoder
Selected bitrate : 1024 kBit/s
Quality : High
Add ID3 tag : No
Command line compressor : C:\Program Files (x86)\Exact Audio Copy\Flac\flac.exe
Additional command line options : -8 -V -T "ARTIST=%artist%" -T "TITLE=%title%" -T "ALBUM=%albumtitle%" -T "DATE=%year%" -T "TRACKNUMBER=%tracknr%" -T "GENRE=%genre%" -T "COMMENT=%comment%" -T "BAND=%albuminterpret%" -T "ALBUMARTIST=%albuminterpret%" -T "COMPOSER=%composer%" %haslyrics%--tag-from-file=LYRICS="%lyricsfile%"%haslyrics% -T "DISCNUMBER=%cdnumber%" -T "TOTALDISCS=%totalcds%" -T "TOTALTRACKS=%numtracks%" %hascover%--picture="%coverfile%"%hascover% %source% -o %dest%
TOC of the extracted CD
Track | Start | Length | Start sector | End sector
---------------------------------------------------------
1 | 0:00.00 | 8:52.35 | 0 | 39934
2 | 8:52.35 | 5:53.45 | 39935 | 66454
3 | 14:46.05 | 6:50.15 | 66455 | 97219
4 | 21:36.20 | 9:07.22 | 97220 | 138266
5 | 30:43.42 | 9:01.45 | 138267 | 178886
6 | 39:45.12 | 5:18.43 | 178887 | 202779
7 | 45:03.55 | 6:41.45 | 202780 | 232899
8 | 51:45.25 | 3:23.30 | 232900 | 248154
9 | 55:08.55 | 3:48.45 | 248155 | 265299
10 | 58:57.25 | 4:02.25 | 265300 | 283474
11 | 62:59.50 | 6:33.07 | 283475 | 312956
12 | 69:32.57 | 3:15.68 | 312957 | 327649
13 | 72:48.50 | 3:21.32 | 327650 | 342756
Track 1
Filename C:\Rips\Harry Edison & Buck Clayton, Red Allen, Roy Eldridge - Swing Trumpet Kings\CD 1\01 Memories for the Count.wav
Pre-gap length 0:00:02.00
Peak level 99.4 %
Extraction speed 2.1 X
Track quality 100.0 %
Copy CRC BCD4B155
Cannot be verified as accurate (confidence 2) [8AC136D9], AccurateRip returned [EA675E32] (AR v2)
Copy OK
Track 2
Filename C:\Rips\Harry Edison & Buck Clayton, Red Allen, Roy Eldridge - Swing Trumpet Kings\CD 1\02 Come With Me.wav
Pre-gap length 0:00:02.30
Peak level 86.6 %
Extraction speed 2.4 X
Track quality 100.0 %
Copy CRC 1807F886
Cannot be verified as accurate (confidence 2) [CDD1D833], AccurateRip returned [647402BF] (AR v2)
Copy OK
Track 3
Filename C:\Rips\Harry Edison & Buck Clayton, Red Allen, Roy Eldridge - Swing Trumpet Kings\CD 1\03 Critics' Delight.wav
Pre-gap length 0:00:01.63
Peak level 92.1 %
Extraction speed 2.7 X
Track quality 100.0 %
Copy CRC CCD56DC8
Cannot be verified as accurate (confidence 2) [3FEFD1DD], AccurateRip returned [C1AFA668] (AR v2)
Copy OK
Track 4
Filename C:\Rips\Harry Edison & Buck Clayton, Red Allen, Roy Eldridge - Swing Trumpet Kings\CD 1\04 Oh, How I Hate to Get Up in the Afternoon.wav
Pre-gap length 0:00:03.25
Peak level 88.5 %
Extraction speed 3.0 X
Track quality 100.0 %
Copy CRC 0FB596A6
Cannot be verified as accurate (confidence 2) [6F8A75F8], AccurateRip returned [2BEDC9DD] (AR v2)
Copy OK
Track 5
Filename C:\Rips\Harry Edison & Buck Clayton, Red Allen, Roy Eldridge - Swing Trumpet Kings\CD 1\05 Medley- It All Depends on You, Charmaine, Makin' Whoopee, How Long Has This Been Going On.wav
Pre-gap length 0:00:03.12
Peak level 100.0 %
Extraction speed 3.3 X
Track quality 100.0 %
Copy CRC 55BE5FD8
Cannot be verified as accurate (confidence 2) [872C48C6], AccurateRip returned [E0F4BA10] (AR v2)
Copy OK
Track 6
Filename C:\Rips\Harry Edison & Buck Clayton, Red Allen, Roy Eldridge - Swing Trumpet Kings\CD 1\06 Come With Me (alternative take).wav
Pre-gap length 0:00:03.52
Peak level 86.1 %
Extraction speed 3.3 X
Track quality 100.0 %
Copy CRC 3F3AD338
Cannot be verified as accurate (confidence 2) [ED00E25D], AccurateRip returned [0D81324E] (AR v2)
Copy OK
Track 7
Filename C:\Rips\Harry Edison & Buck Clayton, Red Allen, Roy Eldridge - Swing Trumpet Kings\CD 1\07 Memories for the Count (alternative take).wav
Pre-gap length 0:00:02.25
Peak level 90.2 %
Extraction speed 3.5 X
Track quality 100.0 %
Copy CRC B7B1875C
Cannot be verified as accurate (confidence 2) [96F0EDF8], AccurateRip returned [73FC03B2] (AR v2)
Copy OK
Track 8
Filename C:\Rips\Harry Edison & Buck Clayton, Red Allen, Roy Eldridge - Swing Trumpet Kings\CD 1\08 Ballin' the Jack.wav
Pre-gap length 0:00:03.25
Peak level 94.6 %
Extraction speed 3.3 X
Track quality 100.0 %
Copy CRC AD7C35A0
Cannot be verified as accurate (confidence 2) [FD5CC67C], AccurateRip returned [8F2AA8C1] (AR v2)
Copy OK
Track 9
Filename C:\Rips\Harry Edison & Buck Clayton, Red Allen, Roy Eldridge - Swing Trumpet Kings\CD 1\09 Canal Street Blues.wav
Pre-gap length 0:00:03.58
Peak level 99.3 %
Extraction speed 3.5 X
Track quality 100.0 %
Copy CRC 64AA7D1C
Cannot be verified as accurate (confidence 2) [BBA3EEA2], AccurateRip returned [3CAF2296] (AR v2)
Copy OK
Track 10
Filename C:\Rips\Harry Edison & Buck Clayton, Red Allen, Roy Eldridge - Swing Trumpet Kings\CD 1\10 Someday, Sweetheart.wav
Pre-gap length 0:00:03.20
Peak level 91.0 %
Extraction speed 3.2 X
Track quality 99.9 %
Copy CRC 05A514A7
Cannot be verified as accurate (confidence 2) [A5B184E9], AccurateRip returned [C1B47B8E] (AR v2)
Copy OK
Track 11
Filename C:\Rips\Harry Edison & Buck Clayton, Red Allen, Roy Eldridge - Swing Trumpet Kings\CD 1\11 Dixie medley- Dixie, Marching Through Georgia, Battle Hymn of the Republic, Bourbon Street Parade.wav
Pre-gap length 0:00:04.43
Peak level 100.0 %
Extraction speed 3.6 X
Track quality 99.9 %
Copy CRC 36894B0D
Cannot be verified as accurate (confidence 2) [38F701B8], AccurateRip returned [43B64649] (AR v2)
Copy OK
Track 12
Filename C:\Rips\Harry Edison & Buck Clayton, Red Allen, Roy Eldridge - Swing Trumpet Kings\CD 1\12 How Long, How Long Blues.wav
Pre-gap length 0:00:03.60
Peak level 100.0 %
Extraction speed 3.7 X
Track quality 100.0 %
Copy CRC 754B69BD
Cannot be verified as accurate (confidence 2) [0562CDF6], AccurateRip returned [89B0AD01] (AR v2)
Copy OK
Track 13
Filename C:\Rips\Harry Edison & Buck Clayton, Red Allen, Roy Eldridge - Swing Trumpet Kings\CD 1\13 Just a Closer Walk With Thee.wav
Pre-gap length 0:00:02.58
Peak level 100.0 %
Extraction speed 3.9 X
Track quality 100.0 %
Copy CRC AFB5B766
Cannot be verified as accurate (confidence 2) [623EF99B], AccurateRip returned [CC8EFB5C] (AR v2)
Copy OK
No tracks could be verified as accurate
You may have a different pressing from the one(s) in the database
No errors occurred
End of status report
---- CUETools DB Plugin V2.1.3
[CTDB TOCID: nbjn0CgQKOVH_J2cV7KE5WLTuFY-] found, Submit result: nbjn0CgQKOVH_J2cV7KE5WLTuFY- has been confirmed
[6c5ba1c7] (2/2) Accurately ripped
==== Log checksum 21DDB58BF74393D29549397DBAFF37196F48BE7CFF7ECE6C79A2E9381E93BB14 ====
 
Содержание индексной карты (.CUE):
REM GENRE Jazz
REM DISCID C511DA0D
REM COMMENT "ExactAudioCopy v1.0b3"
CATALOG 0731453326323
PERFORMER "Harry Edison & Buck Clayton, Red Allen, Roy Eldridge"
TITLE "Swing Trumpet Kings"
FILE "01 Memories for the Count.wav" WAVE
TRACK 01 AUDIO
TITLE "Memories for the Count"
PERFORMER "Harry Edison and Buck Clayton"
ISRC USPR35830133
INDEX 01 00:00:00
INDEX 02 04:42:02
INDEX 03 05:19:70
TRACK 02 AUDIO
TITLE "Come With Me"
PERFORMER "Harry Edison and Buck Clayton"
ISRC USPR35830134
INDEX 00 08:50:05
FILE "02 Come With Me.wav" WAVE
INDEX 01 00:00:00
TRACK 03 AUDIO
TITLE "Critics' Delight"
PERFORMER "Harry Edison and Buck Clayton"
ISRC USPR35830135
INDEX 00 05:51:57
FILE "03 Critics' Delight.wav" WAVE
INDEX 01 00:00:00
TRACK 04 AUDIO
TITLE "Oh, How I Hate to Get Up in the Afternoon"
PERFORMER "Harry Edison and Buck Clayton"
ISRC USPR35830136
INDEX 00 06:46:65
FILE "04 Oh, How I Hate to Get Up in the Afternoon.wav" WAVE
INDEX 01 00:00:00
TRACK 05 AUDIO
TITLE "Medley: It All Depends on You, Charmaine, Makin' Whoopee, How Long Has This B..."
PERFORMER "Harry Edison and Buck Clayton"
ISRC USPR35830137
INDEX 00 09:04:10
FILE "05 Medley.wav" WAVE
INDEX 01 00:00:00
INDEX 02 02:18:30
INDEX 03 04:22:08
INDEX 04 06:26:43
TRACK 06 AUDIO
TITLE "Come With Me (alternative take)"
PERFORMER "Harry Edison and Buck Clayton"
ISRC USPR35830138
INDEX 00 08:57:68
FILE "06 Come With Me (alternative take).wav" WAVE
INDEX 01 00:00:00
TRACK 07 AUDIO
TITLE "Memories for the Count (alternative take)"
PERFORMER "Harry Edison and Buck Clayton"
ISRC USPR35830139
INDEX 00 05:16:18
FILE "07 Memories for the Count (alternative take).wav" WAVE
INDEX 01 00:00:00
TRACK 08 AUDIO
TITLE "Ballin' the Jack"
PERFORMER "Red Allen"
ISRC USPR36012044
INDEX 00 06:38:20
FILE "08 Ballin' the Jack.wav" WAVE
INDEX 01 00:00:00
TRACK 09 AUDIO
TITLE "Canal Street Blues"
PERFORMER "Red Allen"
ISRC USPR36012045
INDEX 00 03:19:47
FILE "09 Canal Street Blues.wav" WAVE
INDEX 01 00:00:00
TRACK 10 AUDIO
TITLE "Someday, Sweetheart"
PERFORMER "Red Allen"
ISRC USPR36012046
INDEX 00 03:45:25
FILE "10 Someday, Sweetheart.wav" WAVE
INDEX 01 00:00:00
TRACK 11 AUDIO
TITLE "Dixie medley: Dixie, Marching Through Georgia, Battle Hymn of the Republic, B..."
PERFORMER "Red Allen"
ISRC USPR36012047
INDEX 00 03:57:57
FILE "11 Dixie medley.wav" WAVE
INDEX 01 00:00:00
INDEX 02 00:35:32
INDEX 03 01:24:67
TRACK 12 AUDIO
TITLE "How Long, How Long Blues"
PERFORMER "Red Allen"
ISRC USPR36012048
INDEX 00 06:29:22
FILE "12 How Long, How Long Blues.wav" WAVE
INDEX 01 00:00:00
TRACK 13 AUDIO
TITLE "Just a Closer Walk With Thee"
PERFORMER "Red Allen"
ISRC USPR36012049
INDEX 00 03:13:10
FILE "13 Just a Closer Walk With Thee.wav" WAVE
INDEX 01 00:00:00
 
Лог проверки качества
-----------------------
DON'T MODIFY THIS FILE
-----------------------
PERFORMER: auCDtect Task Manager, ver. 1.6.0 RC1 build 1.6.0.1
Copyright (c) 2008-2010 y-soft. All rights reserved
http://y-soft.org
ANALYZER: auCDtect: CD records authenticity detector, version 0.8.2
Copyright (c) 2004 Oleg Berngardt. All rights reserved.
Copyright (c) 2004 Alexander Djourik. All rights reserved.
FILE: 13 Just a Closer Walk With Thee.flac
Size: 18393118 Hash: C708A73C5D0CC485C9E007E2641A2DAC Accuracy: -m0
Conclusion: CDDA 100%
Signature: 471C63D888B8A54C8D8B27D0331AA248864FA795
FILE: 12 How Long, How Long Blues.flac
Size: 20841739 Hash: 0649FB0E2FA432E87A4CC5FB57B438E7 Accuracy: -m0
Conclusion: CDDA 99%
Signature: C670F143547D51FECEC1D5654922A7C1D679C4D7
FILE: 11 Dixie medley- Dixie, Marching Through Georgia, Battle Hymn of the Republic, Bourbon Street Parade.flac
Size: 46645734 Hash: F93A1681CFA9468CD96B3B1B909D0A12 Accuracy: -m0
Conclusion: CDDA 100%
Signature: 2CD25E442BA4C89EEB7BC4A5D398AB958F505620
FILE: 10 Someday, Sweetheart.flac
Size: 24531221 Hash: D44B217284E4B088FC7D25F5F6267C91 Accuracy: -m0
Conclusion: CDDA 100%
Signature: 04C13BF44F663969D200002798ECEED5B5F966C1
FILE: 09 Canal Street Blues.flac
Size: 25349718 Hash: 8B1CAE8BAFE0F8E8928EAFBFB95FD0EB Accuracy: -m0
Conclusion: CDDA 100%
Signature: 7A1FBFAA0C87E7A8C6C845D419E7777F9F9CE86A
FILE: 08 Ballin' the Jack.flac
Size: 24222954 Hash: 04A14FB67BD7CFBCA3440E9D912FCAEC Accuracy: -m0
Conclusion: CDDA 100%
Signature: C07A391FA9AB78C030090DA78C0599F9C43977C6
FILE: 07 Memories for the Count (alternative take).flac
Size: 27201680 Hash: A21CE3AE794EDF0DA126304E0BC14EA0 Accuracy: -m0
Conclusion: CDDA 100%
Signature: 5C337A95DCCF94828E54B676D164693F605F7F89
FILE: 06 Come With Me (alternative take).flac
Size: 21849687 Hash: 3B3F625D14C115C3CAA7344D9E790998 Accuracy: -m0
Conclusion: CDDA 100%
Signature: 872832BDA367A9A646DC333B05571B1D3910594F
FILE: 05 Medley- It All Depends on You, Charmaine, Makin' Whoopee, How Long Has This Been Going On.flac
Size: 49247629 Hash: 4B70B6C0BD7E1BE8F6B04CB6365B5080 Accuracy: -m0
Conclusion: CDDA 100%
Signature: EEA688643C73D424611F9C1A6780461E7485D1FB
FILE: 04 Oh, How I Hate to Get Up in the Afternoon.flac
Size: 57700273 Hash: 4C2D7CE38C9DACEEC4486EAD5C02CBD6 Accuracy: -m0
Conclusion: CDDA 100%
Signature: 0B508EF41196F08FA87C2CBEB63C3E7ED8415623
FILE: 03 Critics' Delight.flac
Size: 39195134 Hash: 8D21F7BD4F12D6CF15A1C20F79A045A3 Accuracy: -m0
Conclusion: CDDA 100%
Signature: 2E0E21C20A7F1F7F1C0A937206EB76F76625AFBC
FILE: 02 Come With Me.flac
Size: 37513537 Hash: 4B0B7508ED57CA862E5410BA7B14163B Accuracy: -m0
Conclusion: CDDA 100%
Signature: 7EABC4B006730C27AF53C8D541667002CCC48A80
FILE: 01 Memories for the Count.flac
Size: 57607004 Hash: 96F14F53E75E8020FE422E76D792E2E6 Accuracy: -m0
Conclusion: CDDA 100%
Signature: 469F3B87C61C4F11C47053D0039E9FBF54BF1965
 
Лог CUETools
[CUETools log; Date: 7/22/2016 10:16:30 PM; Version: 2.1.5]
[CTDB TOCID: nbjn0CgQKOVH_J2cV7KE5WLTuFY-] found.
Track | CTDB Status
1 | (4/4) Accurately ripped
2 | (4/4) Accurately ripped
3 | (4/4) Accurately ripped
4 | (4/4) Accurately ripped
5 | (4/4) Accurately ripped
6 | (4/4) Accurately ripped
7 | (4/4) Accurately ripped
8 | (4/4) Accurately ripped
9 | (4/4) Accurately ripped
10 | (4/4) Accurately ripped
11 | (4/4) Accurately ripped
12 | (4/4) Accurately ripped
13 | (4/4) Accurately ripped
[AccurateRip ID: 0029c262-0194ded1-c511da0d] found.
Track [ CRC | V2 ] Status
01 [fa49293e|8ac136d9] (0+0/2) No match
02 [ceb97389|cdd1d833] (0+0/2) No match
03 [496137d3|3fefd1dd] (0+0/2) No match
04 [27f84415|6f8a75f8] (0+0/2) No match
05 [77224e06|872c48c6] (0+0/2) No match
06 [8c58d6a4|ed00e25d] (0+0/2) No match
07 [8c00531d|96f0edf8] (0+0/2) No match
08 [06110601|fd5cc67c] (0+0/2) No match
09 [9c671cbc|bba3eea2] (0+0/2) No match
10 [8c5d3669|a5b184e9] (0+0/2) No match
11 [24009b41|38f701b8] (0+0/2) No match
12 [b20a0dde|0562cdf6] (0+0/2) No match
13 [59bc8c98|623ef99b] (0+0/2) No match
Offsetted by 18:
01 [662f039a] (0/2) No match (V2 was not tested)
02 [6db5032f] (0/2) No match (V2 was not tested)
03 [d4c34d21] (0/2) No match (V2 was not tested)
04 [f0fc8aa5] (0/2) No match (V2 was not tested)
05 [ddac47fe] (0/2) No match (V2 was not tested)
06 [b4585536] (0/2) No match (V2 was not tested)
07 [72579ddb] (0/2) No match (V2 was not tested)
08 [9cb91489] (0/2) No match (V2 was not tested)
09 [22ea5c08] (0/2) No match (V2 was not tested)
10 [ae0944bb] (0/2) No match (V2 was not tested)
11 [381db759] (0/2) No match (V2 was not tested)
12 [3af4676e] (0/2) No match (V2 was not tested)
13 [c8f06932] (0/2) No match (V2 was not tested)
Track Peak [ CRC32 ] [W/O NULL] [ LOG ]
-- 100.0 [76AB4FE6] [401BBF9E]
01 99.4 [BCD4B155] [AB80176F] CRC32
02 86.6 [1807F886] [1A7D5DAE] CRC32
03 92.1 [CCD56DC8] [E97C3F85] CRC32
04 88.5 [0FB596A6] [BA766E7C] CRC32
05 100.0 [55BE5FD8] [7441BEE8] CRC32
06 86.1 [3F3AD338] [12A80919] CRC32
07 90.2 [B7B1875C] [028B7FC9] CRC32
08 94.6 [AD7C35A0] [EE56FB9D] CRC32
09 99.3 [64AA7D1C] [2C2BDD32] CRC32
10 91.0 [05A514A7] [1CF9A943] CRC32
11 100.0 [36894B0D] [9ED45E9E] CRC32
12 100.0 [754B69BD] [C19B7737] CRC32
13 100.0 [AFB5B766] [EA67C410] CRC32
 
Замер динамического диапазона
foobar2000 1.3.10 / Замер динамического диапазона (DR) 1.1.1
Дата отчёта: 2018-02-22 06:34:42
--------------------------------------------------------------------------------
Анализ: Harry Edison and Buck Clayton / Swing Trumpet Kings - disc 1 (1-7)
Red Allen / Swing Trumpet Kings - disc 1 (8-13)
--------------------------------------------------------------------------------
DR Пики RMS Продолжительность трека
--------------------------------------------------------------------------------
DR12 -0.05 дБ -16.90 дБ 8:52 01-Memories for the Count
DR13 -1.24 дБ -17.23 дБ 5:54 02-Come With Me
DR13 -0.71 дБ -17.68 дБ 6:50 03-Critics' Delight
DR13 -1.06 дБ -18.75 дБ 9:07 04-Oh, How I Hate to Get Up in the Afternoon
DR13 0.00 дБ -18.79 дБ 9:02 05-Medley: It All Depends on You, Charmaine, Makin' Whoopee, How Long Has This Been Going On?
DR13 -1.30 дБ -17.03 дБ 5:19 06-Come With Me (alternative take)
DR12 -0.89 дБ -16.51 дБ 6:42 07-Memories for the Count (alternative take)
DR11 -0.48 дБ -13.74 дБ 3:23 08-Ballin' the Jack
DR12 -0.05 дБ -14.67 дБ 3:49 09-Canal Street Blues
DR13 -0.81 дБ -17.54 дБ 4:02 10-Someday, Sweetheart
DR11 0.00 дБ -13.90 дБ 6:33 11-Dixie medley: Dixie, Marching Through Georgia, Battle Hymn of the Republic, Bourbon Street Parade
DR11 0.00 дБ -15.17 дБ 3:16 12-How Long, How Long Blues
DR13 0.00 дБ -17.30 дБ 3:21 13-Just a Closer Walk With Thee
--------------------------------------------------------------------------------
Количество треков: 13
Реальные значения DR: DR12
Частота: 44100 Гц
Каналов: 2
Разрядность: 16
Битрейт: 730 кбит/с
Кодек: FLAC
================================================================================
 
CD2
Трэклист:
Red Allen Plays King Oliver (cont.)
1. Bill Bailey, Won't You Please Come Home? (Hughie Cannon) 6:13
2. Snowy Morning Blues (James Price Johnson) 3:17
3. Baby, Won't You Please Come Home? (Clarence Williams-Charles Warfield) 3:10
4. Fidgety Feet (George and Ira Gershwin) 4:40
5. Yellow Dog Blues (orig., "The Yellow Dog Rag") (William Christopher "W.C." Handy) 4:17
6. All of Me (Gerald Marks-Seymour B. Simons) 3:53
Red Allen (t) with Herb Fleming (tb); Buster Bailey (cl); Bob Hammer (p); Milt Hinton (b); Sol Hall (d). Tracks 2,3, and 5: Sammy Price replaces Hammer. Tracks 3 and 6: Add Allen (vcl).
Recorded November 21, 1960 at Nola Recording Studios, New York City
Original LP issue: Red Allen Plays King Oliver (Verve MGVS 1025)
Roy Eldridge and His Central Plaza Dixielanders - Swing Goes Dixie
7. That's a-Plenty (Lew Pollack) 5:35
8. Royal Garden Blues (Clarence Williams-Spencer Williams) 6:15
9. The Jazz Me Blues (Tom Delaney) 4:41
10. Tin Roof Blues 7:32 (Georg Brunis, b. George Clarence Brunies-Paul Joseph Mares-Ben Pollack-Joseph Leon Roppolo-Mel Stitzel)
11. Struttin'With Some Barbecue (Louis Armstrong) 5:32
12. (What Did I Do to Be So) Black and Blue. 7';39 (Thomas Wright "Fats" Waller-Harry Brooks-Andy Razaf, b. Andreamentena Razafinkeriefo)
13. Bugle Call Rag (Billy Meyers-Jack Pettis-Elmer Schoebel) 5:08
14. Ja-Da (Bob Carleton) 4:37
15. Royal Garden Blues [alternative take] 5:50
Roy Eldridge and His Central Plaza Dixielanders: Eldridge (t) with Benny Morton (tb); Eddie Barefield (cl); Dick Wellstood (p); Walter Page (b); Jo Jones (d).
Recorded June 3,1956 at Fine Sound, New York City
Tracks 7-14 original LP issue: Swing Goes Dixie (Mem MGV1010)
Track 15 is previously unissued.
 
Лог создания рипа
Exact Audio Copy V1.0 beta 3 from 29. August 2011
EAC extraction logfile from 12. November 2014, 21:59
Harry Edison & Buck Clayton, Red Allen, Roy Eldridge / Swing Trumpet Kings
Used drive : HL-DT-STDVD+-RW GH82N Adapter: 0 ID: 2
Read mode : Secure
Utilize accurate stream : Yes
Defeat audio cache : Yes
Make use of C2 pointers : No
Read offset correction : 667
Overread into Lead-In and Lead-Out : No
Fill up missing offset samples with silence : Yes
Delete leading and trailing silent blocks : No
Null samples used in CRC calculations : Yes
Used interface : Native Win32 interface for Win NT & 2000
Gap handling : Appended to previous track
Used output format : User Defined Encoder
Selected bitrate : 1024 kBit/s
Quality : High
Add ID3 tag : No
Command line compressor : C:\Program Files (x86)\Exact Audio Copy\Flac\flac.exe
Additional command line options : -8 -V -T "ARTIST=%artist%" -T "TITLE=%title%" -T "ALBUM=%albumtitle%" -T "DATE=%year%" -T "TRACKNUMBER=%tracknr%" -T "GENRE=%genre%" -T "COMMENT=%comment%" -T "BAND=%albuminterpret%" -T "ALBUMARTIST=%albuminterpret%" -T "COMPOSER=%composer%" %haslyrics%--tag-from-file=LYRICS="%lyricsfile%"%haslyrics% -T "DISCNUMBER=%cdnumber%" -T "TOTALDISCS=%totalcds%" -T "TOTALTRACKS=%numtracks%" %hascover%--picture="%coverfile%"%hascover% %source% -o %dest%
TOC of the extracted CD
Track | Start | Length | Start sector | End sector
---------------------------------------------------------
1 | 0:00.00 | 6:17.50 | 0 | 28324
2 | 6:17.50 | 3:20.65 | 28325 | 43389
3 | 9:38.40 | 3:14.07 | 43390 | 57946
4 | 12:52.47 | 4:41.55 | 57947 | 79076
5 | 17:34.27 | 4:19.48 | 79077 | 98549
6 | 21:54.00 | 3:55.35 | 98550 | 116209
7 | 25:49.35 | 5:37.72 | 116210 | 141556
8 | 31:27.32 | 6:19.20 | 141557 | 170001
9 | 37:46.52 | 4:44.45 | 170002 | 191346
10 | 42:31.22 | 7:34.68 | 191347 | 225464
11 | 50:06.15 | 5:34.40 | 225465 | 250554
12 | 55:40.55 | 7:42.40 | 250555 | 285244
13 | 63:23.20 | 5:10.72 | 285245 | 308566
14 | 68:34.17 | 4:45.58 | 308567 | 329999
15 | 73:20.00 | 5:47.52 | 330000 | 356076
Track 1
Filename C:\Rips\Harry Edison & Buck Clayton, Red Allen, Roy Eldridge - Swing Trumpet Kings\CD 2\01 Bill Bailey, Won't You Please Come Home.wav
Pre-gap length 0:00:02.00
Peak level 72.0 %
Extraction speed 1.9 X
Track quality 100.0 %
Copy CRC B137C0F6
Cannot be verified as accurate (confidence 2) [EFC580B6], AccurateRip returned [4E562779] (AR v2)
Copy OK
Track 2
Filename C:\Rips\Harry Edison & Buck Clayton, Red Allen, Roy Eldridge - Swing Trumpet Kings\CD 2\02 Snowy Morning Blues.wav
Pre-gap length 0:00:03.58
Peak level 72.0 %
Extraction speed 1.7 X
Track quality 99.9 %
Copy CRC C163C9F7
Cannot be verified as accurate (confidence 2) [3D629BB6], AccurateRip returned [7C92659F] (AR v2)
Copy OK
Track 3
Filename C:\Rips\Harry Edison & Buck Clayton, Red Allen, Roy Eldridge - Swing Trumpet Kings\CD 2\03 Baby, Won't You Please Come Home.wav
Pre-gap length 0:00:03.25
Peak level 77.0 %
Extraction speed 2.1 X
Track quality 100.0 %
Copy CRC 5246DA38
Cannot be verified as accurate (confidence 2) [1BDEC3BE], AccurateRip returned [64424713] (AR v2)
Copy OK
Track 4
Filename C:\Rips\Harry Edison & Buck Clayton, Red Allen, Roy Eldridge - Swing Trumpet Kings\CD 2\04 Fidgety Feet.wav
Pre-gap length 0:00:03.30
Peak level 82.4 %
Extraction speed 2.3 X
Track quality 100.0 %
Copy CRC D7AF7106
Cannot be verified as accurate (confidence 2) [657D3EE0], AccurateRip returned [D3E356EF] (AR v2)
Copy OK
Track 5
Filename C:\Rips\Harry Edison & Buck Clayton, Red Allen, Roy Eldridge - Swing Trumpet Kings\CD 2\05 Yellow Dog Blues.wav
Pre-gap length 0:00:01.57
Peak level 72.9 %
Extraction speed 2.5 X
Track quality 100.0 %
Copy CRC A0E68166
Cannot be verified as accurate (confidence 2) [AAD34450], AccurateRip returned [3521560D] (AR v2)
Copy OK
Track 6
Filename C:\Rips\Harry Edison & Buck Clayton, Red Allen, Roy Eldridge - Swing Trumpet Kings\CD 2\06 All of Me.wav
Pre-gap length 0:00:02.58
Peak level 78.8 %
Extraction speed 2.6 X
Track quality 100.0 %
Copy CRC 4CEB5938
Cannot be verified as accurate (confidence 2) [8E3EA8A9], AccurateRip returned [BFE497D1] (AR v2)
Copy OK
Track 7
Filename C:\Rips\Harry Edison & Buck Clayton, Red Allen, Roy Eldridge - Swing Trumpet Kings\CD 2\07 That's a-Plenty.wav
Pre-gap length 0:00:01.68
Peak level 87.5 %
Extraction speed 2.6 X
Track quality 99.9 %
Copy CRC A3C72BEA
Cannot be verified as accurate (confidence 2) [7DF30538], AccurateRip returned [E16B9AA3] (AR v2)
Copy OK
Track 8
Filename C:\Rips\Harry Edison & Buck Clayton, Red Allen, Roy Eldridge - Swing Trumpet Kings\CD 2\08 Royal Garden Blues.wav
Pre-gap length 0:00:03.07
Peak level 71.7 %
Extraction speed 3.1 X
Track quality 100.0 %
Copy CRC E7EC0FD2
Cannot be verified as accurate (confidence 2) [CF7691AF], AccurateRip returned [ED20A341] (AR v2)
Copy OK
Track 9
Filename C:\Rips\Harry Edison & Buck Clayton, Red Allen, Roy Eldridge - Swing Trumpet Kings\CD 2\09 The Jazz Me Blues.wav
Pre-gap length 0:00:03.47
Peak level 67.8 %
Extraction speed 3.1 X
Track quality 100.0 %
Copy CRC 2734835B
Cannot be verified as accurate (confidence 2) [92E4B197], AccurateRip returned [F5AC2ABE] (AR v2)
Copy OK
Track 10
Filename C:\Rips\Harry Edison & Buck Clayton, Red Allen, Roy Eldridge - Swing Trumpet Kings\CD 2\10 The Tin Roof Blues.wav
Pre-gap length 0:00:03.47
Peak level 78.3 %
Extraction speed 3.4 X
Track quality 100.0 %
Copy CRC 5626C0DA
Cannot be verified as accurate (confidence 2) [3B66229F], AccurateRip returned [F2C0A90C] (AR v2)
Copy OK
Track 11
Filename C:\Rips\Harry Edison & Buck Clayton, Red Allen, Roy Eldridge - Swing Trumpet Kings\CD 2\11 Struttin' With Some Barbecue.wav
Pre-gap length 0:00:03.05
Peak level 79.9 %
Extraction speed 3.4 X
Track quality 100.0 %
Copy CRC 68C6B55C
Cannot be verified as accurate (confidence 2) [BFC4BB06], AccurateRip returned [146D0DEA] (AR v2)
Copy OK
Track 12
Filename C:\Rips\Harry Edison & Buck Clayton, Red Allen, Roy Eldridge - Swing Trumpet Kings\CD 2\12 (What Did I Do To Be So) Black And Blue.wav
Pre-gap length 0:00:02.43
Peak level 93.3 %
Extraction speed 3.8 X
Track quality 100.0 %
Copy CRC DBEF75D9
Cannot be verified as accurate (confidence 2) [869129E5], AccurateRip returned [649D5BBE] (AR v2)
Copy OK
Track 13
Filename C:\Rips\Harry Edison & Buck Clayton, Red Allen, Roy Eldridge - Swing Trumpet Kings\CD 2\13 Bugle Call Rag.wav
Pre-gap length 0:00:03.45
Peak level 86.5 %
Extraction speed 3.7 X
Track quality 100.0 %
Copy CRC 7E399E77
Cannot be verified as accurate (confidence 2) [996E69EF], AccurateRip returned [C35FFCB2] (AR v2)
Copy OK
Track 14
Filename C:\Rips\Harry Edison & Buck Clayton, Red Allen, Roy Eldridge - Swing Trumpet Kings\CD 2\14 Ja-Da.wav
Pre-gap length 0:00:02.60
Peak level 62.6 %
Extraction speed 3.8 X
Track quality 100.0 %
Copy CRC B9B97115
Cannot be verified as accurate (confidence 2) [39B33859], AccurateRip returned [25142AC3] (AR v2)
Copy OK
Track 15
Filename C:\Rips\Harry Edison & Buck Clayton, Red Allen, Roy Eldridge - Swing Trumpet Kings\CD 2\15 Royal Garden Blues (alternative take).wav
Pre-gap length 0:00:08.05
Peak level 69.3 %
Extraction speed 4.0 X
Track quality 100.0 %
Copy CRC 5861520B
Cannot be verified as accurate (confidence 2) [E4E9D37F], AccurateRip returned [63A22A66] (AR v2)
Copy OK
No tracks could be verified as accurate
You may have a different pressing from the one(s) in the database
No errors occurred
End of status report
---- CUETools DB Plugin V2.1.3
[CTDB TOCID: nNsvL4viC.dU82ThB7pBpEJbTZY-] found, Submit result: nNsvL4viC.dU82ThB7pBpEJbTZY- has been uploaded
[aa936945] (1/1) No match
==== Log checksum 2916C012BFC6F7E614118E61C05B6A3308F1DFC25876997F6DA447856B9249C3 ====
 
Содержание индексной карты (.CUE):
REM GENRE Jazz
REM DISCID CF128B0F
REM COMMENT "ExactAudioCopy v1.0b3"
CATALOG 0731453326323
PERFORMER "Harry Edison & Buck Clayton, Red Allen, Roy Eldridge"
TITLE "Swing Trumpet Kings"
FILE "01 Bill Bailey, Won't You Please Come Home.wav" WAVE
TRACK 01 AUDIO
TITLE "Bill Bailey, Won't You Please Come Home?"
PERFORMER "Red Allen"
ISRC USPR36012050
INDEX 01 00:00:00
TRACK 02 AUDIO
TITLE "Snowy Morning Blues"
PERFORMER "Red Allen"
ISRC USPR36012051
INDEX 00 06:13:67
FILE "02 Snowy Morning Blues.wav" WAVE
INDEX 01 00:00:00
TRACK 03 AUDIO
TITLE "Baby, Won't You Please Come Home?"
PERFORMER "Red Allen"
ISRC USPR36012052
INDEX 00 03:17:40
FILE "03 Baby, Won't You Please Come Home.wav" WAVE
INDEX 01 00:00:00
TRACK 04 AUDIO
TITLE "Fidgety Feet"
PERFORMER "Red Allen"
ISRC USPR36012053
INDEX 00 03:10:52
FILE "04 Fidgety Feet.wav" WAVE
INDEX 01 00:00:00
TRACK 05 AUDIO
TITLE "Yellow Dog Blues"
PERFORMER "Red Allen"
ISRC USPR36012054
INDEX 00 04:39:73
FILE "05 Yellow Dog Blues.wav" WAVE
INDEX 01 00:00:00
TRACK 06 AUDIO
TITLE "All of Me"
PERFORMER "Red Allen"
ISRC USPR36012055
INDEX 00 04:16:65
FILE "06 All of Me.wav" WAVE
INDEX 01 00:00:00
TRACK 07 AUDIO
TITLE "That's a-Plenty"
PERFORMER "Roy Elridge"
ISRC USPR35612048
INDEX 00 03:53:42
FILE "07 That's a-Plenty.wav" WAVE
INDEX 01 00:00:00
TRACK 08 AUDIO
TITLE "Royal Garden Blues"
PERFORMER "Roy Elridge"
ISRC USPR35612049
INDEX 00 05:34:65
FILE "08 Royal Garden Blues.wav" WAVE
INDEX 01 00:00:00
TRACK 09 AUDIO
TITLE "The Jazz Me Blues"
PERFORMER "Roy Elridge"
ISRC USPR35612050
INDEX 00 06:15:48
FILE "09 The Jazz Me Blues.wav" WAVE
INDEX 01 00:00:00
TRACK 10 AUDIO
TITLE "The Tin Roof Blues"
PERFORMER "Roy Elridge"
ISRC USPR35612051
INDEX 00 04:40:73
FILE "10 The Tin Roof Blues.wav" WAVE
INDEX 01 00:00:00
TRACK 11 AUDIO
TITLE "Struttin' With Some Barbecue"
PERFORMER "Roy Elridge"
ISRC USPR35612052
INDEX 00 07:31:63
FILE "11 Struttin' With Some Barbecue.wav" WAVE
INDEX 01 00:00:00
TRACK 12 AUDIO
TITLE "(What Did I Do To Be So) Black And Blue"
PERFORMER "Roy Elridge"
ISRC USPR35612053
INDEX 00 05:31:72
FILE "12 (What Did I Do To Be So) Black And Blue.wav" WAVE
INDEX 01 00:00:00
TRACK 13 AUDIO
TITLE "Bugle Call Rag"
PERFORMER "Roy Elridge"
ISRC USPR35600032
INDEX 00 07:38:70
FILE "13 Bugle Call Rag.wav" WAVE
INDEX 01 00:00:00
TRACK 14 AUDIO
TITLE "Ja-Da"
PERFORMER "Roy Elridge"
ISRC USPR35600033
INDEX 00 05:08:12
FILE "14 Ja-Da.wav" WAVE
INDEX 01 00:00:00
TRACK 15 AUDIO
TITLE "Royal Garden Blues (alternative take)"
PERFORMER "Roy Elridge"
ISRC USPR35612054
INDEX 00 04:37:53
FILE "15 Royal Garden Blues (alternative take).wav" WAVE
INDEX 01 00:00:00
 
Лог проверки качества
-----------------------
DON'T MODIFY THIS FILE
-----------------------
PERFORMER: auCDtect Task Manager, ver. 1.6.0 RC1 build 1.6.0.1
Copyright (c) 2008-2010 y-soft. All rights reserved
http://y-soft.org
ANALYZER: auCDtect: CD records authenticity detector, version 0.8.2
Copyright (c) 2004 Oleg Berngardt. All rights reserved.
Copyright (c) 2004 Alexander Djourik. All rights reserved.
FILE: 15 Royal Garden Blues (alternative take).flac
Size: 24663110 Hash: FECA243551BAF32833CFE1F9D261E257 Accuracy: -m0
Conclusion: CDDA 100%
Signature: 69C5FA88AF3E949479377C14F1C669F80CC18795
FILE: 14 Ja-Da.flac
Size: 17937437 Hash: 3D2A4AA7474AB351CADC9BD1AF1344B8 Accuracy: -m0
Conclusion: CDDA 100%
Signature: 6AD8CA6987F21F7C68162FD31792AB34BB17587D
FILE: 13 Bugle Call Rag.flac
Size: 21117175 Hash: 25C202400EDAB2BDEE75C650CA56B014 Accuracy: -m0
Conclusion: CDDA 100%
Signature: 1EB9BAFE3137EF5541D2481859F61238511CDD57
FILE: 12 (What Did I Do To Be So) Black And Blue.flac
Size: 30244010 Hash: D90277CB30600456952CB58E9517C1BF Accuracy: -m0
Conclusion: CDDA 100%
Signature: 3A943BACA9646296AA6AED4D65BAA600682F8B97
FILE: 11 Struttin' With Some Barbecue.flac
Size: 23114568 Hash: 5E40D135FBC2348BB631ED91A490658A Accuracy: -m0
Conclusion: CDDA 100%
Signature: 8700DDD8387A5DC133582645405068F3283CB3FC
FILE: 10 The Tin Roof Blues.flac
Size: 29774250 Hash: 2F6E9044D2D3CFD94F6595D582FE3FEE Accuracy: -m0
Conclusion: CDDA 100%
Signature: FD9F5A768EC982761397CD9EF5CFE4FD74CA7FD3
FILE: 09 The Jazz Me Blues.flac
Size: 19802018 Hash: FCCCD54F5F4185E77F03FF7950CF78E9 Accuracy: -m0
Conclusion: CDDA 100%
Signature: 2C6E2B54335DFF03BE5D500B872BD04AE0F3748D
FILE: 08 Royal Garden Blues.flac
Size: 25916539 Hash: E94E25F8A1A52B64B1D5E244EE480AAD Accuracy: -m0
Conclusion: CDDA 99%
Signature: 0A4AEAC7DAF34853FF0B799096C2DB14D707EA64
FILE: 07 That's a-Plenty.flac
Size: 24528591 Hash: 8CF744A737C21E52A640D907B922150C Accuracy: -m0
Conclusion: CDDA 100%
Signature: 2A4E09C6425F7AD080BD67373D656BAD11FB87BD
FILE: 06 All of Me.flac
Size: 24196939 Hash: FF333872B02E962B6B267269B7209480 Accuracy: -m0
Conclusion: CDDA 99%
Signature: 4BD4EE8C2E643F5774C473BCC83B883218E9C481
FILE: 05 Yellow Dog Blues.flac
Size: 28224337 Hash: D78B72729A40C1C2E13B94F15261518C Accuracy: -m0
Conclusion: CDDA 99%
Signature: D49140D886EFF63C909FE4BAE9E5EF25DAABED3B
FILE: 04 Fidgety Feet.flac
Size: 34126911 Hash: 40EA129E77238F3CC314D7643BE8196C Accuracy: -m0
Conclusion: CDDA 100%
Signature: CE26FD22D72F5A3AAA647D8912D0D41FC67AC2AB
FILE: 03 Baby, Won't You Please Come Home.flac
Size: 21291209 Hash: 4EE2DDB9E78E7C9467702D262F7A66EF Accuracy: -m0
Conclusion: CDDA 100%
Signature: E8999021380BC6C01E49361C73C7A15F289DD4D8
FILE: 02 Snowy Morning Blues.flac
Size: 21076998 Hash: 3353F118E17A9D9D3E78E88E8B35AB96 Accuracy: -m0
Conclusion: CDDA 100%
Signature: 3B19B61B1234051AE812BD8A3870C6624D44FA11
FILE: 01 Bill Bailey, Won't You Please Come Home.flac
Size: 41813826 Hash: B03FDF8D7A0796A2297DBC1E7714BB2F Accuracy: -m0
Conclusion: CDDA 99%
Signature: 7AE42421C5BD951098854CEBF9F4BEBE0C132A6D
 
Лог CUETools
[CUETools log; Date: 7/22/2016 10:16:37 PM; Version: 2.1.5]
[CTDB TOCID: nNsvL4viC.dU82ThB7pBpEJbTZY-] found.
Track | CTDB Status
1 | (3/3) Accurately ripped
2 | (3/3) Accurately ripped
3 | (3/3) Accurately ripped
4 | (3/3) Accurately ripped
5 | (3/3) Accurately ripped
6 | (3/3) Accurately ripped
7 | (3/3) Accurately ripped
8 | (3/3) Accurately ripped
9 | (3/3) Accurately ripped
10 | (3/3) Accurately ripped
11 | (3/3) Accurately ripped
12 | (3/3) Accurately ripped
13 | (1/3) Accurately ripped
14 | (3/3) Accurately ripped
15 | (3/3) Accurately ripped
[AccurateRip ID: 0028edca-01d85d26-cf128b0f] found.
Track [ CRC | V2 ] Status
01 [6ce8db4b|efc580b6] (0+0/2) No match
02 [84891174|3d629bb6] (0+0/2) No match
03 [ef7b1234|1bdec3be] (0+0/2) No match
04 [d50a8b44|657d3ee0] (0+0/2) No match
05 [d1718bc5|aad34450] (0+0/2) No match
06 [e0f62253|8e3ea8a9] (0+0/2) No match
07 [6f3c757c|7df30538] (0+0/2) No match
08 [a630189b|cf7691af] (0+0/2) No match
09 [a4a44fc0|92e4b197] (0+0/2) No match
10 [d39d2b4e|3b66229f] (0+0/2) No match
11 [b04347c9|bfc4bb06] (0+0/2) No match
12 [317ea15c|869129e5] (0+0/2) No match
13 [efd5d2ae|996e69ef] (0+0/2) No match
14 [5305d454|39b33859] (0+0/2) No match
15 [015c183d|e4e9d37f] (0+0/2) No match
Offsetted by -396:
01 [061c61b7] (0/2) No match (V2 was not tested)
02 [59504364] (0/2) No match (V2 was not tested)
03 [d28a0670] (0/2) No match (V2 was not tested)
04 [afa7aaac] (0/2) No match (V2 was not tested)
05 [d3c31b21] (0/2) No match (V2 was not tested)
06 [9505757b] (0/2) No match (V2 was not tested)
07 [227adf34] (0/2) No match (V2 was not tested)
08 [fe82f743] (0/2) No match (V2 was not tested)
09 [73b481a8] (0/2) No match (V2 was not tested)
10 [9bde0a3e] (0/2) No match (V2 was not tested)
11 [f823273d] (0/2) No match (V2 was not tested)
12 [1817faec] (0/2) No match (V2 was not tested)
13 [d837f5ee] (0/2) No match
14 [384f40aa] (0/2) No match (V2 was not tested)
15 [cadffdab] (0/2) No match (V2 was not tested)
Offsetted by 27:
01 [91026f38] (0/2) No match
02 [c77b7c98] (0/2) No match
03 [ce8b818d] (0/2) No match
04 [0bf431da] (0/2) No match
05 [cb779f16] (0/2) No match
06 [2623a279] (0/2) No match
07 [a8d54b5e] (0/2) No match
08 [ebcd5ae1] (0/2) No match
09 [c511c0b6] (0/2) No match
10 [b4817932] (0/2) No match
11 [c963e327] (0/2) No match
12 [08c25fc1] (0/2) No match
13 [cc376114] (0/2) No match (V2 was not tested)
14 [dee5a1c0] (0/2) No match
15 [6b547d07] (0/2) No match
Track Peak [ CRC32 ] [W/O NULL] [ LOG ]
-- 93.3 [CCEEEC85] [A9EC9FBD]
01 72.0 [B137C0F6] [09FAEDB5] CRC32
02 72.0 [C163C9F7] [F3444DAA] CRC32
03 77.0 [5246DA38] [BE1472C0] CRC32
04 82.4 [D7AF7106] [FB636389] CRC32
05 72.9 [A0E68166] [60097FC5] CRC32
06 78.8 [4CEB5938] [88B5294A] CRC32
07 87.5 [A3C72BEA] [74DEDA92] CRC32
08 71.7 [E7EC0FD2] [D9B44870] CRC32
09 67.8 [2734835B] [FE3BC64C] CRC32
10 78.3 [5626C0DA] [994D7E51] CRC32
11 79.9 [68C6B55C] [7504AF74] CRC32
12 93.3 [DBEF75D9] [1B10DD7A] CRC32
13 86.5 [7E399E77] [4D5DEC44] CRC32
14 62.6 [B9B97115] [B44CEA5F] CRC32
15 69.3 [5861520B] [17350E21] CRC32
 
Замер динамического диапазона
foobar2000 1.3.10 / Замер динамического диапазона (DR) 1.1.1
Дата отчёта: 2018-02-22 06:35:10
--------------------------------------------------------------------------------
Анализ: Red Allen / Swing Trumpet Kings - disc 2 (1-6)
Roy Elridge / Swing Trumpet Kings - disc 2 (7-15)
--------------------------------------------------------------------------------
DR Пики RMS Продолжительность трека
--------------------------------------------------------------------------------
DR11 -2.85 дБ -16.76 дБ 6:18 01-Bill Bailey, Won't You Please Come Home?
DR12 -2.85 дБ -17.60 дБ 3:21 02-Snowy Morning Blues
DR11 -2.27 дБ -16.03 дБ 3:14 03-Baby, Won't You Please Come Home?
DR11 -1.68 дБ -15.43 дБ 4:42 04-Fidgety Feet
DR11 -2.74 дБ -16.54 дБ 4:20 05-Yellow Dog Blues
DR12 -2.06 дБ -18.53 дБ 3:55 06-All of Me
DR12 -1.15 дБ -15.81 дБ 5:38 07-That's a-Plenty
DR13 -2.89 дБ -17.92 дБ 6:19 08-Royal Garden Blues
DR12 -3.37 дБ -17.21 дБ 4:45 09-The Jazz Me Blues
DR13 -2.12 дБ -17.51 дБ 7:35 10-The Tin Roof Blues
DR13 -1.95 дБ -16.96 дБ 5:35 11-Struttin' With Some Barbecue
DR14 -0.60 дБ -17.51 дБ 7:43 12-(What Did I Do to Be So) Black and Blue
DR14 -1.25 дБ -17.48 дБ 5:11 13-Bugle Call Rag
DR13 -4.06 дБ -19.20 дБ 4:46 14-Ja-Da
DR11 -3.18 дБ -15.96 дБ 5:48 15-Royal Garden Blues (alternative take)
--------------------------------------------------------------------------------
Количество треков: 15
Реальные значения DR: DR12
Частота: 44100 Гц
Каналов: 2
Разрядность: 16
Битрейт: 567 кбит/с
Кодек: FLAC
================================================================================
 
Back
Download available for power users only.
21:31
495
Нет комментариев. Ваш будет первым!