Поиск

(Dixieland, New Orleans Jazz) Putney Dandridge (feat. Roy Eldridge, Buster Bailey, Teddy Wilson, Johnny Russell, Cozy Cole, Charles Frazier, Doc Cheatham) — 1935-1936 (2 CD) — 1995 {Timeless, CBC 1-023}, FLAC (tracks+.cue), lossless

(Dixieland, New Orleans Jazz) Putney Dandridge (feat. Roy Eldridge, Buster Bailey, Teddy Wilson, Johnny Russell, Cozy Cole, Charles Frazier, Doc Cheatham) — 1935-1936 (2 CD) — 1995 {Timeless, CBC 1-023}, FLAC (tracks+.cue), lossless
Треклист:
Putney Dandridge — 1935-1936 (2 CD)
Жанр: Dixieland, New Orleans Jazz
Год издания диска: 1995
Издатель (лейбл): Timeless
Номер по каталогу: CBC 1-023
Аудиокодек: FLAC (*.flac)
Тип рипа: tracks+.cue
Битрейт аудио: lossless
Продолжительность: 65:03 / 59:26
Источник: демоноид
Наличие сканов в содержимом раздачи: да
 
 
 
 
CD 1
Треклист:
01. You're A Heavenly Thing (2:43)
02. Mr. Bluebird (2:49)
03. Nagasaki (2:45)
04. Chasing Shadows (2:38)
05. When I Grow Too Old To Dream (2:41)
06. I'm In The Mood For Love (2:49)
07. Isn't This A Lovely Day (3:13)
08. Cheek To Cheek (3:05)
09. That's What You Think (2:43)
10. Shine (3:01)
11. I'm On A See-Saw (3:06)
12. Eeny Meeny Miney Mo (2:55)
13. Double Trouble (3:00)
14. Santa Claus Came In The Spring (2:54)
15. You Hit The Spot (2:52)
16. No Other One (2:59)
17. A Little Bit Independent (3:17)
18. You Took My Breath Away (2:51)
19. Sweet Violets (3:06)
20. Dinner For One Please, James (3:12)
21. A Bearutiful Lady In Blue (3:13)
22. Honeysuckle Rose (3:11)
 
Лог создания рипа
EAC extraction logfile from 16. April 2009, 18:24 for CD
Putney Dandridge / CD1
Used drive : Optiarc DVD RW AD-7590A Adapter: 3 ID: 0
Read mode : Secure with NO C2, accurate stream, disable cache
Read offset correction : 48
Overread into Lead-In and Lead-Out : No
Used output format : C:\Program Files\Exact Audio Copy\Flac\flac.exe (User Defined Encoder)
192 kBit/s
Additional command line options : -8 -A tukey(0.25) -A gauss(0.1875) -b 4096 -V -T "artist=%a" -T "title=%t" -T "album=%g" -T "date=%y" -T "tracknumber=%n" -T "genre=%m" %s --sector-align
Other options :
Fill up missing offset samples with silence : Yes
Delete leading and trailing silent blocks : No
Native Win32 interface for Win NT & 2000
Track 1
Filename D:\flac\Putney Dandridge\CD1\01 - You're a Heavenly Thing.wav
Pre-gap length 0:00:02.00
Peak level 94.7 %
Track quality 100.0 %
Test CRC DCA10485
Copy CRC DCA10485
Copy OK
Track 2
Filename D:\flac\Putney Dandridge\CD1\02 - Mr. Bluebird.wav
Pre-gap length 0:00:02.22
Peak level 87.1 %
Track quality 100.0 %
Test CRC 1E5DBD62
Copy CRC 1E5DBD62
Copy OK
Track 3
Filename D:\flac\Putney Dandridge\CD1\03 - Nagasaki.wav
Pre-gap length 0:00:02.49
Peak level 78.6 %
Track quality 100.0 %
Test CRC A9D68D9D
Copy CRC A9D68D9D
Copy OK
Track 4
Filename D:\flac\Putney Dandridge\CD1\04 - Chasing Shadows.wav
Pre-gap length 0:00:02.27
Peak level 86.1 %
Track quality 100.0 %
Test CRC CA967D84
Copy CRC CA967D84
Copy OK
Track 5
Filename D:\flac\Putney Dandridge\CD1\05 - When I Grow Too Old To Dream.wav
Pre-gap length 0:00:02.22
Peak level 82.4 %
Track quality 100.0 %
Test CRC A01ED9FD
Copy CRC A01ED9FD
Copy OK
Track 6
Filename D:\flac\Putney Dandridge\CD1\06 - I'm In The Mood For Love.wav
Pre-gap length 0:00:02.64
Peak level 65.3 %
Track quality 100.0 %
Test CRC 21808C31
Copy CRC 21808C31
Copy OK
Track 7
Filename D:\flac\Putney Dandridge\CD1\07 - Isn't This A Lovely Day.wav
Pre-gap length 0:00:02.22
Peak level 76.0 %
Track quality 99.9 %
Test CRC 70207ECF
Copy CRC 70207ECF
Copy OK
Track 8
Filename D:\flac\Putney Dandridge\CD1\08 - Cheek To Cheek.wav
Pre-gap length 0:00:02.52
Peak level 69.0 %
Track quality 100.0 %
Test CRC C24154B7
Copy CRC C24154B7
Copy OK
Track 9
Filename D:\flac\Putney Dandridge\CD1\09 - That's What You Think.wav
Pre-gap length 0:00:02.35
Peak level 71.6 %
Track quality 100.0 %
Test CRC CFB84218
Copy CRC CFB84218
Copy OK
Track 10
Filename D:\flac\Putney Dandridge\CD1\10 - Shine.wav
Pre-gap length 0:00:02.55
Peak level 73.5 %
Track quality 100.0 %
Test CRC C5174D3A
Copy CRC C5174D3A
Copy OK
Track 11
Filename D:\flac\Putney Dandridge\CD1\11 - I'm On A See-Saw.wav
Pre-gap length 0:00:02.04
Peak level 70.7 %
Track quality 100.0 %
Test CRC 73640AA2
Copy CRC 73640AA2
Copy OK
Track 12
Filename D:\flac\Putney Dandridge\CD1\12 - Eeny Meeny Miney Mo.wav
Pre-gap length 0:00:02.40
Peak level 78.9 %
Track quality 100.0 %
Test CRC AC0DC81B
Copy CRC AC0DC81B
Copy OK
Track 13
Filename D:\flac\Putney Dandridge\CD1\13 - Double Trouble.wav
Pre-gap length 0:00:02.50
Peak level 82.1 %
Track quality 100.0 %
Test CRC 1603156A
Copy CRC 1603156A
Copy OK
Track 14
Filename D:\flac\Putney Dandridge\CD1\14 - Santa Claus Came In The Spring.wav
Pre-gap length 0:00:02.39
Peak level 80.0 %
Track quality 100.0 %
Test CRC 6575F4B3
Copy CRC 6575F4B3
Copy OK
Track 15
Filename D:\flac\Putney Dandridge\CD1\15 - You Hit The Spot.wav
Pre-gap length 0:00:02.40
Peak level 72.7 %
Track quality 100.0 %
Test CRC FB2A1D5D
Copy CRC FB2A1D5D
Copy OK
Track 16
Filename D:\flac\Putney Dandridge\CD1\16 - No Other One.wav
Pre-gap length 0:00:02.08
Peak level 81.0 %
Track quality 100.0 %
Test CRC 6FBA2995
Copy CRC 6FBA2995
Copy OK
Track 17
Filename D:\flac\Putney Dandridge\CD1\17 - A Little Bit Independent.wav
Pre-gap length 0:00:02.25
Peak level 79.9 %
Track quality 99.9 %
Test CRC 6E52684F
Copy CRC 6E52684F
Copy OK
Track 18
Filename D:\flac\Putney Dandridge\CD1\18 - You Took My Breath Away.wav
Pre-gap length 0:00:02.36
Peak level 83.8 %
Track quality 99.9 %
Test CRC 2E39E075
Copy CRC 2E39E075
Copy OK
Track 19
Filename D:\flac\Putney Dandridge\CD1\19 - Sweet Violets.wav
Pre-gap length 0:00:02.29
Peak level 76.2 %
Track quality 99.9 %
Test CRC 2B56D93C
Copy CRC 2B56D93C
Copy OK
Track 20
Filename D:\flac\Putney Dandridge\CD1\20 - Dinner For One Please, James.wav
Pre-gap length 0:00:02.56
Peak level 69.4 %
Track quality 99.9 %
Test CRC 94AAE1B3
Copy CRC 94AAE1B3
Copy OK
Track 21
Filename D:\flac\Putney Dandridge\CD1\21 - A Bearutiful Lady In Blue.wav
Pre-gap length 0:00:01.74
Peak level 71.3 %
Track quality 100.0 %
Test CRC D7E67CEC
Copy CRC D7E67CEC
Copy OK
Track 22
Filename D:\flac\Putney Dandridge\CD1\22 - Honeysuckle Rose.wav
Pre-gap length 0:00:01.73
Peak level 82.4 %
Track quality 100.0 %
Test CRC 589D03B5
Copy CRC 589D03B5
Copy OK
No errors occured
End of status report
 
Содержание индексной карты (.CUE)
REM GENRE Jazz
REM DATE 1936
REM DISCID 5B0F3F16
REM COMMENT "ExactAudioCopy v0.95b4"
PERFORMER "Putney Dandridge"
TITLE "CD1"
FILE "01 - You're a Heavenly Thing.flac" WAVE
TRACK 01 AUDIO
TITLE "You're a Heavenly Thing"
PERFORMER "Putney Dandridge"
INDEX 01 00:00:00
TRACK 02 AUDIO
TITLE "Mr. Bluebird"
PERFORMER "Putney Dandridge"
INDEX 00 02:40:58
FILE "02 - Mr. Bluebird.flac" WAVE
INDEX 01 00:00:00
TRACK 03 AUDIO
TITLE "Nagasaki"
PERFORMER "Putney Dandridge"
INDEX 00 02:45:73
FILE "03 - Nagasaki.flac" WAVE
INDEX 01 00:00:00
TRACK 04 AUDIO
TITLE "Chasing Shadows"
PERFORMER "Putney Dandridge"
INDEX 00 02:42:18
FILE "04 - Chasing Shadows.flac" WAVE
INDEX 01 00:00:00
TRACK 05 AUDIO
TITLE "When I Grow Too Old To Dream"
PERFORMER "Putney Dandridge"
INDEX 00 02:36:01
FILE "05 - When I Grow Too Old To Dream.flac" WAVE
INDEX 01 00:00:00
TRACK 06 AUDIO
TITLE "I'm In The Mood For Love"
PERFORMER "Putney Dandridge"
INDEX 00 02:37:53
FILE "06 - I'm In The Mood For Love.flac" WAVE
INDEX 01 00:00:00
TRACK 07 AUDIO
TITLE "Isn't This A Lovely Day"
PERFORMER "Putney Dandridge"
INDEX 00 02:46:73
FILE "07 - Isn't This A Lovely Day.flac" WAVE
INDEX 01 00:00:00
TRACK 08 AUDIO
TITLE "Cheek To Cheek"
PERFORMER "Putney Dandridge"
INDEX 00 03:10:43
FILE "08 - Cheek To Cheek.flac" WAVE
INDEX 01 00:00:00
TRACK 09 AUDIO
TITLE "That's What You Think"
PERFORMER "Putney Dandridge"
INDEX 00 03:02:13
FILE "09 - That's What You Think.flac" WAVE
INDEX 01 00:00:00
TRACK 10 AUDIO
TITLE "Shine"
PERFORMER "Putney Dandridge"
INDEX 00 02:39:65
FILE "10 - Shine.flac" WAVE
INDEX 01 00:00:00
TRACK 11 AUDIO
TITLE "I'm On A See-Saw"
PERFORMER "Putney Dandridge"
INDEX 00 02:59:31
FILE "11 - I'm On A See-Saw.flac" WAVE
INDEX 01 00:00:00
TRACK 12 AUDIO
TITLE "Eeny Meeny Miney Mo"
PERFORMER "Putney Dandridge"
INDEX 00 03:03:12
FILE "12 - Eeny Meeny Miney Mo.flac" WAVE
INDEX 01 00:00:00
TRACK 13 AUDIO
TITLE "Double Trouble"
PERFORMER "Putney Dandridge"
INDEX 00 02:52:58
FILE "13 - Double Trouble.flac" WAVE
INDEX 01 00:00:00
TRACK 14 AUDIO
TITLE "Santa Claus Came In The Spring"
PERFORMER "Putney Dandridge"
INDEX 00 02:57:61
FILE "14 - Santa Claus Came In The Spring.flac" WAVE
INDEX 01 00:00:00
TRACK 15 AUDIO
TITLE "You Hit The Spot"
PERFORMER "Putney Dandridge"
INDEX 00 02:51:65
FILE "15 - You Hit The Spot.flac" WAVE
INDEX 01 00:00:00
TRACK 16 AUDIO
TITLE "No Other One"
PERFORMER "Putney Dandridge"
INDEX 00 02:50:02
FILE "16 - No Other One.flac" WAVE
INDEX 01 00:00:00
TRACK 17 AUDIO
TITLE "A Little Bit Independent"
PERFORMER "Putney Dandridge"
INDEX 00 02:56:57
FILE "17 - A Little Bit Independent.flac" WAVE
INDEX 01 00:00:00
TRACK 18 AUDIO
TITLE "You Took My Breath Away"
PERFORMER "Putney Dandridge"
INDEX 00 03:14:29
FILE "18 - You Took My Breath Away.flac" WAVE
INDEX 01 00:00:00
TRACK 19 AUDIO
TITLE "Sweet Violets"
PERFORMER "Putney Dandridge"
INDEX 00 02:48:71
FILE "19 - Sweet Violets.flac" WAVE
INDEX 01 00:00:00
TRACK 20 AUDIO
TITLE "Dinner For One Please, James"
PERFORMER "Putney Dandridge"
INDEX 00 03:03:14
FILE "20 - Dinner For One Please, James.flac" WAVE
INDEX 01 00:00:00
TRACK 21 AUDIO
TITLE "A Bearutiful Lady In Blue"
PERFORMER "Putney Dandridge"
INDEX 00 03:09:44
FILE "21 - A Bearutiful Lady In Blue.flac" WAVE
INDEX 01 00:00:00
TRACK 22 AUDIO
TITLE "Honeysuckle Rose"
PERFORMER "Putney Dandridge"
INDEX 00 03:10:59
FILE "22 - Honeysuckle Rose.flac" WAVE
INDEX 01 00:00:00
 
CUETools log
[CUETools log; Date: 28.07.2011 13:04:11; Version: 2.0.9]
[CTDB TOCID: 4KoUEXxPt6KoKGpk_ok_ucn40Pw-] disk not present in database.
[AccurateRip ID: 00321cab-0326ffdf-5b0f3f16] found.
Track [ CRC ] Status
01 [31d15049] (2/2) Accurately ripped
02 [e8fa6190] (2/2) Accurately ripped
03 [97ee1118] (2/2) Accurately ripped
04 [445b1935] (2/2) Accurately ripped
05 [20c4655b] (2/2) Accurately ripped
06 [95f3378c] (2/2) Accurately ripped
07 [8794a720] (2/2) Accurately ripped
08 [2512b616] (2/2) Accurately ripped
09 [29b5d0f6] (2/2) Accurately ripped
10 [16a47128] (2/2) Accurately ripped
11 [9d00ac1e] (2/2) Accurately ripped
12 [5f420b21] (2/2) Accurately ripped
13 [8ace8c06] (2/2) Accurately ripped
14 [07958cc6] (2/2) Accurately ripped
15 [69807d94] (2/2) Accurately ripped
16 [20c8df21] (2/2) Accurately ripped
17 [e7d65c7f] (2/2) Accurately ripped
18 [12f763f5] (2/2) Accurately ripped
19 [ea42682a] (2/2) Accurately ripped
20 [95764f42] (2/2) Accurately ripped
21 [edfe29e8] (2/2) Accurately ripped
22 [c6717680] (2/2) Accurately ripped
Track Peak [ CRC32 ] [W/O NULL] [ LOG ]
-- 94,7 [068D1180] [7485390E]
01 94,7 [DCA10485] [4CC7FE42] CRC32
02 87,1 [1E5DBD62] [4EECD958] CRC32
03 78,6 [A9D68D9D] [8615ED81] CRC32
04 86,1 [CA967D84] [FF280558] CRC32
05 82,4 [A01ED9FD] [6AD1A67F] CRC32
06 65,3 [21808C31] [AC2CB0E6] CRC32
07 76,0 [70207ECF] [29FF3DE3] CRC32
08 69,0 [C24154B7] [448E2EE1] CRC32
09 71,6 [CFB84218] [5BC07BFB] CRC32
10 73,5 [C5174D3A] [74CE44C6] CRC32
11 70,7 [73640AA2] [3BA9D561] CRC32
12 78,9 [AC0DC81B] [E6443485] CRC32
13 82,1 [1603156A] [C2E2EBEA] CRC32
14 80,0 [6575F4B3] [5AEACEB6] CRC32
15 72,7 [FB2A1D5D] [C16F41DB] CRC32
16 81,0 [6FBA2995] [81BBE76C] CRC32
17 79,9 [6E52684F] [5E0C4FC9] CRC32
18 83,8 [2E39E075] [433DB8F3] CRC32
19 76,2 [2B56D93C] [351511A3] CRC32
20 69,4 [94AAE1B3] [185D93E8] CRC32
21 71,3 [D7E67CEC] [90FAF741] CRC32
22 82,4 [589D03B5] [D3512554] CRC32
 
CD 2
Треклист:
01. It's A Sin To Tell A Lie (2:56)
02. All My Life (3:13)
03. Ol' Man River (2:50)
04. Why Was I Born (2:53)
05. There Foolish Things (2:29)
06. Cross Patch (2:43)
07. A Star Fell Out Of Heaven (2:39)
08. Mary Had A Little Lamb (2:48)
09. Here Comes The Pappy (with The Wrong Kind Of Load) (2:39)
10. If We Never Met Again (2:43)
11. Sing, Baby, Sing (2:27)
12. You Turned The Tables On Me (2:41)
13. It's The Gypsy In Me (2:42)
14. When A Lady Meets A Gentleman Down South (2:42)
15. A High Hat, A Piccolo & A Cane (2:31)
16. Easy To Love (2:44)
17. You Do The Darnedest Things, Baby (2:44)
18. The Skeleton In The Closet (2:36)
19. I'm In A Dancing Mood (2:49)
20. With Plenty Of Money & You (Oh Baby, What I Couldn't Do) (2:31)
21. That Foolish Feeling (2:31)
22. Gee! But You're Swell (2:33)
 
Лог создания рипа
EAC extraction logfile from 16. April 2009, 19:01 for CD
Putney Dandridge / CD2
Used drive : Optiarc DVD RW AD-7590A Adapter: 3 ID: 0
Read mode : Secure with NO C2, accurate stream, disable cache
Read offset correction : 48
Overread into Lead-In and Lead-Out : No
Used output format : C:\Program Files\Exact Audio Copy\Flac\flac.exe (User Defined Encoder)
192 kBit/s
Additional command line options : -8 -A tukey(0.25) -A gauss(0.1875) -b 4096 -V -T "artist=%a" -T "title=%t" -T "album=%g" -T "date=%y" -T "tracknumber=%n" -T "genre=%m" %s --sector-align
Other options :
Fill up missing offset samples with silence : Yes
Delete leading and trailing silent blocks : No
Native Win32 interface for Win NT & 2000
Track 1
Filename D:\flac\Putney Dandridge\CD2\01 - It's A Sin To Tell A Lie.wav
Pre-gap length 0:00:02.00
Peak level 68.4 %
Track quality 100.0 %
Test CRC 981693FB
Copy CRC 981693FB
Copy OK
Track 2
Filename D:\flac\Putney Dandridge\CD2\02 - All My Life.wav
Pre-gap length 0:00:02.44
Peak level 84.6 %
Track quality 100.0 %
Test CRC 9DBAE71D
Copy CRC 9DBAE71D
Copy OK
Track 3
Filename D:\flac\Putney Dandridge\CD2\03 - Ol' Man River.wav
Pre-gap length 0:00:02.12
Peak level 89.5 %
Track quality 100.0 %
Test CRC 3BFD6453
Copy CRC 3BFD6453
Copy OK
Track 4
Filename D:\flac\Putney Dandridge\CD2\04 - Why Was I Born.wav
Pre-gap length 0:00:02.31
Peak level 79.5 %
Track quality 100.0 %
Test CRC F672FD78
Copy CRC F672FD78
Copy OK
Track 5
Filename D:\flac\Putney Dandridge\CD2\05 - There Foolish Things.wav
Pre-gap length 0:00:02.37
Peak level 94.0 %
Track quality 99.9 %
Test CRC DCE9765F
Copy CRC DCE9765F
Copy OK
Track 6
Filename D:\flac\Putney Dandridge\CD2\06 - Cross Patch.wav
Pre-gap length 0:00:02.55
Peak level 83.7 %
Track quality 99.9 %
Test CRC A8E5E33B
Copy CRC A8E5E33B
Copy OK
Track 7
Filename D:\flac\Putney Dandridge\CD2\07 - A Star Fell Out of Heaven.wav
Pre-gap length 0:00:02.50
Peak level 73.1 %
Track quality 100.0 %
Test CRC B1209577
Copy CRC B1209577
Copy OK
Track 8
Filename D:\flac\Putney Dandridge\CD2\08 - Mary Had A Little Lamb.wav
Pre-gap length 0:00:02.48
Peak level 66.7 %
Track quality 100.0 %
Test CRC 86DEEF2A
Copy CRC 86DEEF2A
Copy OK
Track 9
Filename D:\flac\Putney Dandridge\CD2\09 - Here Comes the Pappy (with the Wrong Kind of Load).wav
Pre-gap length 0:00:02.25
Peak level 67.4 %
Track quality 100.0 %
Test CRC 5B164D2C
Copy CRC 5B164D2C
Copy OK
Track 10
Filename D:\flac\Putney Dandridge\CD2\10 - If We Never Met Again.wav
Pre-gap length 0:00:02.49
Peak level 68.1 %
Track quality 99.9 %
Test CRC 4C5C24B2
Copy CRC 4C5C24B2
Copy OK
Track 11
Filename D:\flac\Putney Dandridge\CD2\11 - Sing, Baby, Sing.wav
Pre-gap length 0:00:02.34
Peak level 80.7 %
Track quality 100.0 %
Test CRC B9695EE8
Copy CRC B9695EE8
Copy OK
Track 12
Filename D:\flac\Putney Dandridge\CD2\12 - You Turned The Tables On Me.wav
Pre-gap length 0:00:02.24
Peak level 76.7 %
Track quality 99.9 %
Test CRC 15B308FA
Copy CRC 15B308FA
Copy OK
Track 13
Filename D:\flac\Putney Dandridge\CD2\13 - It's The Gypsy in Me.wav
Pre-gap length 0:00:02.07
Peak level 77.1 %
Track quality 100.0 %
Test CRC 5C6964DA
Copy CRC 5C6964DA
Copy OK
Track 14
Filename D:\flac\Putney Dandridge\CD2\14 - When A Lady Meets A Gentleman Down South.wav
Pre-gap length 0:00:02.08
Peak level 89.2 %
Track quality 100.0 %
Test CRC CF348E30
Copy CRC CF348E30
Copy OK
Track 15
Filename D:\flac\Putney Dandridge\CD2\15 - A High Hat, A Piccolo & A Cane.wav
Pre-gap length 0:00:02.37
Peak level 80.3 %
Track quality 99.9 %
Test CRC E33D6942
Copy CRC E33D6942
Copy OK
Track 16
Filename D:\flac\Putney Dandridge\CD2\16 - Easy To Love.wav
Pre-gap length 0:00:02.12
Peak level 61.3 %
Track quality 99.9 %
Test CRC 32F7C7C1
Copy CRC 32F7C7C1
Copy OK
Track 17
Filename D:\flac\Putney Dandridge\CD2\17 - You Do The Darnedest Things, Baby.wav
Pre-gap length 0:00:01.64
Peak level 80.1 %
Track quality 99.9 %
Test CRC 2BAE3711
Copy CRC 2BAE3711
Copy OK
Track 18
Filename D:\flac\Putney Dandridge\CD2\18 - The Skeleton In The Closet.wav
Pre-gap length 0:00:02.12
Peak level 78.4 %
Track quality 100.0 %
Test CRC D82B3F9E
Copy CRC D82B3F9E
Copy OK
Track 19
Filename D:\flac\Putney Dandridge\CD2\19 - I'm In A Dancing Mood.wav
Pre-gap length 0:00:01.68
Peak level 90.1 %
Track quality 100.0 %
Test CRC 53C5505C
Copy CRC 53C5505C
Copy OK
Track 20
Filename D:\flac\Putney Dandridge\CD2\20 - With Plenty of Money & You (Oh Baby, What I Couldn't Do).wav
Pre-gap length 0:00:02.26
Peak level 83.5 %
Track quality 99.9 %
Test CRC ADE0A63E
Copy CRC ADE0A63E
Copy OK
Track 21
Filename D:\flac\Putney Dandridge\CD2\21 - That Foolish Feeling.wav
Pre-gap length 0:00:01.74
Peak level 88.2 %
Track quality 100.0 %
Test CRC A424C4E0
Copy CRC A424C4E0
Copy OK
Track 22
Filename D:\flac\Putney Dandridge\CD2\22 - Gee! But You're Swell.wav
Pre-gap length 0:00:02.00
Peak level 76.1 %
Track quality 100.0 %
Test CRC 33351F57
Copy CRC 33351F57
Copy OK
No errors occured
End of status report
 
Содержание индексной карты (.CUE)
REM GENRE Jazz
REM DATE 1936
REM DISCID 2E0DED16
REM COMMENT "ExactAudioCopy v0.95b4"
PERFORMER "Putney Dandridge"
TITLE "CD2"
FILE "01 - It's A Sin To Tell A Lie.flac" WAVE
TRACK 01 AUDIO
TITLE "It's A Sin To Tell A Lie"
PERFORMER "Putney Dandridge"
INDEX 01 00:00:00
TRACK 02 AUDIO
TITLE "All My Life"
PERFORMER "Putney Dandridge"
INDEX 00 02:53:01
FILE "02 - All My Life.flac" WAVE
INDEX 01 00:00:00
TRACK 03 AUDIO
TITLE "Ol' Man River"
PERFORMER "Putney Dandridge"
INDEX 00 03:11:13
FILE "03 - Ol' Man River.flac" WAVE
INDEX 01 00:00:00
TRACK 04 AUDIO
TITLE "Why Was I Born"
PERFORMER "Putney Dandridge"
INDEX 00 02:48:04
FILE "04 - Why Was I Born.flac" WAVE
INDEX 01 00:00:00
TRACK 05 AUDIO
TITLE "There Foolish Things"
PERFORMER "Putney Dandridge"
INDEX 00 02:50:28
FILE "05 - There Foolish Things.flac" WAVE
INDEX 01 00:00:00
TRACK 06 AUDIO
TITLE "Cross Patch"
PERFORMER "Putney Dandridge"
INDEX 00 02:26:00
FILE "06 - Cross Patch.flac" WAVE
INDEX 01 00:00:00
TRACK 07 AUDIO
TITLE "A Star Fell Out Of Heaven"
PERFORMER "Putney Dandridge"
INDEX 00 02:40:25
FILE "07 - A Star Fell Out Of Heaven.flac" WAVE
INDEX 01 00:00:00
TRACK 08 AUDIO
TITLE "Mary Had A Little Lamb"
PERFORMER "Putney Dandridge"
INDEX 00 02:36:39
FILE "08 - Mary Had A Little Lamb.flac" WAVE
INDEX 01 00:00:00
TRACK 09 AUDIO
TITLE "Here Comes The Pappy (with The Wrong Kind Of Load)"
PERFORMER "Putney Dandridge"
INDEX 00 02:45:60
FILE "09 - Here Comes The Pappy (with The Wrong Kind Of Load).flac" WAVE
INDEX 01 00:00:00
TRACK 10 AUDIO
TITLE "If We Never Met Again"
PERFORMER "Putney Dandridge"
INDEX 00 02:36:49
FILE "10 - If We Never Met Again.flac" WAVE
INDEX 01 00:00:00
TRACK 11 AUDIO
TITLE "Sing, Baby, Sing"
PERFORMER "Putney Dandridge"
INDEX 00 02:40:66
FILE "11 - Sing, Baby, Sing.flac" WAVE
INDEX 01 00:00:00
TRACK 12 AUDIO
TITLE "You Turned The Tables On Me"
PERFORMER "Putney Dandridge"
INDEX 00 02:24:53
FILE "12 - You Turned The Tables On Me.flac" WAVE
INDEX 01 00:00:00
TRACK 13 AUDIO
TITLE "It's The Gypsy In Me"
PERFORMER "Putney Dandridge"
INDEX 00 02:39:21
FILE "13 - It's The Gypsy In Me.flac" WAVE
INDEX 01 00:00:00
TRACK 14 AUDIO
TITLE "When A Lady Meets A Gentleman Down South"
PERFORMER "Putney Dandridge"
INDEX 00 02:39:49
FILE "14 - When A Lady Meets A Gentleman Down South.flac" WAVE
INDEX 01 00:00:00
TRACK 15 AUDIO
TITLE "A High Hat, A Piccolo & A Cane"
PERFORMER "Putney Dandridge"
INDEX 00 02:39:11
FILE "15 - A High Hat, A Piccolo & A Cane.flac" WAVE
INDEX 01 00:00:00
TRACK 16 AUDIO
TITLE "Easy To Love"
PERFORMER "Putney Dandridge"
INDEX 00 02:29:20
FILE "16 - Easy To Love.flac" WAVE
INDEX 01 00:00:00
TRACK 17 AUDIO
TITLE "You Do The Darnedest Things, Baby"
PERFORMER "Putney Dandridge"
INDEX 00 02:42:11
FILE "17 - You Do The Darnedest Things, Baby.flac" WAVE
INDEX 01 00:00:00
TRACK 18 AUDIO
TITLE "The Skeleton In The Closet"
PERFORMER "Putney Dandridge"
INDEX 00 02:42:13
FILE "18 - The Skeleton In The Closet.flac" WAVE
INDEX 01 00:00:00
TRACK 19 AUDIO
TITLE "I'm In A Dancing Mood"
PERFORMER "Putney Dandridge"
INDEX 00 02:34:25
FILE "19 - I'm In A Dancing Mood.flac" WAVE
INDEX 01 00:00:00
TRACK 20 AUDIO
TITLE "With Plenty Of Money & You (Oh Baby, What I Couldn't Do)"
PERFORMER "Putney Dandridge"
INDEX 00 02:47:04
FILE "20 - With Plenty Of Money & You (Oh Baby, What I Couldn't Do).flac" WAVE
INDEX 01 00:00:00
TRACK 21 AUDIO
TITLE "That Foolish Feeling"
PERFORMER "Putney Dandridge"
INDEX 00 02:29:33
FILE "21 - That Foolish Feeling.flac" WAVE
INDEX 01 00:00:00
TRACK 22 AUDIO
TITLE "Gee! But You're Swell"
PERFORMER "Putney Dandridge"
INDEX 00 02:28:38
FILE "22 - Gee! But You're Swell.flac" WAVE
INDEX 01 00:00:00
 
CUETools log
[CUETools log; Date: 28.07.2011 14:05:51; Version: 2.0.9]
[CTDB TOCID: nDgwjCwPkPSMkCh5VqnrIytSMf4-] disk not present in database.
[AccurateRip ID: 002fd977-02f89b2f-2e0ded16] found.
Track [ CRC ] Status
01 [1631aa6c] (1/1) Accurately ripped
02 [f76d1b42] (1/1) Accurately ripped
03 [88971dc2] (1/1) Accurately ripped
04 [451d2daf] (1/1) Accurately ripped
05 [4d5dcddd] (1/1) Accurately ripped
06 [748cd833] (1/1) Accurately ripped
07 [bd5ef0d0] (1/1) Accurately ripped
08 [90ad29ae] (2/2) Accurately ripped
09 [e8903240] (1/1) Accurately ripped
10 [58e2ad3a] (1/1) Accurately ripped
11 [382c62d0] (2/2) Accurately ripped
12 [f3b20fa6] (2/2) Accurately ripped
13 [8422de4b] (2/2) Accurately ripped
14 [921a3102] (2/2) Accurately ripped
15 [1532228d] (2/2) Accurately ripped
16 [2f42d1d7] (2/2) Accurately ripped
17 [25b2d2f2] (2/2) Accurately ripped
18 [4ec2ea43] (2/2) Accurately ripped
19 [524fa614] (2/2) Accurately ripped
20 [387897d2] (2/2) Accurately ripped
21 [4b3de01f] (2/2) Accurately ripped
22 [0bf97709] (2/2) Accurately ripped
Track Peak [ CRC32 ] [W/O NULL] [ LOG ]
-- 94,0 [0536E8D6] [B517B41E]
01 68,4 [981693FB] [10DD0A1F] CRC32
02 84,6 [9DBAE71D] [0ABBA6EF] CRC32
03 89,5 [3BFD6453] [42320B07] CRC32
04 79,5 [F672FD78] [97D42927] CRC32
05 94,0 [DCE9765F] [4623B06E] CRC32
06 83,7 [A8E5E33B] [FD6246C5] CRC32
07 73,1 [B1209577] [557DAC85] CRC32
08 66,7 [86DEEF2A] [75ADAF58] CRC32
09 67,4 [5B164D2C] [760E13CA] CRC32
10 68,1 [4C5C24B2] [F45D80D6] CRC32
11 80,7 [B9695EE8] [2AA45897] CRC32
12 76,7 [15B308FA] [5A91AE58] CRC32
13 77,1 [5C6964DA] [780B16C2] CRC32
14 89,2 [CF348E30] [042CA9BF] CRC32
15 80,3 [E33D6942] [32FB8A38] CRC32
16 61,3 [32F7C7C1] [6CE9FD13] CRC32
17 80,1 [2BAE3711] [7C6B1789] CRC32
18 78,4 [D82B3F9E] [4EFCD099] CRC32
19 90,1 [53C5505C] [80E85E44] CRC32
20 83,5 [ADE0A63E] [57079E78] CRC32
21 88,2 [A424C4E0] [061A5BAB] CRC32
22 76,1 [33351F57] [A3AE9453] CRC32
Download available for power users only.
23:45
588
Нет комментариев. Ваш будет первым!