Поиск

[DSD][OF] Thad Jones, Mel Lewis Orchestra - All My Yesterdays - 2016 (Jazz, Bop, Hard Bop, Modern Big Band)

[DSD][OF] Thad Jones, Mel Lewis Orchestra - All My Yesterdays - 2016 (Jazz, Bop, Hard Bop, Modern Big Band)
Thad Jones, Mel Lewis Orchestra / All My Yesterdays
Формат записи/Источник записи: [DSD][OF]
Наличие водяных знаков: Нет
Год издания/переиздания диска: 2016
Жанр: Jazz, Bop, Hard Bop, Modern Big Band
Издатель (лейбл): 2xHD
Продолжительность: 02:00:55
Наличие сканов в содержимом раздачи: Буклет PDF
Источник (релизер): acousticsounds
Контейнер: DSF (*.dsf)
Тип рипа: tracks
Разрядность: 128(5,6 MHz/24 Bit)
Формат: DST128
Количество каналов: 2.0
Треклист:
Recorded February 7, 1966:
01. Back Bone 12:53
02. All My Yesterdays 04:30
03. Big Dipper 05:50
04. Mornin Reverend 04:37
05. The Little Pixie 15:25
06. Big Dipper (Alternate Take) 07:24
Recorded March 21, 1966:
07. Low Down 04:35
08. Lover Man (Oh, Where Can You Be?) 05:18
09. Ah, Thats Freedom 10:04
10. Dont Ever Leave Me 04:27
11. Willow Weep For Me 06:14
12. Once Around 12:49
13. Polka Dots and Moonbeams 03:53
14. Mornin Reverend 05:44
15. All My Yesterdays 04:19
16. Back Bone 12:44
 
DR Log
foobar2000 1.1.10 / Dynamic Range Meter 1.1.1
log date: 2017-12-17 19:11:29
--------------------------------------------------------------------------------
Analyzed: Thad Jones/Mel Lewis Orchestra / All My Yesterdays: The Debut 1966 Recordings at the Village Vanguard
--------------------------------------------------------------------------------
DR         Peak         RMS     Duration Track
--------------------------------------------------------------------------------
DR11      -6.29 dB   -22.57 dB     13:17 ?-Back Bone
DR11      -8.38 dB   -25.85 dB      4:15 ?-All My Yesterdays
DR11      -9.10 dB   -24.41 dB      5:46 ?-Big Dipper
DR11      -9.82 dB   -27.55 dB      4:33 ?-Mornin' Reverend
DR12      -9.03 dB   -26.03 dB     15:24 ?-The Little Pixie
DR13      -6.05 dB   -23.07 dB      7:24 ?-Big Dipper (Alternate Take)
DR11      -7.00 dB   -21.18 dB      4:35 ?-Low Down
DR11      -7.47 dB   -23.48 dB      5:18 ?-Lover Man (Oh, Where Can You Be?)
DR11      -6.80 dB   -23.76 dB     10:03 ?-Ah, That's Freedom
DR12      -9.32 dB   -26.99 dB      4:27 ?-Don't Ever Leave Me
DR12      -9.79 dB   -28.33 dB      6:14 ?-Willow Weep For Me
DR11     -11.93 dB   -27.40 dB     12:49 ?-Once Around
DR13      -9.57 dB   -29.15 dB      3:53 ?-Polka Dots and Moonbeams
DR13      -9.58 dB   -26.86 dB      5:44 ?-Mornin' Reverend
DR13      -9.09 dB   -26.99 dB      4:19 ?-All My Yesterdays
DR12      -6.46 dB   -23.20 dB     12:46 ?-Back Bone
--------------------------------------------------------------------------------
Number of tracks:  16
Official DR value: DR12
Samplerate:        5644800 Hz / PCM Samplerate: 44100 Hz
Channels:          2
Bits per sample:   24
Bitrate:           11290 kbps
Codec:             DSD128
================================================================================
 
 
Состав
Thad Jones – flugelhorn
Mel Lewis – drums
Hank Jones – piano
Richard Davis – bass
Sam Herman – guitar
Jerome Richardson – alto saxophone, soprano saxophone, clarinet, bass clarinet, flute
Jerry Dodgion – alto saxophone
Joe Farrell – tenor saxophone, clarinet, flute
Eddie Daniels – tenor saxophone, clarinet, bass clarinet
Pepper Adams – baritone saxophone
Snooky Young – trumpet
Jimmy Owens – trumpet
Bill Berry – trumpet
Jimmy Nottingham – trumpet
Bob Brookmeyer – trombone
Jack Rains – trombone
Garnett Brown – trombone
Cliff Heather – trombone
 
 
Об исполнителе (группе)
A thrilling, thoughtfully curated two-disc collection, Resonance Records' All My Yesterdays presents the debut 1964 performances of the innovative Thad Jones/Mel Lewis Orchestra. Recorded by Resonance Records founder George Klabin, then a 19-year-old college sophomore, jazz radio DJ, and budding sound engineer at Columbia University, these recordings showcase the band in two uproariously received performances at the legendary Village Vanguard, their home for 50 years and counting. Initially intended as a way to attract a record deal for the band, the tracks have remained largely unheard by the general public. Here, they are presented in full with a detailed liner-notes booklet featuring pictures, essays, and interviews with Klabin and others. Recorded by Klabin alone, using minimal equipment by modern standards, with only the musicians themselves to help move microphones as needed, the recordings sound remarkably clear and capture the electric atmosphere of the band's debut. Highlighted by Jones' bop-oriented trumpet solos and grounded by Lewis' rhythm section featuring pianist Hank Jones, guitarist Sam Herman, and bassist Richard Davis, the orchestra was a lithe, forward-thinking yet always swinging entity that helped move large ensembles into the post-bop era. It also didn't hurt that the band was populated with a cross-generational cadre of virtuoso musicians including saxophonists Joe Farrell, Pepper Adams and Eddie Daniels; trumpeters Jimmy Owens and Snooky Young; trombonist Bob Brookmeyer; and others. All of this is quite evident on these recordings, which put you front and center at the Village Vanguard on February 7, 1966 as saxophonist Jerry Dodgion soulfully leads the band into an explosive version of Jones' swinging, gospel-inflected blues "Back Bone." From that moment onward the band rarely lets up, with Lewis driving the arrangements with his roiling, foot-tapping pulse and Jones calling out solos and improvised background phrases. The second disc of music, recorded March 21, 1966, features an equally captivating performance from the band and a longer set list, including dynamic versions of "Low Down," "Ah, That's Freedom," "Mean What You Say," and more. While the Thad Jones/Mel Lewis Orchestra has an extensive oeuvre of recorded music to enjoy, All My Yesterdays captures the band at its brilliant, joyous start.
https://en.wikipedia.org/wiki/The_Thad_Jones/Mel_Lewis_Orchestra
Скачивание доступно после регистрации!!
Приватный:
Нет (DHT включён)
Размер:
9.60 Гб (10,312,016,975 байт) » файлов: 19
Участники:
0 раздают, 0 качают (0 участников всего)
Внешние участники:
2 раздают, 1 качают (3 участников всего) [ Обновить ]
05:20
899
Нет комментариев. Ваш будет первым!