Поиск

(Early Jazz, Piano Jazz) [CD] Clarence Williams - Vol. 1 - 1998 (Jazz Archives # 134), FLAC (tracks+.cue), lossless

(Early Jazz, Piano Jazz) [CD] Clarence Williams - Vol. 1 - 1998 (Jazz Archives # 134), FLAC (tracks+.cue), lossless
Треклист:

Clarence Williams - Vol. 1 - 1998 (Jazz Archives # 134)
Жанр: Early Jazz, Piano Jazz
Носитель:CD (compilation)
Страна-производитель диска (релиза): France
Год издания: Nov 3, 1998
Издатель (лейбл): Jazz Archives
Номер по каталогу: 134
Страна исполнителя (группы): USA
Дата / место записи: Jul 30, 1923-Nov 12, 1923
Аудио кодек: FLAC (*.flac)
Тип рипа: (tracks + .cue)
Битрейт аудио: lossless
Наличие сканов в содержимом раздачи: full scans, png, 300 dpi
Продолжительность: 72:53
Источник (релизер): коллекция Рендера, мой рип
Трэклист:
1. Wild Cat Blues (Waller, Williams) - 2:57
2. Kansas City Man Blues (Johnson, Williams) - 2:55
3. Blind Man Blues (Green, McLaurin) - 3:07
4. Atlanta Blues (Elman, Handy) - 2:52
5. Lady Luck Blues (Weber, Williams) - 3:11
6. Kansas City Man Blues (Johnson, Williams) - 3:18
7. Oh! Daddy Blues (Williams) - 2:38
8. I've Got the "Yes! We Have No Banana" Blues (Williams) - 2:45
9. Achin' Hearted Blues (Williams) - 2:56
10. Irresistable Blues (Williams) - 3:14
11. Jazzin' Babies Blues (Jones) - 3:11
12. 'Tain't Nobody's Bizness If I Do (Handy) - 2:47
13. New Orleans Hop Scop Blues (Thomas) - 2:51
14. Oh! Daddy Blues (Williams) - 3:07
15. Down on the Levee Blues (Williams) - 3:28
16. Lonesome Woman's Blues (Crawford, Williams) - 2:59
17. Graveyard Dream Blues (Cox) - 3:07
18. A Green Gal Can't Catch On (Martin, Williams) - 3:34
19. If I Let You Get Away With It Once (You'll Do It All of the Time) (Frost, Rose) - 2:55
20. E Flat Blues (Morris, Williams) - 2:58
21. Old Fashioned Love (Johnson, Mack) - 3:00
22. Open Your Heart (Dixon, Rose) - 3:00
23. Shreveport Blues (Collins) - 2:57
24. Old Fashioned Love (Johnson, Mack) - 3:06
 
Лог создания рипа (9. March 2010)
Exact Audio Copy V0.99 prebeta 4 from 23. January 2008
EAC extraction logfile from 9. March 2010, 18:24
Clarence Williams / Vol. 1 - 1923
Used drive  : HL-DT-STDVD-RAM GH22NP20   Adapter: 0  ID: 0
Read mode               : Secure
Utilize accurate stream : Yes
Defeat audio cache      : Yes
Make use of C2 pointers : No
Read offset correction                      : 102
Overread into Lead-In and Lead-Out          : No
Fill up missing offset samples with silence : Yes
Delete leading and trailing silent blocks   : No
Null samples used in CRC calculations       : Yes
Used interface                              : Installed external ASPI interface
Gap handling                                : Appended to previous track
Used output format              : User Defined Encoder
Selected bitrate                : 320 kBit/s
Quality                         : High
Add ID3 tag                     : No
Command line compressor         : C:\Program Files\Exact Audio Copy\Flac\flac.exe
Additional command line options : -V -8 -T "artist=%a" -T "title=%t" -T "album=%g" -T "date=%y" -T "tracknumber=%n" -T "genre=%m" %s
TOC of the extracted CD
     Track |   Start  |  Length  | Start sector | End sector
    ---------------------------------------------------------
        1  |  0:00.33 |  3:00.67 |        33    |    13599
        2  |  3:01.25 |  2:59.30 |     13600    |    27054
        3  |  6:00.55 |  3:10.10 |     27055    |    41314
        4  |  9:10.65 |  2:56.10 |     41315    |    54524
        5  | 12:07.00 |  3:12.50 |     54525    |    68974
        6  | 15:19.50 |  3:20.38 |     68975    |    84012
        7  | 18:40.13 |  2:40.47 |     84013    |    96059
        8  | 21:20.60 |  2:46.15 |     96060    |   108524
        9  | 24:07.00 |  2:58.43 |    108525    |   121917
       10  | 27:05.43 |  3:17.05 |    121918    |   136697
       11  | 30:22.48 |  3:13.12 |    136698    |   151184
       12  | 33:35.60 |  2:50.70 |    151185    |   164004
       13  | 36:26.55 |  2:54.50 |    164005    |   177104
       14  | 39:21.30 |  3:11.30 |    177105    |   191459
       15  | 42:32.60 |  3:31.63 |    191460    |   207347
       16  | 46:04.48 |  3:02.20 |    207348    |   221017
       17  | 49:06.68 |  3:11.20 |    221018    |   235362
       18  | 52:18.13 |  3:40.52 |    235363    |   251914
       19  | 55:58.65 |  2:54.70 |    251915    |   265034
       20  | 58:53.60 |  3:03.18 |    265035    |   278777
       21  | 61:57.03 |  3:05.72 |    278778    |   292724
       22  | 65:03.00 |  3:04.00 |    292725    |   306524
       23  | 68:07.00 |  3:01.18 |    306525    |   320117
       24  | 71:08.18 |  3:08.52 |    320118    |   334269
Track  1
     Filename D:\music\Musicgate's rips\Clarence Williams - Vol. 1 - 1923 (Jazz Archives 134, 1998)\01 - Wild Cat Blues (Clarence Williams' Blue Five).wav
     Pre-gap length  0:00:02.44
     Peak level 99.9 %
     Track quality 100.0 %
     Test CRC 22FBA0FD
     Copy CRC 22FBA0FD
     Track not present in AccurateRip database
     Copy OK
Track  2
     Filename D:\music\Musicgate's rips\Clarence Williams - Vol. 1 - 1923 (Jazz Archives 134, 1998)\02 - Kansas City Man Blues (Blue Five).wav
     Pre-gap length  0:00:01.60
     Peak level 81.6 %
     Track quality 100.0 %
     Test CRC A3BB010F
     Copy CRC A3BB010F
     Track not present in AccurateRip database
     Copy OK
Track  3
     Filename D:\music\Musicgate's rips\Clarence Williams - Vol. 1 - 1923 (Jazz Archives 134, 1998)\03 - Blind Man Blues (Sarah Martin vcl, Blue Five).wav
     Pre-gap length  0:00:02.02
     Peak level 99.8 %
     Track quality 100.0 %
     Test CRC 301050C3
     Copy CRC 301050C3
     Track not present in AccurateRip database
     Copy OK
Track  4
     Filename D:\music\Musicgate's rips\Clarence Williams - Vol. 1 - 1923 (Jazz Archives 134, 1998)\04 - Atlanta Blues (Sarah Martin, Blue Five).wav
     Pre-gap length  0:00:01.82
     Peak level 89.0 %
     Track quality 100.0 %
     Test CRC 65CC42AA
     Copy CRC 65CC42AA
     Track not present in AccurateRip database
     Copy OK
Track  5
     Filename D:\music\Musicgate's rips\Clarence Williams - Vol. 1 - 1923 (Jazz Archives 134, 1998)\05 - Lady Luck Blues (Mamie Smith, Harlem Trio).wav
     Pre-gap length  0:00:01.69
     Peak level 100.0 %
     Track quality 100.0 %
     Test CRC 4A317D2A
     Copy CRC 4A317D2A
     Track not present in AccurateRip database
     Copy OK
Track  6
     Filename D:\music\Musicgate's rips\Clarence Williams - Vol. 1 - 1923 (Jazz Archives 134, 1998)\06 - Kansas City Man Blues (Mamie Smith, Harlem Trio).wav
     Pre-gap length  0:00:01.89
     Peak level 94.2 %
     Track quality 100.0 %
     Test CRC 7E059570
     Copy CRC 7E059570
     Track not present in AccurateRip database
     Copy OK
Track  7
     Filename D:\music\Musicgate's rips\Clarence Williams - Vol. 1 - 1923 (Jazz Archives 134, 1998)\07 - Oh! Daddy Blues (Eva Taylor, Clarence Williams, Blue Five).wav
     Pre-gap length  0:00:01.64
     Peak level 87.8 %
     Track quality 100.0 %
     Test CRC 2047CCB4
     Copy CRC 2047CCB4
     Track not present in AccurateRip database
     Copy OK
Track  8
     Filename D:\music\Musicgate's rips\Clarence Williams - Vol. 1 - 1923 (Jazz Archives 134, 1998)\08 - I've Got the 'Yes! We have no Banana' Blues (Eva Taylor, Clarence Williams, Blue Five).wav
     Pre-gap length  0:00:01.73
     Peak level 88.0 %
     Track quality 100.0 %
     Test CRC 414623F1
     Copy CRC 414623F1
     Track not present in AccurateRip database
     Copy OK
Track  9
     Filename D:\music\Musicgate's rips\Clarence Williams - Vol. 1 - 1923 (Jazz Archives 134, 1998)\09 - Achin' Heart Blues (Blue Five).wav
     Pre-gap length  0:00:01.82
     Peak level 94.4 %
     Track quality 100.0 %
     Test CRC 93A25B9B
     Copy CRC 93A25B9B
     Track not present in AccurateRip database
     Copy OK
Track 10
     Filename D:\music\Musicgate's rips\Clarence Williams - Vol. 1 - 1923 (Jazz Archives 134, 1998)\10 - Irresistible Blues (Eva Taylor, Clarence Williams Trio).wav
     Pre-gap length  0:00:01.84
     Peak level 84.2 %
     Track quality 100.0 %
     Test CRC DFF7DA99
     Copy CRC DFF7DA99
     Track not present in AccurateRip database
     Copy OK
Track 11
     Filename D:\music\Musicgate's rips\Clarence Williams - Vol. 1 - 1923 (Jazz Archives 134, 1998)\11 - Jazzin' Babies Blues (Eva Taylor).wav
     Pre-gap length  0:00:01.53
     Peak level 100.0 %
     Track quality 100.0 %
     Test CRC 1366924B
     Copy CRC 1366924B
     Track not present in AccurateRip database
     Copy OK
Track 12
     Filename D:\music\Musicgate's rips\Clarence Williams - Vol. 1 - 1923 (Jazz Archives 134, 1998)\12 - 'Tain't Nobody's Bus'ness If I Do (Blue Five).wav
     Pre-gap length  0:00:01.66
     Peak level 100.0 %
     Track quality 100.0 %
     Test CRC AC4D3257
     Copy CRC AC4D3257
     Track not present in AccurateRip database
     Copy OK
Track 13
     Filename D:\music\Musicgate's rips\Clarence Williams - Vol. 1 - 1923 (Jazz Archives 134, 1998)\13 - New Orleans Hop Scop Blues (Blue Five).wav
     Pre-gap length  0:00:02.53
     Peak level 100.0 %
     Track quality 99.9 %
     Test CRC 5BC4F14F
     Copy CRC 5BC4F14F
     Track not present in AccurateRip database
     Copy OK
Track 14
     Filename D:\music\Musicgate's rips\Clarence Williams - Vol. 1 - 1923 (Jazz Archives 134, 1998)\14 - Oh Daddy! (Blue Five).wav
     Pre-gap length  0:00:02.13
     Peak level 99.8 %
     Track quality 100.0 %
     Test CRC D0F80982
     Copy CRC D0F80982
     Track not present in AccurateRip database
     Copy OK
Track 15
     Filename D:\music\Musicgate's rips\Clarence Williams - Vol. 1 - 1923 (Jazz Archives 134, 1998)\15 - Down on the Levee Blues (Rosetta Crawford vcl, King Bechet Trio).wav
     Pre-gap length  0:00:01.20
     Peak level 96.7 %
     Track quality 99.9 %
     Test CRC 7E7D9290
     Copy CRC 7E7D9290
     Track not present in AccurateRip database
     Copy OK
Track 16
     Filename D:\music\Musicgate's rips\Clarence Williams - Vol. 1 - 1923 (Jazz Archives 134, 1998)\16 - Lonesome Woman Blues (Rosetta Crawford, King Bechet Trio).wav
     Pre-gap length  0:00:01.77
     Peak level 90.8 %
     Track quality 99.9 %
     Test CRC EF131EBD
     Copy CRC EF131EBD
     Track not present in AccurateRip database
     Copy OK
Track 17
     Filename D:\music\Musicgate's rips\Clarence Williams - Vol. 1 - 1923 (Jazz Archives 134, 1998)\17 - Graveyard Dream Blues (Sara Martin vcl, Clarence Williams' Harmonizing Four).wav
     Pre-gap length  0:00:01.64
     Peak level 90.6 %
     Track quality 99.9 %
     Test CRC D99AED99
     Copy CRC D99AED99
     Track not present in AccurateRip database
     Copy OK
Track 18
     Filename D:\music\Musicgate's rips\Clarence Williams - Vol. 1 - 1923 (Jazz Archives 134, 1998)\18 - A Green GalCan't Catch On (Blues) (Sara Martin, Harmonizing Four).wav
     Pre-gap length  0:00:02.17
     Peak level 99.8 %
     Track quality 100.0 %
     Test CRC 727E4E22
     Copy CRC 727E4E22
     Track not present in AccurateRip database
     Copy OK
Track 19
     Filename D:\music\Musicgate's rips\Clarence Williams - Vol. 1 - 1923 (Jazz Archives 134, 1998)\19 - If I Let You Get Away With It (Margaret Johnson vcl, Blue Five).wav
     Pre-gap length  0:00:01.80
     Peak level 96.8 %
     Track quality 100.0 %
     Test CRC 59B0F648
     Copy CRC 59B0F648
     Track not present in AccurateRip database
     Copy OK
Track 20
     Filename D:\music\Musicgate's rips\Clarence Williams - Vol. 1 - 1923 (Jazz Archives 134, 1998)\20 - E Flat Blues (Margarent Johnson, Blue Five).wav
     Pre-gap length  0:00:01.89
     Peak level 99.9 %
     Track quality 100.0 %
     Test CRC 458FE0A5
     Copy CRC 458FE0A5
     Track not present in AccurateRip database
     Copy OK
Track 21
     Filename D:\music\Musicgate's rips\Clarence Williams - Vol. 1 - 1923 (Jazz Archives 134, 1998)\21 - Old-Fashioned Love (Eva Taylor vcl, Lawrence Lomax vcl).wav
     Pre-gap length  0:00:01.90
     Peak level 96.1 %
     Track quality 99.9 %
     Test CRC 36019A93
     Copy CRC 36019A93
     Track not present in AccurateRip database
     Copy OK
Track 22
     Filename D:\music\Musicgate's rips\Clarence Williams - Vol. 1 - 1923 (Jazz Archives 134, 1998)\22 - Open Your Heart (Taylor, Lomax).wav
     Pre-gap length  0:00:01.66
     Peak level 90.1 %
     Track quality 100.0 %
     Test CRC 4833F95B
     Copy CRC 4833F95B
     Track not present in AccurateRip database
     Copy OK
Track 23
     Filename D:\music\Musicgate's rips\Clarence Williams - Vol. 1 - 1923 (Jazz Archives 134, 1998)\23 - Shreveport Blues (Blue Five).wav
     Pre-gap length  0:00:02.22
     Peak level 99.7 %
     Track quality 100.0 %
     Test CRC 1B8C256C
     Copy CRC 1B8C256C
     Track not present in AccurateRip database
     Copy OK
Track 24
     Filename D:\music\Musicgate's rips\Clarence Williams - Vol. 1 - 1923 (Jazz Archives 134, 1998)\24 - Old Fashioned Love (Blue Five).wav
     Pre-gap length  0:00:01.77
     Peak level 100.0 %
     Track quality 100.0 %
     Test CRC 3DF86746
     Copy CRC 3DF86746
     Track not present in AccurateRip database
     Copy OK
None of the tracks are present in the AccurateRip database
No errors occurred
End of status report
 
 
Содержание индексной карты (.CUE):
REM GENRE Jazz
REM DATE 1998
REM DISCID 5A116818
REM COMMENT "ExactAudioCopy v0.99pb4"
PERFORMER "Clarence Williams"
TITLE "Vol. 1 - 1923"
FILE "01 - Wild Cat Blues (Clarence Williams' Blue Five).wav" WAVE
  TRACK 01 AUDIO
    TITLE "Wild Cat Blues (Clarence Williams' Blue Five)"
    PERFORMER "Clarence Williams"
    PREGAP 00:00:33
    INDEX 01 00:00:00
  TRACK 02 AUDIO
    TITLE "Kansas City Man Blues (Blue Five)"
    PERFORMER "Clarence Williams"
    INDEX 00 02:59:22
FILE "02 - Kansas City Man Blues (Blue Five).wav" WAVE
    INDEX 01 00:00:00
  TRACK 03 AUDIO
    TITLE "Blind Man Blues (Sarah Martin vcl, Blue Five)"
    PERFORMER "Clarence Williams"
    INDEX 00 02:57:28
FILE "03 - Blind Man Blues (Sarah Martin vcl, Blue Five).wav" WAVE
    INDEX 01 00:00:00
  TRACK 04 AUDIO
    TITLE "Atlanta Blues (Sarah Martin, Blue Five)"
    PERFORMER "Clarence Williams"
    INDEX 00 03:08:23
FILE "04 - Atlanta Blues (Sarah Martin, Blue Five).wav" WAVE
    INDEX 01 00:00:00
  TRACK 05 AUDIO
    TITLE "Lady Luck Blues (Mamie Smith, Harlem Trio)"
    PERFORMER "Clarence Williams"
    INDEX 00 02:54:33
FILE "05 - Lady Luck Blues (Mamie Smith, Harlem Trio).wav" WAVE
    INDEX 01 00:00:00
  TRACK 06 AUDIO
    TITLE "Kansas City Man Blues (Mamie Smith, Harlem Trio)"
    PERFORMER "Clarence Williams"
    INDEX 00 03:10:58
FILE "06 - Kansas City Man Blues (Mamie Smith, Harlem Trio).wav" WAVE
    INDEX 01 00:00:00
  TRACK 07 AUDIO
    TITLE "Oh! Daddy Blues (Eva Taylor, Clarence Williams, Blue Five)"
    PERFORMER "Clarence Williams"
    INDEX 00 03:18:65
FILE "07 - Oh! Daddy Blues (Eva Taylor, Clarence Williams, Blue Five).wav" WAVE
    INDEX 01 00:00:00
  TRACK 08 AUDIO
    TITLE "I've Got the 'Yes! We have no Banana' Blues (Eva Taylor, Clarence Williams, B..."
    PERFORMER "Clarence Williams"
    INDEX 00 02:38:67
FILE "08 - I've Got the 'Yes! We have no Banana' Blues (Eva Taylor, Clarence Williams, Blue Five).wav" WAVE
    INDEX 01 00:00:00
  TRACK 09 AUDIO
    TITLE "Achin' Heart Blues (Blue Five)"
    PERFORMER "Clarence Williams"
    INDEX 00 02:44:28
FILE "09 - Achin' Heart Blues (Blue Five).wav" WAVE
    INDEX 01 00:00:00
  TRACK 10 AUDIO
    TITLE "Irresistible Blues (Eva Taylor, Clarence Williams Trio)"
    PERFORMER "Clarence Williams"
    INDEX 00 02:56:55
FILE "10 - Irresistible Blues (Eva Taylor, Clarence Williams Trio).wav" WAVE
    INDEX 01 00:00:00
  TRACK 11 AUDIO
    TITLE "Jazzin' Babies Blues (Eva Taylor)"
    PERFORMER "Clarence Williams"
    INDEX 00 03:15:40
FILE "11 - Jazzin' Babies Blues (Eva Taylor).wav" WAVE
    INDEX 01 00:00:00
  TRACK 12 AUDIO
    TITLE "'Tain't Nobody's Bus'ness If I Do (Blue Five)"
    PERFORMER "Clarence Williams"
    INDEX 00 03:11:37
FILE "12 - 'Tain't Nobody's Bus'ness If I Do (Blue Five).wav" WAVE
    INDEX 01 00:00:00
  TRACK 13 AUDIO
    TITLE "New Orleans Hop Scop Blues (Blue Five)"
    PERFORMER "Clarence Williams"
    INDEX 00 02:48:30
FILE "13 - New Orleans Hop Scop Blues (Blue Five).wav" WAVE
    INDEX 01 00:00:00
  TRACK 14 AUDIO
    TITLE "Oh Daddy! (Blue Five)"
    PERFORMER "Clarence Williams"
    INDEX 00 02:52:40
FILE "14 - Oh Daddy! (Blue Five).wav" WAVE
    INDEX 01 00:00:00
  TRACK 15 AUDIO
    TITLE "Down on the Levee Blues (Rosetta Crawford vcl, King Bechet Trio)"
    PERFORMER "Clarence Williams"
    INDEX 00 03:10:15
FILE "15 - Down on the Levee Blues (Rosetta Crawford vcl, King Bechet Trio).wav" WAVE
    INDEX 01 00:00:00
  TRACK 16 AUDIO
    TITLE "Lonesome Woman Blues (Rosetta Crawford, King Bechet Trio)"
    PERFORMER "Clarence Williams"
    INDEX 00 03:30:05
FILE "16 - Lonesome Woman Blues (Rosetta Crawford, King Bechet Trio).wav" WAVE
    INDEX 01 00:00:00
  TRACK 17 AUDIO
    TITLE "Graveyard Dream Blues (Sara Martin vcl, Clarence Williams' Harmonizing Four)"
    PERFORMER "Clarence Williams"
    INDEX 00 03:00:47
FILE "17 - Graveyard Dream Blues (Sara Martin vcl, Clarence Williams' Harmonizing Four).wav" WAVE
    INDEX 01 00:00:00
  TRACK 18 AUDIO
    TITLE "A Green GalCan't Catch On (Blues) (Sara Martin, Harmonizing Four)"
    PERFORMER "Clarence Williams"
    INDEX 00 03:09:07
FILE "18 - A Green GalCan't Catch On (Blues) (Sara Martin, Harmonizing Four).wav" WAVE
    INDEX 01 00:00:00
  TRACK 19 AUDIO
    TITLE "If I Let You Get Away With It (Margaret Johnson vcl, Blue Five)"
    PERFORMER "Clarence Williams"
    INDEX 00 03:38:67
FILE "19 - If I Let You Get Away With It (Margaret Johnson vcl, Blue Five).wav" WAVE
    INDEX 01 00:00:00
  TRACK 20 AUDIO
    TITLE "E Flat Blues (Margarent Johnson, Blue Five)"
    PERFORMER "Clarence Williams"
    INDEX 00 02:53:03
FILE "20 - E Flat Blues (Margarent Johnson, Blue Five).wav" WAVE
    INDEX 01 00:00:00
  TRACK 21 AUDIO
    TITLE "Old-Fashioned Love (Eva Taylor vcl, Lawrence Lomax vcl)"
    PERFORMER "Clarence Williams"
    INDEX 00 03:01:25
FILE "21 - Old-Fashioned Love (Eva Taylor vcl, Lawrence Lomax vcl).wav" WAVE
    INDEX 01 00:00:00
  TRACK 22 AUDIO
    TITLE "Open Your Heart (Taylor, Lomax)"
    PERFORMER "Clarence Williams"
    INDEX 00 03:04:22
FILE "22 - Open Your Heart (Taylor, Lomax).wav" WAVE
    INDEX 01 00:00:00
  TRACK 23 AUDIO
    TITLE "Shreveport Blues (Blue Five)"
    PERFORMER "Clarence Williams"
    INDEX 00 03:01:58
FILE "23 - Shreveport Blues (Blue Five).wav" WAVE
    INDEX 01 00:00:00
  TRACK 24 AUDIO
    TITLE "Old Fashioned Love (Blue Five)"
    PERFORMER "Clarence Williams"
    INDEX 00 02:59:35
FILE "24 - Old Fashioned Love (Blue Five).wav" WAVE
    INDEX 01 00:00:00
 
 
Лог проверки качества

 
 
Состав
(1-2) Clarence Williams' Blue Five : Thomas Morris (cnt), John Mayfield (tb), Sidney Bechet (ss, cl),
Clarence Williams (p, Idr), Narcisse "Buddy" Christian (bjo). New York City, 30/07/1923.
(3-4) Sara Martin with Clarence Williams' Blue Five : Same as (1-2), plus Sara Martin (vo). NYC, 01/08/1923.
(5-6) Mamie Smith with the Harlem Trio : Mamie Smith (vo), Sidney Bechet (ss), Clarence Williams (p),
Buddy Christian (bjo). NYC, 05/08/1923.
(7-8) Eva Taylor & Clarence Williams with Clarence Williams' Blue Five : Same as (1-2), plus Eva Taylor (vo); Clarence Williams (vo on 7). NYC, 11/08/1923.
(9) Clarence Williams' Blue Five : Same as (1-2). NYC, 27/08/1923.
(10-11) Eva Taylor with Clarence Williams Trio : Eva Taylor (vo), Sdiney Bechet (ss), Clarence Williams (p),
Buddy Christian (bjo). NYC, с 29/09/1923,
(12-14) Clarence Williams' Blue Five : Same as (1-2). NYC, 10/1923.
(15-16) Rosetta Crawford with the King Bechet Trio : Rosetta Craford (vo), Sidney Bechet (ss), Clarence Williams (p),
Buddy Christian (bjo). NYC, 05/10/1923.
(17-18) Sara Martin with Clarence Williams' Harmonizing Four: Sara Martin (vo), Thomas Morris (cnt),
Sidney Bechet (ss), Clarence Williams (p), Buddy Christian (bjo). NYC, 11/10/1923.
(19-20) Margaret Johnson with Clarence Williams' Blue Five : Margaret Johnson (vo), Thomas Morris (cnt),
Charlie Irvis (tb), Sidney Bechet (ss), Clarence Williams (p). Buddy Christian (bjo). NYC, 19/10/1923.
(21-22) Eva Taylor & Lawrence Lomax (vo duet), Thomas Morris (cnt), Charlie Irvis (tb), Sidney Bechet (ss),
Clarence Williams (p). NYC, 10/11/1923.
(23-24) Clarence Williams' Blue Five : Same as 19-20, but Margaret Johnson out. NYC, с 12/11/1923.

20:31
700
Нет комментариев. Ваш будет первым!