Поиск

(Ethnic Jazz/ Accordion) Richard Galliano Septet - Piazzolla forever - 2003, FLAC (tracks+.cue), lossless

(Ethnic Jazz/ Accordion) Richard Galliano Septet - Piazzolla forever - 2003, FLAC (tracks+.cue), lossless
Треклист:
Richard Galliano Septet
Piazzolla forever
Жанр: Ethnic Jazz/ Accordion
Страна-производитель диска: France
Год издания диска: 2003
Издатель (лейбл):
Номер по каталогу: FDM36642-2
Страна: France
Аудиокодек: FLAC (*.flac)
Тип рипа: tracks+.cue
Битрейт аудио: lossless
Продолжительность: 1:02:58
Источник (релизер): what.cd
Наличие сканов в содержимом раздачи: да

01. Otoño porteño (5:37)
02. Invierno porteño (6:34)
03. Sur : Regreso al amor (6:30)
04. Concerto pour bandonéon et orchestre 'Aconcagua' (6:37)
05. Milonga del angel (5:58)
06. Michelangelo (3:27)
07. Improvisation sur le thème 'Libertango' (6:25)
08. Laura et Astor (3:23)
09. Escualo (3:17)
10. Présentation du Septet (1:10)
11. Verano porteño (7:49)
12. Primavera porteña (6:09)
 
Лог создания рипа
Exact Audio Copy V1.0 beta 2 from 29. April 2011
EAC extraction logfile from 16. December 2011, 20:58
Richard Galliano Septet / Piazzolla forever
Used drive : PIONEER DVD RW DVR-108 Adapter: 1 ID: 0
Read mode : Secure
Utilize accurate stream : Yes
Defeat audio cache : Yes
Make use of C2 pointers : No
Read offset correction : 48
Overread into Lead-In and Lead-Out : No
Fill up missing offset samples with silence : Yes
Delete leading and trailing silent blocks : No
Null samples used in CRC calculations : Yes
Used interface : Installed external ASPI interface
Gap handling : Appended to previous track
Used output format : User Defined Encoder
Selected bitrate : 896 kBit/s
Quality : High
Add ID3 tag : No
Command line compressor : C:\Program Files\Exact Audio Copy\Flac\flac.exe
Additional command line options : -V -8 -T "artist=%artist%" -T "title=%title%" -T "album=%albumtitle%" -T "date=%year%" -T "tracknumber=%tracknr%" -T "genre=%genre%" %source%
TOC of the extracted CD
Track | Start | Length | Start sector | End sector
---------------------------------------------------------
1 | 0:00.00 | 5:36.43 | 0 | 25242
2 | 5:36.43 | 6:34.28 | 25243 | 54820
3 | 12:10.71 | 6:30.17 | 54821 | 84087
4 | 18:41.13 | 6:37.15 | 84088 | 113877
5 | 25:18.28 | 5:58.33 | 113878 | 140760
6 | 31:16.61 | 3:27.08 | 140761 | 156293
7 | 34:43.69 | 6:24.41 | 156294 | 185134
8 | 41:08.35 | 3:23.36 | 185135 | 200395
9 | 44:31.71 | 3:17.25 | 200396 | 215195
10 | 47:49.21 | 1:09.69 | 215196 | 220439
11 | 48:59.15 | 7:49.17 | 220440 | 255631
12 | 56:48.32 | 6:09.22 | 255632 | 283328
Track 1
Filename E:\Flac EAC\Richard Galliano Septet - Piazzolla forever - 2003\01 - Otoño porteño.wav
Pre-gap length 0:00:02.00
Peak level 100.0 %
Extraction speed 4.9 X
Track quality 100.0 %
Test CRC 5B0174EC
Copy CRC 5B0174EC
Accurately ripped (confidence 3) [F1150781] (AR v1)
Copy OK
Track 2
Filename E:\Flac EAC\Richard Galliano Septet - Piazzolla forever - 2003\02 - Invierno porteño.wav
Peak level 100.0 %
Extraction speed 5.2 X
Track quality 99.9 %
Test CRC B0FCD54C
Copy CRC B0FCD54C
Accurately ripped (confidence 3) [6E0E8E53] (AR v1)
Copy OK
Track 3
Filename E:\Flac EAC\Richard Galliano Septet - Piazzolla forever - 2003\03 - Sur - Regreso al amor.wav
Peak level 100.0 %
Extraction speed 6.4 X
Track quality 100.0 %
Test CRC 5192EECB
Copy CRC 5192EECB
Accurately ripped (confidence 3) [78AC07F9] (AR v1)
Copy OK
Track 4
Filename E:\Flac EAC\Richard Galliano Septet - Piazzolla forever - 2003\04 - Concerto pour bandonéon et orchestre ''Aconcagua''.wav
Peak level 100.0 %
Extraction speed 6.9 X
Track quality 100.0 %
Test CRC 1B1A900A
Copy CRC 1B1A900A
Accurately ripped (confidence 3) [AF4ECC3A] (AR v1)
Copy OK
Track 5
Filename E:\Flac EAC\Richard Galliano Septet - Piazzolla forever - 2003\05 - Milonga del angel.wav
Peak level 100.0 %
Extraction speed 7.4 X
Track quality 100.0 %
Test CRC F92E6263
Copy CRC F92E6263
Accurately ripped (confidence 3) [36B17281] (AR v1)
Copy OK
Track 6
Filename E:\Flac EAC\Richard Galliano Septet - Piazzolla forever - 2003\06 - Michelangelo.wav
Peak level 100.0 %
Extraction speed 7.2 X
Track quality 100.0 %
Test CRC 08B93066
Copy CRC 08B93066
Accurately ripped (confidence 3) [7F472104] (AR v1)
Copy OK
Track 7
Filename E:\Flac EAC\Richard Galliano Septet - Piazzolla forever - 2003\07 - Improvisation sur le thème ''Libertango''.wav
Peak level 100.0 %
Extraction speed 7.9 X
Track quality 100.0 %
Test CRC BDE7D5D7
Copy CRC BDE7D5D7
Accurately ripped (confidence 3) [19E077DF] (AR v1)
Copy OK
Track 8
Filename E:\Flac EAC\Richard Galliano Septet - Piazzolla forever - 2003\08 - Laura et Astor.wav
Peak level 100.0 %
Extraction speed 6.6 X
Track quality 99.9 %
Test CRC 87846745
Copy CRC 87846745
Accurately ripped (confidence 3) [7573A34C] (AR v1)
Copy OK
Track 9
Filename E:\Flac EAC\Richard Galliano Septet - Piazzolla forever - 2003\09 - Escualo.wav
Peak level 100.0 %
Extraction speed 7.8 X
Track quality 100.0 %
Test CRC 215A5CB0
Copy CRC 215A5CB0
Accurately ripped (confidence 3) [D0642C9A] (AR v1)
Copy OK
Track 10
Filename E:\Flac EAC\Richard Galliano Septet - Piazzolla forever - 2003\10 - Présentation du Septet.wav
Peak level 100.0 %
Extraction speed 6.2 X
Track quality 100.0 %
Test CRC BF587F27
Copy CRC BF587F27
Accurately ripped (confidence 3) [C6E3A4C7] (AR v1)
Copy OK
Track 11
Filename E:\Flac EAC\Richard Galliano Septet - Piazzolla forever - 2003\11 - Verano porteño.wav
Peak level 100.0 %
Extraction speed 9.1 X
Track quality 100.0 %
Test CRC 0E166210
Copy CRC 0E166210
Accurately ripped (confidence 3) [09E3E814] (AR v1)
Copy OK
Track 12
Filename E:\Flac EAC\Richard Galliano Septet - Piazzolla forever - 2003\12 - Primavera porteña.wav
Peak level 100.0 %
Extraction speed 9.4 X
Track quality 100.0 %
Test CRC 9194A982
Copy CRC 9194A982
Accurately ripped (confidence 3) [A0AD1DE6] (AR v1)
Copy OK
All tracks accurately ripped
No errors occurred
End of status report
==== Log checksum B7E0162E15B4A6DE523B972ABFAA883EADE7905AFF799F99137C592220FA2265 ====
 
Содержание индексной карты (.CUE)
REM GENRE Tango
REM DATE 2003
REM DISCID 9B0EC10C
REM COMMENT "ExactAudioCopy v1.0b2"
FILE "01 - Otono porteno.wav" WAVE
TRACK 01 AUDIO
FLAGS DCP
INDEX 01 00:00:00
FILE "02 - Invierno porteno.wav" WAVE
TRACK 02 AUDIO
FLAGS DCP
INDEX 01 00:00:00
FILE "03 - Sur - Regreso al amor.wav" WAVE
TRACK 03 AUDIO
FLAGS DCP
INDEX 01 00:00:00
FILE "04 - Concerto pour bandoneon et orchestre ''Aconcagua''.wav" WAVE
TRACK 04 AUDIO
FLAGS DCP
INDEX 01 00:00:00
FILE "05 - Milonga del angel.wav" WAVE
TRACK 05 AUDIO
FLAGS DCP
INDEX 01 00:00:00
FILE "06 - Michelangelo.wav" WAVE
TRACK 06 AUDIO
FLAGS DCP
INDEX 01 00:00:00
FILE "07 - Improvisation sur le theme ''Libertango''.wav" WAVE
TRACK 07 AUDIO
FLAGS DCP
INDEX 01 00:00:00
FILE "08 - Laura et Astor.wav" WAVE
TRACK 08 AUDIO
FLAGS DCP
INDEX 01 00:00:00
FILE "09 - Escualo.wav" WAVE
TRACK 09 AUDIO
FLAGS DCP
INDEX 01 00:00:00
FILE "10 - Presentation du Septet.wav" WAVE
TRACK 10 AUDIO
FLAGS DCP
INDEX 01 00:00:00
FILE "11 - Verano porteno.wav" WAVE
TRACK 11 AUDIO
FLAGS DCP
INDEX 01 00:00:00
FILE "12 - Primavera portena.wav" WAVE
TRACK 12 AUDIO
FLAGS DCP
INDEX 01 00:00:00
По всем вопросам пишите личное сообщение пользователю M0p94ok.
01:11
468
Нет комментариев. Ваш будет первым!