Поиск

(Free Funk, Soul Jazz) [CD] Gary Bartz Ntu Troop - Juju Street Songs (1972-1973) - 1997, FLAC (tracks+.cue), lossless

(Free Funk, Soul Jazz) [CD] Gary Bartz Ntu Troop - Juju Street Songs (1972-1973) - 1997, FLAC (tracks+.cue), lossless
Gary Bartz Ntu Troop - Juju Street Songs
Жанр: Free Funk, Soul Jazz
Носитель: CD
Страна-производитель диска: США
Год издания: 1997
Издатель (лейбл): Prestige/Fantasy
Номер по каталогу: PRCD-24181-2
Аудиокодек: FLAC (*.flac)
Тип рипа: tracks+.cue
Битрейт аудио: lossless
Продолжительность: 74:17
Источник (релизер): FunkyJamz (what)
Наличие сканов в содержимом раздачи: да
Треклист:
01. I Wanna Be Where You Are (Ross-Ware) - 10:07
02. Black Maybe (Wonder) - 9:39
03. Bertha Baptist (James) - 6:39
04. Africans Unite (Bartz) - 6:33
05. Teheran (Bartz) - 8:23
06. Sifa Zote (Bartz) - 7:53
07. Whasaname (King) - 7:27
08. Betcha by Golly, Wow (Creed) - 4:51
09. Dr. Follow's Dance (Bartz) - 2:41
10. Standin' on the Corner (King-Walker-Bartz) - 2:59
11. Sing Me a Song Today (Bey) - 7:05
Состав:
Gary Bartz - alto saxophone, soprano saxophone, sopranino saxophone, electric piano, percussion, voice, vocals (#10)
Hector Centeno - guitar (#9,10)
Andy Bey (#1-8,11), Hubert Eaves (#9,10) - electric piano, percussion, voice
Stafford James - bass, electric bass, percussion, voice
Howard King - drums, percussion, voice
Recorded at Fantasy Studios, Berkeley in October 1972 (#1-8,11) and at C.I. Recording, New York in June 1973 (#9,10).
#1-5 released as "Juju Street Songs" (Prestige 10057), #6-11 on "Follow, the Medicine Man" (Prestige 10068).
Remastered by Joe Tarantino.
 
Лог создания рипа
Exact Audio Copy V1.0 beta 3 from 29. August 2011
EAC extraction logfile from 21. January 2012, 17:24
Gary Bartz Ntu Troop / Juju Street Songs
Used drive  : HL-DT-STDVDRAM GE20LU11   Adapter: 2  ID: 0
Read mode               : Secure
Utilize accurate stream : Yes
Defeat audio cache      : Yes
Make use of C2 pointers : No
Read offset correction                      : 667
Overread into Lead-In and Lead-Out          : No
Fill up missing offset samples with silence : Yes
Delete leading and trailing silent blocks   : No
Null samples used in CRC calculations       : Yes
Used interface                              : Native Win32 interface for Win NT & 2000
Gap handling                                : Appended to previous track
Used output format              : User Defined Encoder
Selected bitrate                : 128 kBit/s
Quality                         : High
Add ID3 tag                     : No
Command line compressor         : C:\Program Files (x86)\Exact Audio Copy\Flac\flac.exe
Additional command line options : -8 -V -T "ARTIST=%artist%" -T "TITLE=%title%" -T "ALBUM=%albumtitle%" -T "DATE=%year%" -T "TRACKNUMBER=%tracknr%" -T "TOTALTRACKS=%numtracks%" -T "GENRE=%genre%" -T "ALBUMARTIST=%albumartist%" -T "ALBUM ARTIST=%albumartist%" -T "COMMENT=EAC Secure Mode, Test & Copy, AccurateRip, FLAC -8" %source%
TOC of the extracted CD
     Track |   Start  |  Length  | Start sector | End sector
    ---------------------------------------------------------
        1  |  0:00.00 | 10:07.17 |         0    |    45541
        2  | 10:07.17 |  9:39.20 |     45542    |    88986
        3  | 19:46.37 |  6:38.43 |     88987    |   118879
        4  | 26:25.05 |  6:32.45 |    118880    |   148324
        5  | 32:57.50 |  8:22.40 |    148325    |   186014
        6  | 41:20.15 |  7:52.65 |    186015    |   221479
        7  | 49:13.05 |  7:26.47 |    221480    |   254976
        8  | 56:39.52 |  4:51.13 |    254977    |   276814
        9  | 61:30.65 |  2:41.17 |    276815    |   288906
       10  | 64:12.07 |  2:58.45 |    288907    |   302301
       11  | 67:10.52 |  7:05.23 |    302302    |   334199
Track  1
     Filename C:\Users\HP\Music\01 - I Wanna Be Were You Are.wav
     Pre-gap length  0:00:02.00
     Peak level 100.0 %
     Extraction speed 1.3 X
     Track quality 99.9 %
     Test CRC DAB137AF
     Copy CRC DAB137AF
     Accurately ripped (confidence 2)  [B75E2DB0]  (AR v1)
     Copy OK
Track  2
     Filename C:\Users\HP\Music\02 - Black Maybe.wav
     Pre-gap length  0:00:04.10
     Peak level 96.0 %
     Extraction speed 1.6 X
     Track quality 100.0 %
     Test CRC FC3E090E
     Copy CRC FC3E090E
     Accurately ripped (confidence 2)  [32B84EA4]  (AR v1)
     Copy OK
Track  3
     Filename C:\Users\HP\Music\03 - Bertha Baptist.wav
     Pre-gap length  0:00:02.47
     Peak level 92.8 %
     Extraction speed 1.8 X
     Track quality 100.0 %
     Test CRC F8FE81D1
     Copy CRC F8FE81D1
     Accurately ripped (confidence 2)  [C78C8CA9]  (AR v1)
     Copy OK
Track  4
     Filename C:\Users\HP\Music\04 - Africans Unite.wav
     Pre-gap length  0:00:04.15
     Peak level 100.0 %
     Extraction speed 1.9 X
     Track quality 100.0 %
     Test CRC 911365E1
     Copy CRC 911365E1
     Accurately ripped (confidence 2)  [58D9B00C]  (AR v1)
     Copy OK
Track  5
     Filename C:\Users\HP\Music\05 - Teheran.wav
     Pre-gap length  0:00:04.38
     Peak level 100.0 %
     Extraction speed 2.1 X
     Track quality 100.0 %
     Test CRC 9A511BE4
     Copy CRC 9A511BE4
     Accurately ripped (confidence 2)  [5215241E]  (AR v1)
     Copy OK
Track  6
     Filename C:\Users\HP\Music\06 - Sifa Zote.wav
     Pre-gap length  0:00:03.05
     Peak level 92.8 %
     Extraction speed 2.2 X
     Track quality 100.0 %
     Test CRC 0E263B6D
     Copy CRC 0E263B6D
     Accurately ripped (confidence 2)  [32590CA1]  (AR v1)
     Copy OK
Track  7
     Filename C:\Users\HP\Music\07 - Whasaname.wav
     Pre-gap length  0:00:03.43
     Peak level 95.0 %
     Extraction speed 2.3 X
     Track quality 100.0 %
     Test CRC 8CD183F9
     Copy CRC 8CD183F9
     Accurately ripped (confidence 2)  [48EAF447]  (AR v1)
     Copy OK
Track  8
     Filename C:\Users\HP\Music\08 - Betcha by Golly, Wow.wav
     Pre-gap length  0:00:03.55
     Peak level 72.3 %
     Extraction speed 2.0 X
     Track quality 99.9 %
     Test CRC 5E5ECDEC
     Copy CRC 5E5ECDEC
     Accurately ripped (confidence 2)  [AD1831EB]  (AR v1)
     Copy OK
Track  9
     Filename C:\Users\HP\Music\09 - Dr. Follow's Dance.wav
     Pre-gap length  0:00:03.15
     Peak level 86.3 %
     Extraction speed 2.1 X
     Track quality 100.0 %
     Test CRC 3675E2BF
     Copy CRC 3675E2BF
     Accurately ripped (confidence 2)  [F0245742]  (AR v1)
     Copy OK
Track 10
     Filename C:\Users\HP\Music\10 - Standin' on the Corner.wav
     Pre-gap length  0:00:02.07
     Peak level 92.1 %
     Extraction speed 1.9 X
     Track quality 99.9 %
     Test CRC 1278D32A
     Copy CRC 1278D32A
     Accurately ripped (confidence 2)  [47FD91E6]  (AR v1)
     Copy OK
Track 11
     Filename C:\Users\HP\Music\11 - Sing Me a Song Today.wav
     Pre-gap length  0:00:03.42
     Peak level 97.0 %
     Extraction speed 2.4 X
     Track quality 99.9 %
     Test CRC C90AE945
     Copy CRC C90AE945
     Accurately ripped (confidence 2)  [D23F3BF8]  (AR v1)
     Copy OK
All tracks accurately ripped
No errors occurred
End of status report
==== Log checksum E4C68CF2F210D4D9A96D10C42A72F2A899A87B9CA946881A5251FFD0D5C222F4 ====
 
 
Содержание индексной карты (.CUE)
REM GENRE Jazz
REM DATE 1997
REM DISCID B011680B
REM COMMENT "ExactAudioCopy v1.0b3"
PERFORMER "Gary Bartz Ntu Troop"
TITLE "Juju Street Songs"
FILE "01 - I Wanna Be Where You Are.wav" WAVE
  TRACK 01 AUDIO
    TITLE "I Wanna Be Where You Are"
    PERFORMER "Gary Bartz Ntu Troop"
    INDEX 01 00:00:00
  TRACK 02 AUDIO
    TITLE "Black Maybe"
    PERFORMER "Gary Bartz Ntu Troop"
    INDEX 00 10:03:07
FILE "02 - Black Maybe.wav" WAVE
    INDEX 01 00:00:00
  TRACK 03 AUDIO
    TITLE "Bertha Baptist"
    PERFORMER "Gary Bartz Ntu Troop"
    INDEX 00 09:36:48
FILE "03 - Bertha Baptist.wav" WAVE
    INDEX 01 00:00:00
  TRACK 04 AUDIO
    TITLE "Africans Unite"
    PERFORMER "Gary Bartz Ntu Troop"
    INDEX 00 06:34:28
FILE "04 - Africans Unite.wav" WAVE
    INDEX 01 00:00:00
  TRACK 05 AUDIO
    TITLE "Teheran"
    PERFORMER "Gary Bartz Ntu Troop"
    INDEX 00 06:28:07
FILE "05 - Teheran.wav" WAVE
    INDEX 01 00:00:00
  TRACK 06 AUDIO
    TITLE "Sifa Zote"
    PERFORMER "Gary Bartz Ntu Troop"
    INDEX 00 08:19:35
FILE "06 - Sifa Zote.wav" WAVE
    INDEX 01 00:00:00
  TRACK 07 AUDIO
    TITLE "Whasaname"
    PERFORMER "Gary Bartz Ntu Troop"
    INDEX 00 07:49:22
FILE "07 - Whasaname.wav" WAVE
    INDEX 01 00:00:00
  TRACK 08 AUDIO
    TITLE "Betcha by Golly, Wow"
    PERFORMER "Gary Bartz Ntu Troop"
    INDEX 00 07:22:67
FILE "08 - Betcha by Golly, Wow.wav" WAVE
    INDEX 01 00:00:00
  TRACK 09 AUDIO
    TITLE "Dr. Follow's Dance"
    PERFORMER "Gary Bartz Ntu Troop"
    INDEX 00 04:47:73
FILE "09 - Dr. Follow's Dance.wav" WAVE
    INDEX 01 00:00:00
  TRACK 10 AUDIO
    TITLE "Standin' on the Corner"
    PERFORMER "Gary Bartz Ntu Troop"
    INDEX 00 02:39:10
FILE "10 - Standin' on the Corner.wav" WAVE
    INDEX 01 00:00:00
  TRACK 11 AUDIO
    TITLE "Sing Me a Song Today"
    PERFORMER "Gary Bartz Ntu Troop"
    INDEX 00 02:55:03
FILE "11 - Sing Me a Song Today.wav" WAVE
    INDEX 01 00:00:00
 
 
Отчет CUETools
[CUETools log; Date: 15.09.2014 12:58:36; Version: 2.1.5]
[CTDB TOCID: o2kUaItFV5nImW3zPEvtQqs8ZCo-] found.
Track | CTDB Status
  1   | (2/2) Accurately ripped
  2   | (2/2) Accurately ripped
  3   | (2/2) Accurately ripped
  4   | (2/2) Accurately ripped
  5   | (2/2) Accurately ripped
  6   | (2/2) Accurately ripped
  7   | (2/2) Accurately ripped
  8   | (2/2) Accurately ripped
  9   | (2/2) Accurately ripped
 10   | (2/2) Accurately ripped
 11   | (2/2) Accurately ripped
[AccurateRip ID: 0022953e-0121e150-b011680b] found.
Track   [  CRC   |   V2   ] Status
 01     [b75e2db0|c4cc5848] (2+0/7) Accurately ripped
 02     [32b84ea4|bcbd03fc] (2+0/7) Accurately ripped
 03     [c78c8ca9|745b74b1] (2+0/7) Accurately ripped
 04     [58d9b00c|f81b2e7e] (2+0/7) Accurately ripped
 05     [5215241e|21917f24] (2+0/7) Accurately ripped
 06     [32590ca1|48c7bac8] (2+0/7) Accurately ripped
 07     [48eaf447|a5342ad9] (2+0/7) Accurately ripped
 08     [ad1831eb|328893ec] (2+0/7) Accurately ripped
 09     [f0245742|e9701e1d] (2+0/7) Accurately ripped
 10     [47fd91e6|3987df6f] (2+0/7) Accurately ripped
 11     [d23f3bf8|7cfd7e41] (2+0/7) Accurately ripped
Offsetted by -286:
 01     [b23058d0] (2/7) Accurately ripped
 02     [11ef8d8e] (2/7) Accurately ripped
 03     [85db1c35] (2/7) Accurately ripped
 04     [81618f10] (2/7) Accurately ripped
 05     [1880b46a] (2/7) Accurately ripped
 06     [e1ffb4cd] (2/7) Accurately ripped
 07     [a882e5eb] (2/7) Accurately ripped
 08     [df5f8433] (2/7) Accurately ripped
 09     [9073fa26] (2/7) Accurately ripped
 10     [330ca854] (2/7) Accurately ripped
 11     [1f205316] (2/7) Accurately ripped
Track Peak [ CRC32  ] [W/O NULL] [  LOG   ]
 --  100,0 [D51007B7] [0C4088F4]
 01  100,0 [DAB137AF] [6B933FC2]   CRC32
 02   96,0 [FC3E090E] [9D2F8BF9]   CRC32
 03   92,8 [F8FE81D1] [80A970DE]   CRC32
 04  100,0 [911365E1] [B77773B0]   CRC32
 05  100,0 [9A511BE4] [1BCDAF4D]   CRC32
 06   92,8 [0E263B6D] [5CDF5A0C]   CRC32
 07   95,0 [8CD183F9] [3825AFB3]   CRC32
 08   72,3 [5E5ECDEC] [2F4B8350]   CRC32
 09   86,3 [3675E2BF] [E37A01C6]   CRC32
 10   92,1 [1278D32A] [7D790F15]   CRC32
 11   97,0 [C90AE945] [278F45F8]   CRC32
 
 
Review by Alex Henderson
In the late 1970s, Gary Bartz's work became quite commercial. But earlier in the decade -- when the alto and soprano saxophonist led his NTU Troop -- he was more ambitious. Recorded in 1972, Juju Street Songs is among the risk-taking efforts that came from the NTU Troop. This ambitious LP finds Bartz drawing on a variety of influences -- everything from John Coltrane's modal post-bop to world music to the electric fusion that Miles Davis and Herbie Hancock were providing at the time. The term world music, of course, can mean a lot of different things; for the NTU Troop, it means a strong Middle Eastern/Arabic influence on the moody "Teheran" and more of an Afro-Caribbean outlook on the exuberant "Africans Unite." Bassist Stafford James' "Bertha Baptist," meanwhile, is a jazz-funk gem that drummer Harvey Mason interpreted on his Earthmover LP of 1976. Although very jazz-oriented, Juju Street Songs is well aware of what was happening with R&B in the early 1970s. "I Wanna Be Where You Are" was a hit for Michael Jackson back when the Jacksons were still calling themselves the Jackson Five, but Bartz gives the soul-pop tune a serious makeover and demonstrates that it can work well as instrumental jazz. And Stevie Wonder's "Black Maybe," which features Andy Bey on vocals, lends itself equally well to a jazz interpretation. If you want to hear how much Juju Street Songs differs from the commercial stuff that Bartz offered in the late 1970s, just play "I Wanna Be Where You Are" next to his late 1970s version of L.T.D.'s "Love Ballad" -- while Bartz seriously interprets Michael Jackson's hit, his performance of "Love Ballad" is an uninteresting, overproduced, note-for-note cover. Excellent from start to finish, this LP captures Bartz at the height of his creativity.
11:05
596
Нет комментариев. Ваш будет первым!