Поиск

(Free-Jazz) Joseph Jarman & Don Moye - Black Paladins - 1980 {Black Saint}, FLAC (tracks+.cue), lossless

Треклист:
Joseph Jarman & Don Moye - Black Paladins
Жанр: Free-Jazz
Год выпуска диска: 1980
Производитель диска: US (Black Saint)
Аудио кодек: FLAC
Тип рипа: tracks+.cue
Битрейт аудио: lossless
Продолжительность: 37:46
Трэклист:
01 - Mama Marimba (3:26)
02 - In Memory Of My Seasons (6:24)
03 - Humility In The Light Of The Creator (8:37)
04 - Black Paladins (8:09)
05 - Ginger Song (2:59)
06 - Ode To Wilbur Ware (8:11)
Доп. информация: Famoudou Don Moye Drums, Percussion [Donno, Rattle, Bendir], Shekere, Congas [Tumba], Whistle, Drums [Trap], Voice [Bird Calls]
Johnny Dyani - Piano, Bass, Tambourine, Vocals
Joseph Jarman - Saxophone [Sopranino, Tenor, Baritone], Conch [Shell Horn], Flute, Flute [Bass Bamboo, Frog], Clarinet [Bass], Voice
 
EAC log
Exact Audio Copy V0.99 prebeta 4 from 23. January 2008
EAC extraction logfile from 27. March 2008, 7:57
Joseph Jarman, Don Moye / Black Paladins
Used drive : HL-DT-STDVD+-RW GSA-H21N Adapter: 0 ID: 0
Read mode : Secure
Utilize accurate stream : Yes
Defeat audio cache : No
Make use of C2 pointers : No
Read offset correction : 102
Overread into Lead-In and Lead-Out : No
Fill up missing offset samples with silence : Yes
Delete leading and trailing silent blocks : No
Null samples used in CRC calculations : No
Used interface : Installed external ASPI interface
Gap handling : Appended to previous track
Used output format : User Defined Encoder
Selected bitrate : 192 kBit/s
Quality : High
Add ID3 tag : Yes
Command line compressor : C:\Program\Exact Audio Copy\flac.exe
Additional command line options : -T "artist=%a" -T "title=%t" -T "album=%g" -T "date=%y" -T "tracknumber=%n" -T "genre=%m" -5 %s
TOC of the extracted CD
Track | Start | Length | Start sector | End sector
---------------------------------------------------------
1 | 0:00.33 | 3:26.00 | 33 | 15482
2 | 3:26.33 | 6:24.30 | 15483 | 44312
3 | 9:50.63 | 8:37.00 | 44313 | 83087
4 | 18:27.63 | 8:09.07 | 83088 | 119769
5 | 26:36.70 | 2:58.65 | 119770 | 133184
6 | 29:35.60 | 8:10.48 | 133185 | 169982
Track 1
Filename C:\Program\Exact Audio Copy\z ripping\Black Paladins - 01 - Mama Marimba.wav
Pre-gap length 0:00:02.33
Peak level 73.5 %
Track quality 100.0 %
Test CRC 3083AC88
Copy CRC 3083AC88
Track not present in AccurateRip database
Copy OK
Track 2
Filename C:\Program\Exact Audio Copy\z ripping\Black Paladins - 02 - In Memory Of My Seasons.wav
Peak level 67.5 %
Track quality 100.0 %
Test CRC 37C44E39
Copy CRC 37C44E39
Track not present in AccurateRip database
Copy OK
Track 3
Filename C:\Program\Exact Audio Copy\z ripping\Black Paladins - 03 - Humility In The Light Of The Creator.wav
Peak level 75.2 %
Track quality 99.9 %
Test CRC BFA4C060
Copy CRC BFA4C060
Track not present in AccurateRip database
Copy OK
Track 4
Filename C:\Program\Exact Audio Copy\z ripping\Black Paladins - 04 - Black Paladins.wav
Peak level 89.0 %
Track quality 99.9 %
Test CRC E36A95B4
Copy CRC E36A95B4
Track not present in AccurateRip database
Copy OK
Track 5
Filename C:\Program\Exact Audio Copy\z ripping\Black Paladins - 05 - Ginger Song.wav
Peak level 76.5 %
Track quality 100.0 %
Test CRC 5FC19FE8
Copy CRC 5FC19FE8
Track not present in AccurateRip database
Copy OK
Track 6
Filename C:\Program\Exact Audio Copy\z ripping\Black Paladins - 06 - Ode To Wilbur Ware.wav
Peak level 91.8 %
Track quality 100.0 %
Test CRC 87D6F3AD
Copy CRC 87D6F3AD
Track not present in AccurateRip database
Copy OK
None of the tracks are present in the AccurateRip database
No errors occurred
End of status report
Прикольно, последняя песенка называется Ода Вилбуру Вэ, и на альбоме, который и присмотрел для следующей раздачи, играет Вилбур Вэ.
14:00
509
Нет комментариев. Ваш будет первым!