Поиск

(Free Jazz) Richard Galliano - Gallianissimo - 2001, FLAC (image+.cue), lossless

(Free Jazz) Richard Galliano - Gallianissimo - 2001, FLAC (image+.cue), lossless
Треклист:
Richard Galliano - Gallianissimo
Жанр: Free Jazz
Год выпуска диска: 2001
Производитель диска: Francis Dreyfus
Аудио кодек: APE
Тип рипа: image+.cue
Битрейт аудио: lossless
Продолжительность: 68.542
Трэклист:
New York Tango
Laurita
Waltz for Nicky
Invierno portenho
J.F.
Caruso
Fou rire
La valse a Margaux
Giselle
Viaggio
Spleen
Tango pour Claude
La Javanaise
Leo, estante num instante
Oblivion
Доп. информация: Доп. информация:
 
отчёт ЕАС
Отчёт EAC об извлечении, выполненном 2. апреля 2009, 18:28
Richard Galliano / Gallianissimo!
Дисковод: TSSTcorpCDDVDW TS-L632H Adapter: 0 ID: 0
Режим чтения : Достоверность
Использование точного потока : Да
Отключение кэша аудио : Да
Использование указателей C2 : Нет
Коррекция смещения при чтении : 6
Способность читать области Lead-in и Lead-out : Нет
Заполнение пропущенных сэмплов тишиной : Да
Удаление блоков с тишиной в начале и конце : Нет
При вычислениях CRC использовались нулевые сэмплы : Да
Интерфейс : Установленный внешний ASPI-интерфейс
Выходной формат : Внутренние WAV-операции
Формат сэмплов : 44.100 Гц; 16 бит; стерео
TOC извлечённого CD
Трек | Старт | Длительность | Начальный сектор | Конечный сектор
---------------------------------------------------------------------
1 | 0:00.00 | 4:07.67 | 0 | 18591
2 | 4:07.67 | 3:44.18 | 18592 | 35409
3 | 7:52.10 | 3:23.55 | 35410 | 50689
4 | 11:15.65 | 6:49.05 | 50690 | 81369
5 | 18:04.70 | 6:32.00 | 81370 | 110769
6 | 24:36.70 | 3:32.21 | 110770 | 126690
7 | 28:09.16 | 4:18.24 | 126691 | 146064
8 | 32:27.40 | 3:40.65 | 146065 | 162629
9 | 36:08.30 | 5:05.66 | 162630 | 185570
10 | 41:14.21 | 7:02.51 | 185571 | 217271
11 | 48:16.72 | 5:06.29 | 217272 | 240250
12 | 53:23.26 | 4:11.51 | 240251 | 259126
13 | 57:35.02 | 5:48.56 | 259127 | 285282
14 | 63:23.58 | 4:50.37 | 285283 | 307069
15 | 68:14.20 | 3:31.62 | 307070 | 322956
Характеристики диапазона извлечения и сообщения об ошибках
Выбранный диапазон
Имя файла D:\music\JAZ\Richard Galliano - Gallianissimo!.wav
Пиковый уровень 100.0 %
Качество диапазона 100.0 %
CRC копии F80E9C21
Копирование... OK
Ошибок не произошло
Конец отчёта
По всем вопросам пишите личное сообщение пользователю M0p94ok.
05:34
400
Нет комментариев. Ваш будет первым!