Поиск

(Funk-jazz, Fusion) Billy Cobham - Magic (1977) & Simplicity Of Expression, Depth Of Thought (1978) {2 on 1} - 1998, FLAC (tracks+.cue), lossless

Треклист:
Billy Cobham - Magic (1977) & Simplicity Of Expression, Depth Of Thought (1978) {2 on 1}
Жанр: Funk-jazz, Fusion
Дата выпуска: 1977, 1978
Дата переиздания: 1998
Производитель диска, страна: Sony Music Entertainment (UK) Ltd 492626
20 BIT Digitally Remastered for 'Jazz 2 In 1 (2 Complete Albums In 1 CD)'
Тип: 2 In 1
Аудио кодек: FLAC
Тип рипа: (tracks + .cue)
Битрейт аудио: lossless
Включает: Full artwork
Продолжительность: 1:17:47
Источник: torrent
Риппер: Sarc
Трэклист, Состав::
'Magic':
1. On A Magic Carpet Ride (5:08)
Joachim Kuhn: electric piano, acoustic solo
Mark Soskin: Acoustic Piano, oberheim synthesizer
Pete Maunu: guitars
Randy Jackson: bass
2. AC/ DC (5:27)
Joachim Kuhn: piano, mini-moog, synthesizer solo
Pete Maunu: guitars
Randy Jackson: bass
Alvin Batiste: clarinet
Pete Escovedo: timbales Sheila Escovedo: congas
3. Leaward Winds (3:39)
Mark Soskin: piano solo and oberheim synthesizer
Pete Maunu: guitars
Randy Jackson: bass
4. Puffnstuff (6:23)
Mark Soskin: acoustic tack piano, electric piano
Pete Maunu: guitars
Randy Jackson: bass
Alvin Batiste: clarinet, vocals
B.C.: vocals and hamboning it up
5. 'Antares' The Star (5:10)
Mark Soskin: keyboards
Pete Maunu: guitars
Randy Jackson: bass
Alvin Batiste: clarinet
Pete Escovedo: timbales Shiela Escovedo: congas
6. Magic (5:51)/ Reflection In The Clouds (6:39)/ Magic- Recapitulation (0:53)
Joachim Kuhn: piano, acoustic piano
Pete Maunu: guitars
Randy Jackson: bass (solo)
Mark Soskin: oberheim synthesizer
Kathleen Kaan: vocal
Pete Escovedo: vocal
В. С. Hojo and Dennis: hand claps
Recorded at Electric Lady Recording Studios, N.Y. and Manta Sound, Toronto, Canada
'Simplicity Of Expression, Depth Of Thought':
7. Bolinas (4:25)
Kamal - vocals
Billy Cobham - drums & percussion
Mark Soskin - keyboards
Ray Mouton - guitar
Charles Singleton - guitar
Randy Jackson - bass
Eddie Daniels - tenor saxophone solo
Marvin Stamm, Mike Lawrence - flugel horns/trumpets
Wayne Andre, Alan Raph, George Quinn - trombones
Brooks Tillotson, Don Corrado - trench horns
David Nadien - concertmaster
David Nadien, Matthew Raimondi, Richard Hendrickson, Alfred V. Brown, Peter Dimitriades, Anahid Aiemian, Louis Shulman, Jonathan Abramowitz, Charles McCracken - strings
Arranged and conducted by Jay Chattaway
8. La Guernica (8:05)
Billy Cobham - drums & percussion
Mark Soskin - keyboards
Alvin Batiste - clarinet
Ray Mouton - guitar
Charles Singleton - guitar
Randy Jackson - bass
Steve Khan - guitar (acoustic 12 string & 6 string)
Marvin Stamm, Mike Lawrence - trumpets
Wayne Andre, Alan Raph, George Quinn - trombones
Brooks Tillotson, Don Corrado - trench horns
David Nadien - concertmaster
David Nadien, Matthew Raimondi, Richard Hendrickson, Alfred V. Brown, Peter Dimitriades, Anahid Aiemian, Louis Shulman, Jonathan Abramowitz, Charles McCracken - strings
Arranged by Jay Chattaway
9. Pocket Change (6:30)
Charles Singleton - lead vocal
Billy Cobham - drums & percussion
Zachary Sanders, Raymond Simpson, Frank Floyd, Billy Cobham, Randy Jackson, Charles Singleton background - vocals Alvin Batiste, Eddie Daniels - woodwinds
Mark Soskin - keyboards
Ray Mouton, Charles Singleton - guitars
Randy Jackson - bass
10. Indigo (6:50)
Billy Cobham - drums & percussion
Pete Maunu - guitar
Randy Jackson - bass
Joachim Kuhn - moog solo
Mike Mainieri - vibraphone
11. Opelousas (4:51)
Charles Singleton - lead vocals
Randy Jackson, Billy Cobham, Charles Singleton, Zachary Sanders, Raymond Simpson, Frank Floyd - background vocals
Billy Cobham - drums & percussion
Alvin Batiste, Eddie Daniels - woodwinds
Mark Soskin - keyboards
Ray Mouton, Charles Singleton - guitars
Randy Jackson - bass
12. Early Libra (7:13)
Kamal-vocalist
Billy Cobham - drums & percussion
Pete Maunu - guitar
Joachim Kuhn - keyboards
Randy Jackson - bass
Marvin Stamm Mike Lawrence - trumpets
Brooks Tillotson, Don Corrado - trench horns
Wayne Andre, Alan Raph, George Quinn - trombones
David Nadien, Matthew Raimondi, Richard Hendrickson, Alfred V. Brown, Peter Dimitriades, Anahid Aiemian, Louis Shulman, Jonathan Abramowitz, Charles McCracken - strings
Arranged and Conducted by Jay Chattaway
This album was recorded at Electric Lady, New York; Manta Studios, Toronto, Canada; Mediasound, New York; CBS Recording Studios, New York; and The Power Station, New York
Об альбоме:
http://www.progarchives.com/album.asp?id=18344
 
CD scan
 
Back scan
 
EAC log
EAC extraction logfile from 11. September 2006, 15:13 for CD
Billy Cobham / Magic - Simplicity Of Expression, Depth Of Thought
Used drive : PLEXTOR DVDR PX-716A Adapter: 1 ID: 0
Read mode : Secure with NO C2, accurate stream, disable cache
Read offset correction : 30
Overread into Lead-In and Lead-Out : Yes
Used output format : C:\Programmi\Exact Audio Copy\flac-1.1.2-win\bin\flac.exe (User Defined Encoder)
32 kBit/s
Additional command line options : -8 -V %s
Other options :
Fill up missing offset samples with silence : Yes
Delete leading and trailing silent blocks : No
Installed external ASPI interface
Track 1
Filename F:\[MyRip]\01 - On A Magic Carpet Ride.wav
Pre-gap length 0:00:02.00
Peak level 99.9 %
Track quality 100.0 %
Test CRC 9C5B9B78
Copy CRC 9C5B9B78
Copy OK
Track 2
Filename F:\[MyRip]\02 - AC,DC.wav
Peak level 99.3 %
Track quality 100.0 %
Test CRC 801C42F2
Copy CRC 801C42F2
Copy OK
Track 3
Filename F:\[MyRip]\03 - Leaward Winds.wav
Peak level 87.6 %
Track quality 100.0 %
Test CRC A0C579AE
Copy CRC A0C579AE
Copy OK
Track 4
Filename F:\[MyRip]\04 - Puffnstuff.wav
Peak level 89.1 %
Track quality 100.0 %
Test CRC 18D64E52
Copy CRC 18D64E52
Copy OK
Track 5
Filename F:\[MyRip]\05 - 'Anteres' The Star.wav
Pre-gap length 0:00:02.10
Peak level 98.5 %
Track quality 100.0 %
Test CRC 560CE1E7
Copy CRC 560CE1E7
Copy OK
Track 6
Filename F:\[MyRip]\06 - Magic , Reflections In The Clouds.wav
Pre-gap length 0:00:02.38
Peak level 98.6 %
Track quality 100.0 %
Test CRC 1D553630
Copy CRC 1D553630
Copy OK
Track 7
Filename F:\[MyRip]\07 - Bolinas.wav
Pre-gap length 0:00:02.00
Peak level 97.3 %
Track quality 100.0 %
Test CRC B0346598
Copy CRC B0346598
Copy OK
Track 8
Filename F:\[MyRip]\08 - La Guernica.wav
Peak level 100.0 %
Track quality 100.0 %
Test CRC 232232EB
Copy CRC 232232EB
Copy OK
Track 9
Filename F:\[MyRip]\09 - Pocket Change.wav
Pre-gap length 0:00:01.57
Peak level 88.9 %
Track quality 100.0 %
Test CRC 7E6D0C4C
Copy CRC 7E6D0C4C
Copy OK
Track 10
Filename F:\[MyRip]\10 - Indigo.wav
Pre-gap length 0:00:02.43
Peak level 92.1 %
Track quality 100.0 %
Test CRC 394F47B7
Copy CRC 394F47B7
Copy OK
Track 11
Filename F:\[MyRip]\11 - Opelousas.wav
Pre-gap length 0:00:02.30
Peak level 97.7 %
Track quality 99.9 %
Test CRC 4AF154E6
Copy CRC 4AF154E6
Copy OK
Track 12
Filename F:\[MyRip]\12 - Early Libra.wav
Pre-gap length 0:00:02.45
Peak level 91.1 %
Track quality 100.0 %
Test CRC DC0D58BD
Copy CRC DC0D58BD
Copy OK
No errors occured
End of status report
------------------------------------------------------------
EAC extraction logfile from 11. September 2006, 15:13 for CD
Billy Cobham / Magic - Simplicity Of Expression, Depth Of Thought
Used drive : PLEXTOR DVDR PX-716A Adapter: 1 ID: 0
Read mode : Secure with NO C2, accurate stream, disable cache
Read offset correction : 30
Overread into Lead-In and Lead-Out : Yes
Used output format : C:\Programmi\Exact Audio Copy\flac-1.1.2-win\bin\flac.exe (User Defined Encoder)
32 kBit/s
Additional command line options : -8 -V %s
Other options :
Fill up missing offset samples with silence : Yes
Delete leading and trailing silent blocks : No
Installed external ASPI interface
Track 1
Filename F:\[MyRip]\01 - On A Magic Carpet Ride.wav
Pre-gap length 0:00:02.00
Peak level 99.9 %
Track quality 100.0 %
Test CRC 9C5B9B78
Copy CRC 9C5B9B78
Copy OK
Track 2
Filename F:\[MyRip]\02 - AC,DC.wav
Peak level 99.3 %
Track quality 100.0 %
Test CRC 801C42F2
Copy CRC 801C42F2
Copy OK
Track 3
Filename F:\[MyRip]\03 - Leaward Winds.wav
Peak level 87.6 %
Track quality 100.0 %
Test CRC A0C579AE
Copy CRC A0C579AE
Copy OK
Track 4
Filename F:\[MyRip]\04 - Puffnstuff.wav
Peak level 89.1 %
Track quality 100.0 %
Test CRC 18D64E52
Copy CRC 18D64E52
Copy OK
Track 5
Filename F:\[MyRip]\05 - 'Anteres' The Star.wav
Pre-gap length 0:00:02.10
Peak level 98.5 %
Track quality 100.0 %
Test CRC 560CE1E7
Copy CRC 560CE1E7
Copy OK
Track 6
Filename F:\[MyRip]\06 - Magic , Reflections In The Clouds.wav
Pre-gap length 0:00:02.38
Peak level 98.6 %
Track quality 100.0 %
Test CRC 1D553630
Copy CRC 1D553630
Copy OK
Track 7
Filename F:\[MyRip]\07 - Bolinas.wav
Pre-gap length 0:00:02.00
Peak level 97.3 %
Track quality 100.0 %
Test CRC B0346598
Copy CRC B0346598
Copy OK
Track 8
Filename F:\[MyRip]\08 - La Guernica.wav
Peak level 100.0 %
Track quality 100.0 %
Test CRC 232232EB
Copy CRC 232232EB
Copy OK
Track 9
Filename F:\[MyRip]\09 - Pocket Change.wav
Pre-gap length 0:00:01.57
Peak level 88.9 %
Track quality 100.0 %
Test CRC 7E6D0C4C
Copy CRC 7E6D0C4C
Copy OK
Track 10
Filename F:\[MyRip]\10 - Indigo.wav
Pre-gap length 0:00:02.43
Peak level 92.1 %
Track quality 100.0 %
Test CRC 394F47B7
Copy CRC 394F47B7
Copy OK
Track 11
Filename F:\[MyRip]\11 - Opelousas.wav
Pre-gap length 0:00:02.30
Peak level 97.7 %
Track quality 99.9 %
Test CRC 4AF154E6
Copy CRC 4AF154E6
Copy OK
Track 12
Filename F:\[MyRip]\12 - Early Libra.wav
Pre-gap length 0:00:02.45
Peak level 91.1 %
Track quality 100.0 %
Test CRC DC0D58BD
Copy CRC DC0D58BD
Copy OK
No errors occured
End of status report
 
auCDtect log
2763633292 54582908 01 - On A Magic Carpet Ride.wav
3166768360 57706364 02 - AC,DC.wav
3380610933 38579900 03 - Leaward Winds.wav
4127877050 68043404 04 - Puffnstuff.wav
1225033305 55307324 05 - 'Anteres' The Star.wav
1731644560 141896204 06 - Magic , Reflections In The Clouds.wav
1903662614 48098444 07 - Bolinas.wav
3313780337 86593628 08 - La Guernica.wav
4178792825 70955180 09 - Pocket Change.wav
1833880030 72893228 10 - Indigo.wav
2564169731 52190924 11 - Opelousas.wav
525683151 76529420 12 - Early Libra.wav
auCDtect: CD records authenticity detector, version 0.8.2
Copyright (c) 2004 Oleg Berngardt. All rights reserved.
Copyright (c) 2004 Alexander Djourik. All rights reserved.
------------------------------------------------------------
Processing file: [01 - On A Magic Carpet Ride.wav]
------------------------------------------------------------
This track looks like CDDA with probability 100%
------------------------------------------------------------
Processing file: [02 - AC,DC.wav]
------------------------------------------------------------
This track looks like CDDA with probability 100%
------------------------------------------------------------
Processing file: [03 - Leaward Winds.wav]
------------------------------------------------------------
This track looks like CDDA with probability 100%
------------------------------------------------------------
Processing file: [04 - Puffnstuff.wav]
------------------------------------------------------------
This track looks like CDDA with probability 100%
------------------------------------------------------------
Processing file: [05 - 'Anteres' The Star.wav]
------------------------------------------------------------
This track looks like CDDA with probability 100%
------------------------------------------------------------
Processing file: [06 - Magic , Reflections In The Clouds.wav]
------------------------------------------------------------
This track looks like CDDA with probability 100%
------------------------------------------------------------
Processing file: [07 - Bolinas.wav]
------------------------------------------------------------
This track looks like CDDA with probability 100%
------------------------------------------------------------
Processing file: [08 - La Guernica.wav]
------------------------------------------------------------
This track looks like CDDA with probability 100%
------------------------------------------------------------
Processing file: [09 - Pocket Change.wav]
------------------------------------------------------------
This track looks like CDDA with probability 100%
------------------------------------------------------------
Processing file: [10 - Indigo.wav]
------------------------------------------------------------
This track looks like CDDA with probability 99%
------------------------------------------------------------
Processing file: [11 - Opelousas.wav]
------------------------------------------------------------
This track looks like CDDA with probability 100%
------------------------------------------------------------
Processing file: [12 - Early Libra.wav]
------------------------------------------------------------
This track looks like CDDA with probability 100%
------------------------------------------------------------
Final Conclusion:
------------------------------------------------------------
These tracks looks like CDDA with probability 100%
Я не сидирую все свои раздачи подолгу, только новые (до 3х первых сидов)
Предлагаю скачавшим максимально долго оставаться на раздаче - весь рейтинг будет ваш
Если нет сидов или раздача находится в архиве, пришлите письмо, и я вернусь
Заботьтесь о своем рейтинге - приветствуется конвертация моих раздач в мп3 и выкладывание в соотвтствующем разделе
Any questions - support@pro-jazz.com
To become a power user - read FAQ.
02:22
467
Нет комментариев. Ваш будет первым!