Поиск

(Fusion, Post-Bop, Contemporary Jazz) Andy LaVerne with John Abercrombie - Natural Living {1989} - 2005, FLAC (tracks+.cue), lossless

•Andy LaVerne with John Abercrombie - Natural Living {1989}•
Жанр: Fusion, Post-Bop, Contemporary Jazz
Страна-производитель диска: EU
Год издания: 2005
Издатель (лейбл): Emarcy
Аудиокодек: FLAC (*.flac)
Тип рипа: tracks+.cue
Битрейт аудио: lossless
Продолжительность: 01:10:57
Источник (релизер): mishka1981
Наличие сканов в содержимом раздачи: да
Треклист:
01. Sweet and Lovely [05:01]
02. Actual Sighs [06:03]
03. John's Waltz [04:49]
04. All the Things You Are [05:19]
05. Among Tall Trees [05:25]
06. Natural Living [08:21]
07. Archetypal Schemata [04:14]
08. Magnetic Flux [04:04]
09. Labour Day [05:20]
10. When you wish upon a star [07:33]
11. Stella by Starlight [07:13]
12. Suzy's World [07:31]
Personnel:
Andy LaVerne (p)
John Abercrombie (g)
 
Лог создания рипа
Exact Audio Copy V1.0 beta 1 from 15. November 2010
EAC extraction logfile from 26. May 2012, 15:07
Andy LaVerne with John Abercrombie / Natural Living
Used drive : TSSTcorpCDDVDW TS-L633A Adapter: 3 ID: 0
Read mode : Secure
Utilize accurate stream : Yes
Defeat audio cache : Yes
Make use of C2 pointers : No
Read offset correction : 6
Overread into Lead-In and Lead-Out : No
Fill up missing offset samples with silence : Yes
Delete leading and trailing silent blocks : No
Null samples used in CRC calculations : Yes
Used interface : Installed external ASPI interface
Gap handling : Appended to previous track
Used output format : User Defined Encoder
Selected bitrate : 896 kBit/s
Quality : High
Add ID3 tag : No
Command line compressor : C:\Program Files\Exact Audio Copy\FLAC\FLAC.EXE
Additional command line options : -8 -V -T "ARTIST=%a" -T "TITLE=%t" -T "ALBUM=%g" -T "DATE=%y" -T "TRACKNUMBER=%n" -T "TOTALTRACKS=%x" -T "GENRE=%m" -T "ALBUMARTIST=%v" -T "ALBUM ARTIST=%v" -T "COMMENT=EAC Secure Mode, Test & Copy, AccurateRip, FLAC -8" %s
TOC of the extracted CD
Track | Start | Length | Start sector | End sector
---------------------------------------------------------
1 | 0:00.00 | 5:01.40 | 0 | 22614
2 | 5:01.40 | 6:03.25 | 22615 | 49864
3 | 11:04.65 | 4:49.35 | 49865 | 71574
4 | 15:54.25 | 5:19.45 | 71575 | 95544
5 | 21:13.70 | 5:25.05 | 95545 | 119924
6 | 26:39.00 | 8:21.20 | 119925 | 157519
7 | 35:00.20 | 4:14.33 | 157520 | 176602
8 | 39:14.53 | 4:04.60 | 176603 | 194962
9 | 43:19.38 | 5:20.35 | 194963 | 218997
10 | 48:39.73 | 7:33.22 | 218998 | 252994
11 | 56:13.20 | 7:13.00 | 252995 | 285469
12 | 63:26.20 | 7:31.14 | 285470 | 319308
Track 1
Filename C:\MY RIPS\01 - Sweet and Lovely.wav
Pre-gap length 0:00:02.00
Peak level 75.4 %
Extraction speed 1.2 X
Track quality 100.0 %
Test CRC 85C668C4
Copy CRC 85C668C4
Track not present in AccurateRip database
Copy OK
Track 2
Filename C:\MY RIPS\02 - Actual Sighs.wav
Peak level 76.8 %
Extraction speed 1.4 X
Track quality 100.0 %
Test CRC 26816505
Copy CRC 26816505
Track not present in AccurateRip database
Copy OK
Track 3
Filename C:\MY RIPS\03 - John's Waltz.wav
Peak level 76.8 %
Extraction speed 1.5 X
Track quality 100.0 %
Test CRC CE594E57
Copy CRC CE594E57
Track not present in AccurateRip database
Copy OK
Track 4
Filename C:\MY RIPS\04 - All the Things You Are.wav
Pre-gap length 0:00:01.50
Peak level 74.3 %
Extraction speed 1.7 X
Track quality 100.0 %
Test CRC 7F654B5E
Copy CRC 7F654B5E
Track not present in AccurateRip database
Copy OK
Track 5
Filename C:\MY RIPS\05 - Among Tall Trees.wav
Pre-gap length 0:00:00.68
Peak level 68.4 %
Extraction speed 1.4 X
Track quality 99.9 %
Test CRC 9937C2E8
Copy CRC 9937C2E8
Track not present in AccurateRip database
Copy OK
Track 6
Filename C:\MY RIPS\06 - Natural Living.wav
Pre-gap length 0:00:01.30
Peak level 81.9 %
Extraction speed 2.0 X
Track quality 100.0 %
Test CRC D5BF11C2
Copy CRC D5BF11C2
Track not present in AccurateRip database
Copy OK
Track 7
Filename C:\MY RIPS\07 - Archetypal Schemata.wav
Pre-gap length 0:00:01.47
Peak level 77.5 %
Extraction speed 1.9 X
Track quality 100.0 %
Test CRC 981C2C75
Copy CRC 981C2C75
Track not present in AccurateRip database
Copy OK
Track 8
Filename C:\MY RIPS\08 - Magnetic Flux.wav
Pre-gap length 0:00:01.43
Peak level 55.2 %
Extraction speed 2.0 X
Track quality 100.0 %
Test CRC A680F42A
Copy CRC A680F42A
Track not present in AccurateRip database
Copy OK
Track 9
Filename C:\MY RIPS\09 - Labour Day.wav
Pre-gap length 0:00:01.45
Peak level 86.7 %
Extraction speed 1.6 X
Track quality 99.9 %
Test CRC 14BDC1D4
Copy CRC 14BDC1D4
Track not present in AccurateRip database
Copy OK
Track 10
Filename C:\MY RIPS\10 - When you wish upon a star.wav
Pre-gap length 0:00:01.08
Peak level 81.5 %
Extraction speed 2.4 X
Track quality 100.0 %
Test CRC FD5755CF
Copy CRC FD5755CF
Track not present in AccurateRip database
Copy OK
Track 11
Filename C:\MY RIPS\11 - Stella by Starlight.wav
Pre-gap length 0:00:01.00
Peak level 84.7 %
Extraction speed 1.9 X
Track quality 99.9 %
Test CRC AD843863
Copy CRC AD843863
Track not present in AccurateRip database
Copy OK
Track 12
Filename C:\MY RIPS\12 - Suzy's World.wav
Pre-gap length 0:00:01.52
Peak level 83.6 %
Extraction speed 2.5 X
Track quality 100.0 %
Test CRC AEC8BD42
Copy CRC AEC8BD42
Track not present in AccurateRip database
Copy OK
None of the tracks are present in the AccurateRip database
No errors occurred
End of status report
==== Log checksum FB092BCE9546593E5ED08838D8FB0B0B1532E3663F64FA8EDBB99DF29A6F3D5F ====
 
Содержание индексной карты (.CUE)
REM GENRE "Contemporary Jazz"
REM DATE 1989
REM DISCID 9610A10C
REM COMMENT "ExactAudioCopy v1.0b1"
PERFORMER "Andy LaVerne with John Abercrombie"
TITLE "Natural Living"
FILE "01 - Sweet and Lovely.wav" WAVE
TRACK 01 AUDIO
TITLE "Sweet and Lovely"
PERFORMER "Andy LaVerne with John Abercrombie"
INDEX 01 00:00:00
FILE "02 - Actual Sighs.wav" WAVE
TRACK 02 AUDIO
TITLE "Actual Sighs"
PERFORMER "Andy LaVerne with John Abercrombie"
INDEX 01 00:00:00
FILE "03 - John's Waltz.wav" WAVE
TRACK 03 AUDIO
TITLE "John's Waltz"
PERFORMER "Andy LaVerne with John Abercrombie"
INDEX 01 00:00:00
TRACK 04 AUDIO
TITLE "All the Things You Are"
PERFORMER "Andy LaVerne with John Abercrombie"
INDEX 00 04:47:60
FILE "04 - All the Things You Are.wav" WAVE
INDEX 01 00:00:00
TRACK 05 AUDIO
TITLE "Among Tall Trees"
PERFORMER "Andy LaVerne with John Abercrombie"
INDEX 00 05:18:52
FILE "05 - Among Tall Trees.wav" WAVE
INDEX 01 00:00:00
TRACK 06 AUDIO
TITLE "Natural Living"
PERFORMER "Andy LaVerne with John Abercrombie"
INDEX 00 05:23:50
FILE "06 - Natural Living.wav" WAVE
INDEX 01 00:00:00
TRACK 07 AUDIO
TITLE "Archetypal Schemata"
PERFORMER "Andy LaVerne with John Abercrombie"
INDEX 00 08:19:48
FILE "07 - Archetypal Schemata.wav" WAVE
INDEX 01 00:00:00
TRACK 08 AUDIO
TITLE "Magnetic Flux"
PERFORMER "Andy LaVerne with John Abercrombie"
INDEX 00 04:12:65
FILE "08 - Magnetic Flux.wav" WAVE
INDEX 01 00:00:00
TRACK 09 AUDIO
TITLE "Labour Day"
PERFORMER "Andy LaVerne with John Abercrombie"
INDEX 00 04:03:15
FILE "09 - Labour Day.wav" WAVE
INDEX 01 00:00:00
TRACK 10 AUDIO
TITLE "When you wish upon a star"
PERFORMER "Andy LaVerne with John Abercrombie"
INDEX 00 05:19:27
FILE "10 - When you wish upon a star.wav" WAVE
INDEX 01 00:00:00
TRACK 11 AUDIO
TITLE "Stella by Starlight"
PERFORMER "Andy LaVerne with John Abercrombie"
INDEX 00 07:32:22
FILE "11 - Stella by Starlight.wav" WAVE
INDEX 01 00:00:00
TRACK 12 AUDIO
TITLE "Suzy's World"
PERFORMER "Andy LaVerne with John Abercrombie"
INDEX 00 07:11:23
FILE "12 - Suzy's World.wav" WAVE
INDEX 01 00:00:00
14:55
611
Нет комментариев. Ваш будет первым!