Поиск

(Hard Bop / Blues) Mose Allison - The Way of the World - 2010, FLAC (tracks+.cue), lossless

Треклист:
Mose Allison - The Way of the World
Жанр: Hard Bop / Blues
Год выпуска : 2010
Лейбл: Anti
Аудио кодек: FLAC
Тип рипа: tracks+.cue
Битрейт аудио: lossless
Продолжительность: 00:35:12
Рип: gravy63 - What CD


01. My Brain (2:59)
02. I Know You Didn't Mean It (3:29)
03. Everybody Thinks You're an Angel (2:58)
04. Let It Come Down (2:31)
05. Modest Proposal (2:29)
06. Crush (2:55)
07. Some Right, Some Wrong (2:49)
08. The Way of the World (2:50)
09. Ask Me Nice (3:20)
10. Once in a While (3:32)
11. I'm Alright (3:12)
12. This New Situation (2:08)
 
 
EAC
Exact Audio Copy V0.99 prebeta 5 from 4. May 2009
EAC extraction logfile from 5. May 2010, 21:40
Mose Allison / The Way of the World
Used drive  : TSSTcorpCDDVDW SH-S203B   Adapter: 4  ID: 0
Read mode               : Secure
Utilize accurate stream : Yes
Defeat audio cache      : Yes
Make use of C2 pointers : No
Read offset correction                      : 6
Overread into Lead-In and Lead-Out          : No
Fill up missing offset samples with silence : Yes
Delete leading and trailing silent blocks   : No
Null samples used in CRC calculations       : Yes
Used interface                              : Native Win32 interface for Win NT & 2000
Gap handling                                : Appended to previous track
Used output format              : User Defined Encoder
Selected bitrate                : 768 kBit/s
Quality                         : High
Add ID3 tag                     : No
Command line compressor         : C:\Program Files\Exact Audio Copy\FLAC\FLAC.EXE
Additional command line options : -8 -V -T "ARTIST=%a" -T "TITLE=%t" -T "ALBUM=%g" -T "DATE=%y" -T "TRACKNUMBER=%n" -T "GENRE=%m" %s
TOC of the extracted CD
     Track |   Start  |  Length  | Start sector | End sector
    ---------------------------------------------------------
        1  |  0:00.00 |  2:59.10 |         0    |    13434
        2  |  2:59.10 |  3:28.65 |     13435    |    29099
        3  |  6:28.00 |  2:58.05 |     29100    |    42454
        4  |  9:26.05 |  2:31.12 |     42455    |    53791
        5  | 11:57.17 |  2:29.30 |     53792    |    64996
        6  | 14:26.47 |  2:55.17 |     64997    |    78138
        7  | 17:21.64 |  2:48.51 |     78139    |    90789
        8  | 20:10.40 |  2:50.19 |     90790    |   103558
        9  | 23:00.59 |  3:20.00 |    103559    |   118558
       10  | 26:20.59 |  3:32.08 |    118559    |   134466
       11  | 29:52.67 |  3:11.51 |    134467    |   148842
       12  | 33:04.43 |  2:08.18 |    148843    |   158460
Track  1
     Filename C:\EAC\Mose Allison - 2010 - The Way of the World [FLAC]\01 - My Brain.wav
     Pre-gap length  0:00:02.00
     Peak level 97.7 %
     Track quality 100.0 %
     Test CRC C39C0917
     Copy CRC C39C0917
     Track not present in AccurateRip database
     Copy OK
Track  2
     Filename C:\EAC\Mose Allison - 2010 - The Way of the World [FLAC]\02 - I Know You Didn't Mean It.wav
     Pre-gap length  0:00:01.18
     Peak level 97.7 %
     Track quality 99.9 %
     Test CRC 25F3FC13
     Copy CRC 25F3FC13
     Track not present in AccurateRip database
     Copy OK
Track  3
     Filename C:\EAC\Mose Allison - 2010 - The Way of the World [FLAC]\03 - Everybody Thinks You're an Angel.wav
     Peak level 97.7 %
     Track quality 100.0 %
     Test CRC 4E393D16
     Copy CRC 4E393D16
     Track not present in AccurateRip database
     Copy OK
Track  4
     Filename C:\EAC\Mose Allison - 2010 - The Way of the World [FLAC]\04 - Let It Come Down.wav
     Pre-gap length  0:00:01.22
     Peak level 97.7 %
     Track quality 100.0 %
     Test CRC 41F80898
     Copy CRC 41F80898
     Track not present in AccurateRip database
     Copy OK
Track  5
     Filename C:\EAC\Mose Allison - 2010 - The Way of the World [FLAC]\05 - Modest Proposal.wav
     Pre-gap length  0:00:02.14
     Peak level 97.7 %
     Track quality 99.9 %
     Test CRC B9A144A2
     Copy CRC B9A144A2
     Track not present in AccurateRip database
     Copy OK
Track  6
     Filename C:\EAC\Mose Allison - 2010 - The Way of the World [FLAC]\06 - Crush.wav
     Pre-gap length  0:00:01.73
     Peak level 97.7 %
     Track quality 100.0 %
     Test CRC 0D827B33
     Copy CRC 0D827B33
     Track not present in AccurateRip database
     Copy OK
Track  7
     Filename C:\EAC\Mose Allison - 2010 - The Way of the World [FLAC]\07 - Some Right, Some Wrong.wav
     Pre-gap length  0:00:01.12
     Peak level 97.7 %
     Track quality 99.9 %
     Test CRC 0C6F5588
     Copy CRC 0C6F5588
     Track not present in AccurateRip database
     Copy OK
Track  8
     Filename C:\EAC\Mose Allison - 2010 - The Way of the World [FLAC]\08 - The Way of the World.wav
     Pre-gap length  0:00:01.69
     Peak level 97.7 %
     Track quality 100.0 %
     Test CRC 01D638AD
     Copy CRC 01D638AD
     Track not present in AccurateRip database
     Copy OK
Track  9
     Filename C:\EAC\Mose Allison - 2010 - The Way of the World [FLAC]\09 - Ask Me Nice.wav
     Peak level 97.7 %
     Track quality 100.0 %
     Test CRC 4274418F
     Copy CRC 4274418F
     Track not present in AccurateRip database
     Copy OK
Track 10
     Filename C:\EAC\Mose Allison - 2010 - The Way of the World [FLAC]\10 - Once in a While.wav
     Peak level 97.7 %
     Track quality 100.0 %
     Test CRC EBCC0A4C
     Copy CRC EBCC0A4C
     Track not present in AccurateRip database
     Copy OK
Track 11
     Filename C:\EAC\Mose Allison - 2010 - The Way of the World [FLAC]\11 - I'm Alright.wav
     Pre-gap length  0:00:01.43
     Peak level 97.7 %
     Track quality 100.0 %
     Test CRC BB2E367A
     Copy CRC BB2E367A
     Track not present in AccurateRip database
     Copy OK
Track 12
     Filename C:\EAC\Mose Allison - 2010 - The Way of the World [FLAC]\12 - This New Situation.wav
     Peak level 97.7 %
     Track quality 100.0 %
     Test CRC E35FC36F
     Copy CRC E35FC36F
     Track not present in AccurateRip database
     Copy OK
None of the tracks are present in the AccurateRip database
No errors occurred
End of status report
 
 
CUE
REM GENRE Blues
REM DATE 2010
REM DISCID AB08400C
REM COMMENT "ExactAudioCopy v0.99pb5"
PERFORMER "Mose Allison"
TITLE "The Way of the World"
FILE "01 - My Brain.wav" WAVE
  TRACK 01 AUDIO
    TITLE "My Brain"
    PERFORMER "Mose Allison"
    INDEX 01 00:00:00
  TRACK 02 AUDIO
    TITLE "I Know You Didn't Mean It"
    PERFORMER "Mose Allison"
    INDEX 00 02:57:67
FILE "02 - I Know You Didn't Mean It.wav" WAVE
    INDEX 01 00:00:00
FILE "03 - Everybody Thinks You're an Angel.wav" WAVE
  TRACK 03 AUDIO
    TITLE "Everybody Thinks You're an Angel"
    PERFORMER "Mose Allison"
    INDEX 01 00:00:00
  TRACK 04 AUDIO
    TITLE "Let It Come Down"
    PERFORMER "Mose Allison"
    INDEX 00 02:56:58
FILE "04 - Let It Come Down.wav" WAVE
    INDEX 01 00:00:00
  TRACK 05 AUDIO
    TITLE "Modest Proposal"
    PERFORMER "Mose Allison"
    INDEX 00 02:28:73
FILE "05 - Modest Proposal.wav" WAVE
    INDEX 01 00:00:00
  TRACK 06 AUDIO
    TITLE "Crush"
    PERFORMER "Mose Allison"
    INDEX 00 02:27:32
FILE "06 - Crush.wav" WAVE
    INDEX 01 00:00:00
  TRACK 07 AUDIO
    TITLE "Some Right, Some Wrong"
    PERFORMER "Mose Allison"
    INDEX 00 02:54:05
FILE "07 - Some Right, Some Wrong.wav" WAVE
    INDEX 01 00:00:00
  TRACK 08 AUDIO
    TITLE "The Way of the World"
    PERFORMER "Mose Allison"
    INDEX 00 02:46:57
FILE "08 - The Way of the World.wav" WAVE
    INDEX 01 00:00:00
FILE "09 - Ask Me Nice.wav" WAVE
  TRACK 09 AUDIO
    TITLE "Ask Me Nice"
    PERFORMER "Mose Allison"
    INDEX 01 00:00:00
FILE "10 - Once in a While.wav" WAVE
  TRACK 10 AUDIO
    TITLE "Once in a While"
    PERFORMER "Mose Allison"
    INDEX 01 00:00:00
  TRACK 11 AUDIO
    TITLE "I'm Alright"
    PERFORMER "Mose Allison"
    INDEX 00 03:30:40
FILE "11 - I'm Alright.wav" WAVE
    INDEX 01 00:00:00
FILE "12 - This New Situation.wav" WAVE
  TRACK 12 AUDIO
    TITLE "This New Situation"
    PERFORMER "Mose Allison"
    INDEX 01 00:00:00
 
 
Audiochecker
Started at: четверг, 06. 05. 2010. - 19:12.15
12 files found
01 -===- C:\Downloads\Music\Джаз\Mose Allison - The Way of the World - 2010\01 - My Brain.flac
  Extracted successfully
  Conclusion: This track looks like CDDA with probability 100%
  Tempfile successfully deleted.
02 -===- C:\Downloads\Music\Джаз\Mose Allison - The Way of the World - 2010\02 - I Know You Didn't Mean It.flac
  Extracted successfully
  Conclusion: This track looks like CDDA with probability 100%
  Tempfile successfully deleted.
03 -===- C:\Downloads\Music\Джаз\Mose Allison - The Way of the World - 2010\03 - Everybody Thinks You're an Angel.flac
  Extracted successfully
  Conclusion: This track looks like CDDA with probability 100%
  Tempfile successfully deleted.
04 -===- C:\Downloads\Music\Джаз\Mose Allison - The Way of the World - 2010\04 - Let It Come Down.flac
  Extracted successfully
  Conclusion: This track looks like CDDA with probability 100%
  Tempfile successfully deleted.
05 -===- C:\Downloads\Music\Джаз\Mose Allison - The Way of the World - 2010\05 - Modest Proposal.flac
  Extracted successfully
  Conclusion: This track looks like CDDA with probability 100%
  Tempfile successfully deleted.
06 -===- C:\Downloads\Music\Джаз\Mose Allison - The Way of the World - 2010\06 - Crush.flac
  Extracted successfully
  Conclusion: This track looks like CDDA with probability 100%
  Tempfile successfully deleted.
07 -===- C:\Downloads\Music\Джаз\Mose Allison - The Way of the World - 2010\07 - Some Right, Some Wrong.flac
  Extracted successfully
  Conclusion: This track looks like CDDA with probability 100%
  Tempfile successfully deleted.
08 -===- C:\Downloads\Music\Джаз\Mose Allison - The Way of the World - 2010\08 - The Way of the World.flac
  Extracted successfully
  Conclusion: This track looks like CDDA with probability 100%
  Tempfile successfully deleted.
09 -===- C:\Downloads\Music\Джаз\Mose Allison - The Way of the World - 2010\09 - Ask Me Nice.flac
  Extracted successfully
  Conclusion: This track looks like CDDA with probability 100%
  Tempfile successfully deleted.
10 -===- C:\Downloads\Music\Джаз\Mose Allison - The Way of the World - 2010\10 - Once in a While.flac
  Extracted successfully
  Conclusion: This track looks like CDDA with probability 100%
  Tempfile successfully deleted.
11 -===- C:\Downloads\Music\Джаз\Mose Allison - The Way of the World - 2010\11 - I'm Alright.flac
  Extracted successfully
  Conclusion: This track looks like CDDA with probability 100%
  Tempfile successfully deleted.
12 -===- C:\Downloads\Music\Джаз\Mose Allison - The Way of the World - 2010\12 - This New Situation.flac
  Extracted successfully
  Conclusion: This track looks like CDDA with probability 100%
  Tempfile successfully deleted.
Finished at: четверг, 06. 05. 2010. - 19:18.54 (operation time: 0:06.39)
10:33
458
Нет комментариев. Ваш будет первым!