Поиск

(Hard Bop, Jazz Blues, Vocal Jazz) Mose Allison - The Best of Mose Allison - 1988, WavPack (image+.cue), lossless

Треклист:
Mose Allison - The Best of Mose Allison
Жанр: Hard Bop, Jazz Blues, Vocal Jazz
Страна-производитель диска: США
Год издания диска: 1988
Издатель (лейбл): Atlantic Jazz
Номер по каталогу: 1542-2
Аудиокодек: WavPack (*.wv)
Тип рипа: image+.cue
Битрейт аудио: lossless
Продолжительность: 56:23
Источник (релизер): bINkI (hqshare)
Наличие сканов в содержимом раздачи: да
Треклист:
01. I Don't Worry About a Thing (Allison) - 2:41
02. Your Mind Is on Vacation (Allison) - 2:35
03. It Didn't Turn Out That Way (Allison) - 2:41
04. If You're Goin' to the City (Allison) - 3:49
05. Swingin' Machine (Allison) - 2:31
06. I Ain't Got Nothin' But the Blues (Ellington-George) - 3:56
07. Stop This World (Allison) - 3:24
08. I'm the Wild Man (Willis-Barksdale) - 1:58
09. New Parchman (Allison) - 3:04
10. Rollin' Stone (Waters) - 2:58
11. Don't Forget to Smile (Allison) - 2:48
12. Seventh Son (Dixon) - 2:30
13. I Love the Life I Live (Dixon) - 2:26
14. What's With You (Allison) - 2:55
15. That's the Stuff You Gotta Watch (Johnson) - 2:10
16. Your Molecular Structure (Allison) - 2:05
17. Just Like Livin' (Allison) - 1:44
18. Everybody's Cryin' Mercy (Allison) - 2:39
19. Night Club (Allison) - 2:36
20. One of These Days (Allison) - 4:29
Записи 1962-1970 гг.
 
Лог создания рипа
Exact Audio Copy V0.99 prebeta 5 from 4. May 2009
EAC extraction logfile from 14. January 2011, 19:29
Mose Allison / Best Of Mose Allison
Used drive  : HL-DT-STDVD-RAM GH22NP20   Adapter: 1  ID: 1
Read mode               : Secure
Utilize accurate stream : Yes
Defeat audio cache      : Yes
Make use of C2 pointers : No
Read offset correction                      : 102
Overread into Lead-In and Lead-Out          : No
Fill up missing offset samples with silence : Yes
Delete leading and trailing silent blocks   : No
Null samples used in CRC calculations       : Yes
Used interface                              : Native Win32 interface for Win NT & 2000
Used output format : Internal WAV Routines
Sample format      : 44.100 Hz; 16 Bit; Stereo
TOC of the extracted CD
     Track |   Start  |  Length  | Start sector | End sector
    ---------------------------------------------------------
        1  |  0:00.32 |  2:18.73 |        32    |    10454
        2  |  2:19.30 |  2:37.10 |     10455    |    22239
        3  |  4:56.40 |  2:43.67 |     22240    |    34531
        4  |  7:40.32 |  3:49.63 |     34532    |    51769
        5  | 11:30.20 |  2:29.47 |     51770    |    62991
        6  | 13:59.67 |  3:57.45 |     62992    |    80811
        7  | 17:57.37 |  3:25.58 |     80812    |    96244
        8  | 21:23.20 |  1:56.50 |     96245    |   104994
        9  | 23:19.70 |  3:04.22 |    104995    |   118816
       10  | 26:24.17 |  3:01.23 |    118817    |   132414
       11  | 29:25.40 |  2:47.72 |    132415    |   145011
       12  | 32:13.37 |  2:35.60 |    145012    |   156696
       13  | 34:49.22 |  2:33.10 |    156697    |   168181
       14  | 37:22.32 |  2:55.60 |    168182    |   181366
       15  | 40:18.17 |  2:12.73 |    181367    |   191339
       16  | 42:31.15 |  2:10.65 |    191340    |   201154
       17  | 44:42.05 |  1:48.35 |    201155    |   209289
       18  | 46:30.40 |  2:43.50 |    209290    |   221564
       19  | 49:14.15 |  2:37.22 |    221565    |   233361
       20  | 51:51.37 |  4:31.55 |    233362    |   253741
Range status and errors
Selected range
     Filename D:\new\Mose Allison - Best Of Mose Allison.wav
     Peak level 100.0 %
     Range quality 100.0 %
     Test CRC C7771B67
     Copy CRC C7771B67
     Copy OK
No errors occurred
AccurateRip summary
Track  1  cannot be verified as accurate (confidence 10)  [11E4312C], AccurateRip returned [A6A7E872]
Track  2  cannot be verified as accurate (confidence 10)  [ADF046D5], AccurateRip returned [35DC35F0]
Track  3  cannot be verified as accurate (confidence 10)  [0F9F67B5], AccurateRip returned [91638FA0]
Track  4  cannot be verified as accurate (confidence 10)  [14F302BC], AccurateRip returned [7FCC0D94]
Track  5  cannot be verified as accurate (confidence 10)  [E21BF27F], AccurateRip returned [B610BBC8]
Track  6  cannot be verified as accurate (confidence 10)  [6B76A9ED], AccurateRip returned [FCF60F14]
Track  7  cannot be verified as accurate (confidence 10)  [8E72921F], AccurateRip returned [DECBEA57]
Track  8  cannot be verified as accurate (confidence 10)  [2DE2C01C], AccurateRip returned [A98AF6A8]
Track  9  cannot be verified as accurate (confidence 10)  [116A900C], AccurateRip returned [FE39D73D]
Track 10  cannot be verified as accurate (confidence 9)  [274FB6D5], AccurateRip returned [F436AF93]
Track 11  cannot be verified as accurate (confidence 10)  [793C3C57], AccurateRip returned [7A497236]
Track 12  cannot be verified as accurate (confidence 10)  [F089A136], AccurateRip returned [E9109430]
Track 13  cannot be verified as accurate (confidence 10)  [6C8234B9], AccurateRip returned [E8CC9121]
Track 14  cannot be verified as accurate (confidence 9)  [3C016078], AccurateRip returned [B8A1A31D]
Track 15  cannot be verified as accurate (confidence 9)  [49329CE4], AccurateRip returned [B1B421CE]
Track 16  cannot be verified as accurate (confidence 10)  [69731F1C], AccurateRip returned [BFDAB6A9]
Track 17  cannot be verified as accurate (confidence 9)  [FDCF2648], AccurateRip returned [15764B7F]
Track 18  cannot be verified as accurate (confidence 10)  [44FAEB68], AccurateRip returned [97CD6CEC]
Track 19  cannot be verified as accurate (confidence 9)  [BF9A8BE6], AccurateRip returned [F45A0B68]
Track 20  cannot be verified as accurate (confidence 8)  [A1F83C72], AccurateRip returned [C35CA86A]
No tracks could be verified as accurate
You may have a different pressing from the one(s) in the database
End of status report
 
 
Содержание индексной карты (.CUE)
REM GENRE Jazz
REM DATE 1988
REM DISCID 1D0D3714
REM COMMENT "ExactAudioCopy v0.99pb5"
CATALOG 0075670154223
PERFORMER "Mose Allison"
TITLE "Best of Mose Allison"
FILE "Mose Allison - Best of Mose Allison.wav" WAVE
  TRACK 01 AUDIO
    TITLE "I Don't Worry About a Thing"
    PERFORMER "Mose Allison"
    ISRC USAT20105033
    INDEX 00 00:00:00
    INDEX 01 00:00:32
  TRACK 02 AUDIO
    TITLE "Your Mind Is on Vacation"
    PERFORMER "Mose Allison"
    ISRC USAT20105035
    INDEX 00 02:17:15
    INDEX 01 02:19:30
  TRACK 03 AUDIO
    TITLE "It Didn't Turn Out That Way"
    PERFORMER "Mose Allison"
    ISRC USAT20105034
    INDEX 00 04:54:10
    INDEX 01 04:56:40
  TRACK 04 AUDIO
    TITLE "If You're Goin' to the City"
    PERFORMER "Mose Allison"
    ISRC USAT20106076
    INDEX 00 07:38:22
    INDEX 01 07:40:32
  TRACK 05 AUDIO
    TITLE "Swingin' Machine"
    PERFORMER "Mose Allison"
    ISRC USAT20106077
    INDEX 00 11:27:52
    INDEX 01 11:30:20
  TRACK 06 AUDIO
    TITLE "I Ain't Got Nothing But the Blues"
    PERFORMER "Mose Allison"
    ISRC USAT20106078
    INDEX 00 13:57:62
    INDEX 01 13:59:67
  TRACK 07 AUDIO
    TITLE "Stop This World"
    PERFORMER "Mose Allison"
    ISRC USAT20106079
    INDEX 00 17:55:00
    INDEX 01 17:57:37
  TRACK 08 AUDIO
    TITLE "I'm the Wild Man"
    PERFORMER "Mose Allison"
    ISRC USAT20106080
    INDEX 00 21:20:50
    INDEX 01 21:23:20
  TRACK 09 AUDIO
    TITLE "New Parchman"
    PERFORMER "Mose Allison"
    ISRC USAT20104787
    INDEX 00 23:17:32
    INDEX 01 23:19:70
  TRACK 10 AUDIO
    TITLE "Rollin' Stone"
    PERFORMER "Mose Allison"
    ISRC USAT20104786
    INDEX 00 26:22:72
    INDEX 01 26:24:17
  TRACK 11 AUDIO
    TITLE "Don't Forget to Smile"
    PERFORMER "Mose Allison"
    ISRC USAT20104789
    INDEX 00 29:22:70
    INDEX 01 29:25:40
  TRACK 12 AUDIO
    TITLE "Seventh Son"
    PERFORMER "Mose Allison"
    ISRC USAT20106081
    INDEX 00 32:10:67
    INDEX 01 32:13:37
  TRACK 13 AUDIO
    TITLE "I Love the Life I Live"
    PERFORMER "Mose Allison"
    ISRC USAT20106082
    INDEX 00 34:48:17
    INDEX 01 34:49:22
  TRACK 14 AUDIO
    TITLE "What's with You"
    PERFORMER "Mose Allison"
    ISRC USAT20106083
    INDEX 00 37:21:12
    INDEX 01 37:22:32
  TRACK 15 AUDIO
    TITLE "That's the Stuff You Gotta Watch"
    PERFORMER "Mose Allison"
    ISRC USAT20106084
    INDEX 00 40:15:45
    INDEX 01 40:18:17
  TRACK 16 AUDIO
    TITLE "Your Molecular Structure"
    PERFORMER "Mose Allison"
    ISRC USAT20106085
    INDEX 00 42:28:25
    INDEX 01 42:31:15
  TRACK 17 AUDIO
    TITLE "Just Like Livin'"
    PERFORMER "Mose Allison"
    ISRC USAT20106086
    INDEX 00 44:39:67
    INDEX 01 44:42:05
  TRACK 18 AUDIO
    TITLE "Everybody Cryin' Mercy"
    PERFORMER "Mose Allison"
    ISRC USAT20106087
    INDEX 00 46:28:10
    INDEX 01 46:30:40
  TRACK 19 AUDIO
    TITLE "Night Club"
    PERFORMER "Mose Allison"
    ISRC USAT20106088
    INDEX 00 49:11:35
    INDEX 01 49:14:15
  TRACK 20 AUDIO
    TITLE "One of These Days"
    PERFORMER "Mose Allison"
    ISRC USAT20104779
    INDEX 00 51:48:70
    INDEX 01 51:51:37
 
 
Review by Richard S. Ginell
The Mose Allison installment in Atlantic's Jazz Anthology series of 1970 is superior to most in that line simply on the grounds of time. Since Allison's songs were usually brief, Atlantic was able to fit 12 of them onto a single LP and thus provide a wider selection of his output, unlike others in that series that included only five or six tracks, making it serve as a pretty good capsule introduction to one of American music's most idiosyncratic individualists. Many of his most famous songs are here -- "Your Mind Is on Vacation," "New Parchman," "I'm the Wild Man," "I Don't Worry About a Thing," and "Your Molecular Structure," along with covers like "Rollin' Stone" and a rushed live remake of his biggest "hit," Willie Dixon's "Seventh Son." For a more comprehensive -- and well-packaged -- overview of most of his career, turn to the double-CD box Allison Wonderland on Rhino/Atlantic.
07:31
544
Нет комментариев. Ваш будет первым!