Поиск

(Hard-Bop) Mose Allison - Autumn Song (1959) - 1996, FLAC (image+.cue), lossless

(Hard-Bop) Mose Allison - Autumn Song (1959) - 1996, FLAC (image+.cue), lossless
Треклист:
Mose Allison - Autumn Song (1959)
Жанр: Hard-Bop
Страна-производитель диска: Germany
Год издания диска: 1996
Издатель (лейбл): Prestige / OJC
Номер по каталогу: P-7189 / OJCCD 894-2
Аудио кодек: FLAC (*.flac)
Тип рипа: image+.cue
Битрейт аудио: lossless
Продолжительность: 35:00
Наличие сканов в содержимом раздачи: yes
Источник (релизер): jbc (thanks hungaropitecus)

Треклист:
1. Promenade (Mose Allison)
2. Eyesight To The Blind (Sonny Boy Williamson)
3. It's Crazy (Dorothy Fields / Richard Rodgers)
4. That's All Right (Jimmy Rogers)
5. Devil In The Cane Field (Mose Allison)
6. Strange (Matthew Fisher / John Latouche)
7. Autumn Song (Mose Allison)
8. Do Nothin' Till You Hear From Me (Duke Ellington / Bob Russell)
9. Spires (Mose Allison)
10. Groovin' High (Dizzy Gillespie)
Исполнители:
Mose Allison - Piano and Vocal
Addison Farmer - Double Bass
Ronnie Free - Drums

Recorded at Rudy Van Gelder Studio, Hackensack, New Jersey on February 13, 1959.
 
Лог EAc
Exact Audio Copy V0.99 prebeta 4 from 23. January 2008
EAC extraction logfile from 12. November 2009, 12:44
Mose Allison / Autumn Song
Used drive  : _NEC    DVD_RW ND-3500AG   Adapter: 0  ID: 0
Read mode               : Secure
Utilize accurate stream : Yes
Defeat audio cache      : Yes
Make use of C2 pointers : No
Read offset correction                      : 48
Overread into Lead-In and Lead-Out          : No
Fill up missing offset samples with silence : Yes
Delete leading and trailing silent blocks   : No
Null samples used in CRC calculations       : Yes
Used interface                              : Native Win32 interface for Win NT & 2000
Used output format              : User Defined Encoder
Selected bitrate                : 768 kBit/s
Quality                         : High
Add ID3 tag                     : No
Command line compressor         : C:\Program Files\Exact Audio Copy\FLAC\FLAC.EXE
Additional command line options : -6 -V -T "ARTIST=%a" -T "TITLE=%t" -T "ALBUM=%g" -T "DATE=%y" -T "TRACKNUMBER=%n" -T "GENRE=%m" -T "COMMENT=%e" %s -o %d
TOC of the extracted CD
     Track |   Start  |  Length  | Start sector | End sector
    ---------------------------------------------------------
        1  |  0:00.00 |  4:12.27 |         0    |    18926
        2  |  4:12.27 |  1:43.53 |     18927    |    26704
        3  |  5:56.05 |  3:40.17 |     26705    |    43221
        4  |  9:36.22 |  2:28.73 |     43222    |    54394
        5  | 12:05.20 |  4:05.40 |     54395    |    72809
        6  | 16:10.60 |  3:08.37 |     72810    |    86946
        7  | 19:19.22 |  3:43.15 |     86947    |   103686
        8  | 23:02.37 |  3:13.13 |    103687    |   118174
        9  | 26:15.50 |  3:05.57 |    118175    |   132106
       10  | 29:21.32 |  5:39.33 |    132107    |   157564
Range status and errors
Selected range
     Filename J:\eMusic\Rip\Mose Allison - Autumn Song.wav
     Peak level 100.0 %
     Range quality 100.0 %
     Test CRC 1C673528
     Copy CRC 1C673528
     Copy OK
No errors occurred
AccurateRip summary
Track  1  not present in database
Track  2  not present in database
Track  3  not present in database
Track  4  not present in database
Track  5  not present in database
Track  6  not present in database
Track  7  not present in database
Track  8  not present in database
Track  9  not present in database
Track 10  not present in database
None of the tracks are present in the AccurateRip database
End of status report
 
 
Инфо
В течении своей долгой карьеры Моуз Эллисон постоянно ходил по грани между джазом и блюзом, в 1957-1959 годах он записал на Prestige Records серию из шести альбомов, которые явили слушателям именно его джазовую ипостась (хотя, конечно, не они одни). "Autumn Song" - последний в этой серии; семь инструменталов, три композиции с вокалом (2,4,8).
Подробнее о музыканте можно почитать на трекере и здесь, либо на английском на оф. сайте.
19:14
583
Нет комментариев. Ваш будет первым!