Поиск

(Hard Bop, Piano Blues) [CD] Mose Allison - My Backyard - 1990, FLAC (tracks+.cue), lossless

(Hard Bop, Piano Blues) [CD] Mose Allison - My Backyard - 1990, FLAC (tracks+.cue), lossless
Треклист:
Mose Allison - My Backyard Жанр: Hard Bop, Piano Blues
Носитель: CD
Год издания: 1990
Издатель (лейбл): Blue Note
Номер по каталогу: CDP 7 93840 2
Аудиокодек: FLAC (*.flac)
Тип рипа: tracks+.cue
Битрейт аудио: lossless
Продолжительность: 43:46
Источник (релизер): ruskaval
Наличие сканов в содержимом раздачи: да
Треклист:
01. Ever Since I Stole The Blues (3:15)
02. You Call It Joggin' (2:58)
03. Big Brother (4:19)
04. Sentimental (3:26)
05. Stranger In My Own Hometown (3:46)
06. Was (4:13)
07. The Gettin' Paid Waltz (4:14)
08. Dr. Jekyll & Mr. Hyde (3:05)
09. That's Your Red Wagon (3:33)
10. Long Song (3:52)
11. Sleepy Lagoon (3:27)
12. My Backyard (3:38)
Personnel:
Vocals Mose Allison - p, vo
Tony Dagradi - ts
Steve Masakowski - g
Bill Huntington - b
Johnny Vidacovich - d
Rec.: Southlake Recording Studio, New Orleans, LA, December 5-7, 1989.
 
 
AMG review by Michael G. Nastos
Mose Allison's career in his golden and quite fruitful years has yielded many surprises and challenges, not the least of which is this delightful offering. He continues to write attractive, bouncy, and fun tunes carried by his signature roiling piano style and sly lyrics. For this effort, producer and Allison disciple Ben Sidran hooked him up with musicians from the modern New Orleans jazz scene, including Astral Project members -- the extraordinary drummer John Vidacovich, tenor saxophonist Tony Dagradi, and guitarist Steve Masakowski. Veteran bassist Bill Huntington rounds out this very talented ensemble that happily works with Allison step by step to produce some of the singer/songwriter/instrumentalist's most enjoyable music, a tall order but easily recognizable once the listening commences. John D. Loudermilk's "You Call It Joggin'," with the retort "but I call it runnin' around," is one of the all-time classic skeptical lyric lines, as applicable to contemporary lifestyles as anything in the urban lexicon. His revisit of "That's Your Red Wagon" is another timeless tale of emotional baggage; Percy Mayfield's "Stranger In My Own Hometown" is purely autobiographical; while "Sleepy Lagoon" is an easygoing, romantic fantasy theme. Of the eight Allison originals, "The Getting Paid Waltz" depicts every musician's nightmare playing in a nightclub, impatiently waiting for the cheapskate owner eventually to pay up. "Was" is a light waltz for has-beens; "Sentimental Fool" talks about the paradox that he "messed around and got humanized"; and the New Orleans shuffle "Big Brother" -- including smart tradeoffs with Dagradi -- is a post-technology cautionary tale, even more relevant in modern times with the advent of Skype, Twitter, and Facebook. A statement on the music industry and jazz in particular, the slinky "Long Song" delineates in four minutes what need and not need be present in popular commercial or creative progressive music, and is a perfect companion to his song "My Top 40 Hit Record." Allison is always a delight to hear, a consistently marvelous piano player, and in very good company with this expert band that suits his style and personality perfectly. My Backyard is one of the best records of his career.

 
 
Лог создания рипа
Exact Audio Copy V0.99 prebeta 5 from 4. May 2009
EAC extraction logfile from 24. August 2010, 17:47
Mose Allison / My Backyard
Used drive  : TSSTcorpCDDVDW SH-S203N   Adapter: 0  ID: 2
Read mode               : Secure
Utilize accurate stream : Yes
Defeat audio cache      : Yes
Make use of C2 pointers : No
Read offset correction                      : 6
Overread into Lead-In and Lead-Out          : No
Fill up missing offset samples with silence : Yes
Delete leading and trailing silent blocks   : No
Null samples used in CRC calculations       : Yes
Used interface                              : Installed external ASPI interface
Gap handling                                : Appended to previous track
Used output format              : User Defined Encoder
Selected bitrate                : 768 kBit/s
Quality                         : High
Add ID3 tag                     : No
Command line compressor         : C:\Program Files\Exact Audio Copy\Flac\flac.exe
Additional command line options : -8 -V -T "ARTIST=%a" -T "TITLE=%t" -T "ALBUM=%g" -T "DATE=%y" -T "TRACKNUMBER=%n" -T "TOTALTRACKS=%x" -T "GENRE=%m" -T "ALBUMARTIST=%v" -T "ALBUM ARTIST=%v" -T "COMMENT=EAC V0.99 pb5, Secure Mode, Test & Copy, AccurateRip,
TOC of the extracted CD
     Track |   Start  |  Length  | Start sector | End sector
    ---------------------------------------------------------
        1  |  0:00.00 |  3:15.30 |         0    |    14654
        2  |  3:15.30 |  2:57.55 |     14655    |    27984
        3  |  6:13.10 |  4:19.07 |     27985    |    47416
        4  | 10:32.17 |  3:25.43 |     47417    |    62834
        5  | 13:57.60 |  3:45.60 |     62835    |    79769
        6  | 17:43.45 |  4:13.00 |     79770    |    98744
        7  | 21:56.45 |  4:13.55 |     98745    |   117774
        8  | 26:10.25 |  3:05.37 |    117775    |   131686
        9  | 29:15.62 |  3:32.45 |    131687    |   147631
       10  | 32:48.32 |  3:52.18 |    147632    |   165049
       11  | 36:40.50 |  3:26.57 |    165050    |   180556
       12  | 40:07.32 |  3:38.25 |    180557    |   196931
Track  1
     Filename J:\New Rips\Mose Allison - My Backyard (1990) [FLAC] {Blue Note CDP 7 93840 2 rec 1989}\01 - Ever Since I Stole The Blues.wav
     Pre-gap length  0:00:02.00
     Peak level 100.0 %
     Track quality 100.0 %
     Test CRC 060DF16A
     Copy CRC 060DF16A
     Accurately ripped (confidence 6)  [C8186DD5]
     Copy OK
Track  2
     Filename J:\New Rips\Mose Allison - My Backyard (1990) [FLAC] {Blue Note CDP 7 93840 2 rec 1989}\02 - You Call It Joggin'.wav
     Pre-gap length  0:00:01.70
     Peak level 92.0 %
     Track quality 100.0 %
     Test CRC 7D90E5AE
     Copy CRC 7D90E5AE
     Accurately ripped (confidence 5)  [E11B98A9]
     Copy OK
Track  3
     Filename J:\New Rips\Mose Allison - My Backyard (1990) [FLAC] {Blue Note CDP 7 93840 2 rec 1989}\03 - Big Brother.wav
     Pre-gap length  0:00:02.10
     Peak level 96.3 %
     Track quality 100.0 %
     Test CRC 2AE14CA0
     Copy CRC 2AE14CA0
     Accurately ripped (confidence 6)  [BC02B878]
     Copy OK
Track  4
     Filename J:\New Rips\Mose Allison - My Backyard (1990) [FLAC] {Blue Note CDP 7 93840 2 rec 1989}\04 - Sentimental.wav
     Pre-gap length  0:00:01.66
     Peak level 97.4 %
     Track quality 100.0 %
     Test CRC C4CEE964
     Copy CRC C4CEE964
     Accurately ripped (confidence 6)  [2F70C7F0]
     Copy OK
Track  5
     Filename J:\New Rips\Mose Allison - My Backyard (1990) [FLAC] {Blue Note CDP 7 93840 2 rec 1989}\05 - Stranger In My Own Hometown.wav
     Pre-gap length  0:00:01.57
     Peak level 95.7 %
     Track quality 99.9 %
     Test CRC 2D5167F5
     Copy CRC 2D5167F5
     Accurately ripped (confidence 6)  [B2D6C895]
     Copy OK
Track  6
     Filename J:\New Rips\Mose Allison - My Backyard (1990) [FLAC] {Blue Note CDP 7 93840 2 rec 1989}\06 - Was.wav
     Pre-gap length  0:00:02.24
     Peak level 81.5 %
     Track quality 99.9 %
     Test CRC 98D7A839
     Copy CRC 98D7A839
     Accurately ripped (confidence 6)  [3D8A2F8E]
     Copy OK
Track  7
     Filename J:\New Rips\Mose Allison - My Backyard (1990) [FLAC] {Blue Note CDP 7 93840 2 rec 1989}\07 - The Gettin' Paid Waltz.wav
     Pre-gap length  0:00:02.20
     Peak level 80.9 %
     Track quality 100.0 %
     Test CRC BA0D7C20
     Copy CRC BA0D7C20
     Accurately ripped (confidence 6)  [07110647]
     Copy OK
Track  8
     Filename J:\New Rips\Mose Allison - My Backyard (1990) [FLAC] {Blue Note CDP 7 93840 2 rec 1989}\08 - Dr Jekyll And Mr Hyde.wav
     Pre-gap length  0:00:02.04
     Peak level 90.8 %
     Track quality 100.0 %
     Test CRC 2A41296C
     Copy CRC 2A41296C
     Accurately ripped (confidence 6)  [4B1FA3C7]
     Copy OK
Track  9
     Filename J:\New Rips\Mose Allison - My Backyard (1990) [FLAC] {Blue Note CDP 7 93840 2 rec 1989}\09 - That's Your Red Wagon.wav
     Pre-gap length  0:00:01.22
     Peak level 95.4 %
     Track quality 100.0 %
     Test CRC 47B1D33D
     Copy CRC 47B1D33D
     Accurately ripped (confidence 6)  [3DB65038]
     Copy OK
Track 10
     Filename J:\New Rips\Mose Allison - My Backyard (1990) [FLAC] {Blue Note CDP 7 93840 2 rec 1989}\10 - Long Song.wav
     Pre-gap length  0:00:01.86
     Peak level 83.6 %
     Track quality 100.0 %
     Test CRC 2685F4F0
     Copy CRC 2685F4F0
     Accurately ripped (confidence 6)  [0B550B6B]
     Copy OK
Track 11
     Filename J:\New Rips\Mose Allison - My Backyard (1990) [FLAC] {Blue Note CDP 7 93840 2 rec 1989}\11 - Sleepy Lagoon.wav
     Pre-gap length  0:00:02.10
     Peak level 94.5 %
     Track quality 100.0 %
     Test CRC 3675E779
     Copy CRC 3675E779
     Accurately ripped (confidence 6)  [14E76143]
     Copy OK
Track 12
     Filename J:\New Rips\Mose Allison - My Backyard (1990) [FLAC] {Blue Note CDP 7 93840 2 rec 1989}\12 - My Backyard.wav
     Pre-gap length  0:00:01.42
     Peak level 67.5 %
     Track quality 100.0 %
     Test CRC 8C491828
     Copy CRC 8C491828
     Accurately ripped (confidence 6)  [A6102289]
     Copy OK
All tracks accurately ripped
No errors occurred
End of status report
 
 
Содержание индексной карты (.CUE)
REM GENRE Jazz
REM DATE 1990
REM DISCID A50A410C
REM COMMENT "ExactAudioCopy v0.99pb5"
PERFORMER "Mose Allison"
TITLE "My Backyard"
FILE "01 - Ever Since I Stole The Blues.wav" WAVE
  TRACK 01 AUDIO
    TITLE "Ever Since I Stole The Blues"
    PERFORMER "Mose Allison"
    INDEX 01 00:00:00
  TRACK 02 AUDIO
    TITLE "You Call It Joggin'"
    PERFORMER "Mose Allison"
    INDEX 00 03:13:52
FILE "02 - You Call It Joggin'.wav" WAVE
    INDEX 01 00:00:00
  TRACK 03 AUDIO
    TITLE "Big Brother"
    PERFORMER "Mose Allison"
    INDEX 00 02:55:47
FILE "03 - Big Brother.wav" WAVE
    INDEX 01 00:00:00
  TRACK 04 AUDIO
    TITLE "Sentimental"
    PERFORMER "Mose Allison"
    INDEX 00 04:17:32
FILE "04 - Sentimental.wav" WAVE
    INDEX 01 00:00:00
  TRACK 05 AUDIO
    TITLE "Stranger In My Own Hometown"
    PERFORMER "Mose Allison"
    INDEX 00 03:24:00
FILE "05 - Stranger In My Own Hometown.wav" WAVE
    INDEX 01 00:00:00
  TRACK 06 AUDIO
    TITLE "Was"
    PERFORMER "Mose Allison"
    INDEX 00 03:43:42
FILE "06 - Was.wav" WAVE
    INDEX 01 00:00:00
  TRACK 07 AUDIO
    TITLE "The Gettin' Paid Waltz"
    PERFORMER "Mose Allison"
    INDEX 00 04:10:60
FILE "07 - The Gettin' Paid Waltz.wav" WAVE
    INDEX 01 00:00:00
  TRACK 08 AUDIO
    TITLE "Dr Jekyll And Mr Hyde"
    PERFORMER "Mose Allison"
    INDEX 00 04:11:52
FILE "08 - Dr Jekyll And Mr Hyde.wav" WAVE
    INDEX 01 00:00:00
  TRACK 09 AUDIO
    TITLE "That's Your Red Wagon"
    PERFORMER "Mose Allison"
    INDEX 00 03:04:20
FILE "09 - That's Your Red Wagon.wav" WAVE
    INDEX 01 00:00:00
  TRACK 10 AUDIO
    TITLE "Long Song"
    PERFORMER "Mose Allison"
    INDEX 00 03:30:55
FILE "10 - Long Song.wav" WAVE
    INDEX 01 00:00:00
  TRACK 11 AUDIO
    TITLE "Sleepy Lagoon"
    PERFORMER "Mose Allison"
    INDEX 00 03:50:10
FILE "11 - Sleepy Lagoon.wav" WAVE
    INDEX 01 00:00:00
  TRACK 12 AUDIO
    TITLE "My Backyard"
    PERFORMER "Mose Allison"
    INDEX 00 03:25:25
FILE "12 - My Backyard.wav" WAVE
    INDEX 01 00:00:00
 
 
CUETools log
[CUETools log; Date: 28.07.2017 12:55:46; Version: 2.0.9]
[CTDB TOCID: .Kp9MVMwLFmOo9vuS_6Dq5DBv9s-] found.
        [ CTDBID ] Status
        [70a5026f] (7/7) Accurately ripped
[AccurateRip ID: 00136500-00b61545-a50a410c] found.
Track   [ CRC    ] Status
 01     [c8186dd5] (08/14) Accurately ripped
 02     [e11b98a9] (07/13) Accurately ripped
 03     [bc02b878] (08/14) Accurately ripped
 04     [2f70c7f0] (08/14) Accurately ripped
 05     [b2d6c895] (08/14) Accurately ripped
 06     [3d8a2f8e] (08/14) Accurately ripped
 07     [07110647] (08/14) Accurately ripped
 08     [4b1fa3c7] (08/14) Accurately ripped
 09     [3db65038] (08/14) Accurately ripped
 10     [0b550b6b] (08/14) Accurately ripped
 11     [14e76143] (08/14) Accurately ripped
 12     [a6102289] (08/14) Accurately ripped
Track Peak [ CRC32  ] [W/O NULL] [  LOG   ]
 --  100,0 [4F33B40A] [CB6EC450]
 01  100,0 [060DF16A] [99CD8299]   CRC32
 02   92,0 [7D90E5AE] [D15F120E]   CRC32
 03   96,3 [2AE14CA0] [98432EE2]   CRC32
 04   97,4 [C4CEE964] [E7C2D4A7]   CRC32
 05   95,7 [2D5167F5] [3D1C79CC]   CRC32
 06   81,5 [98D7A839] [0B2ACAEB]   CRC32
 07   80,9 [BA0D7C20] [055540D8]   CRC32
 08   90,8 [2A41296C] [0874D760]   CRC32
 09   95,4 [47B1D33D] [76BBAC0A]   CRC32
 10   83,6 [2685F4F0] [4D610927]   CRC32
 11   94,5 [3675E779] [831D21B1]   CRC32
 12   67,4 [8C491828] [6C45AB18]   CRC32
04:51
602
Нет комментариев. Ваш будет первым!