Поиск

(Hard Bop, Piano Blues, Vocal Jazz) Mose Allison - The Earth Wants You - 1994, FLAC (tracks+.cue), lossless

(Hard Bop, Piano Blues, Vocal Jazz) Mose Allison - The Earth Wants You - 1994, FLAC (tracks+.cue), lossless
Треклист:
Mose Allison / The Earth Wants You
Жанр: Hard Bop, Piano Blues, Vocal Jazz
Страна-производитель диска: USA
Год издания: 1994
Издатель (лейбл): Blue Note Records, a division of Capitol Records Inc.
Номер по каталогу: CDP 7243 8 27640 2 1
Страна: USA
Аудиокодек: FLAC (*.flac)
Тип рипа: tracks+.cue
Битрейт аудио: lossless
Продолжительность: 57:27
Источник (релизер): Собственные рипы
Наличие сканов в содержимом раздачи: да
Треклист:
01. Certified Senior Citizen [4:15]
02. This Ain't Me [3:17]
03. You Can't Push People Around [4:47]
04. My Ideal [2:27]
05. The Earth Wants You [4:06]
06. Cabaret Card [3:37]
07. Red Wagon [4:59]
08. Children Of The Future [3:23]
09. I Don't Love You [4:17]
10. Who's In, Who's Out [4:48]
11. Natural Born Malcontent [3:54]
12. What A Shame [3:26]
13. Variation On Dixie [4:44]
 
Лог создания рипа
Exact Audio Copy V1.0 beta 3 from 29. August 2011
EAC extraction logfile from 22. June 2013, 13:33
Mose Allison / The Earth Wants You
Used drive  : Optiarc DVD RW AD-7240S   Adapter: 3  ID: 0
Read mode               : Secure
Utilize accurate stream : Yes
Defeat audio cache      : Yes
Make use of C2 pointers : No
Read offset correction                      : 48
Overread into Lead-In and Lead-Out          : No
Fill up missing offset samples with silence : Yes
Delete leading and trailing silent blocks   : No
Null samples used in CRC calculations       : Yes
Used interface                              : Native Win32 interface for Win NT & 2000
Gap handling                                : Appended to previous track
Used output format              : User Defined Encoder
Selected bitrate                : 128 kBit/s
Quality                         : High
Add ID3 tag                     : No
Command line compressor         : C:\Program Files (x86)\Exact Audio Copy\Flac\flac.exe
Additional command line options : -V -8 -T "TITLE=%title%" -T "ARTIST=%artist%" -T "ALBUMARTIST=%albumartist%" -T "ALBUM=%albumtitle%" -T "DATE=%year%" -T "TRACKNUMBER=%tracknr%" -T "TRACKTOTAL=%numtracks%" -T "GENRE=%genre%" -T "COMMENT=%comment%" -T "PERFORMER=%albuminterpret%" -T "COMPOSER=%composer%" %source%
TOC of the extracted CD
     Track |   Start  |  Length  | Start sector | End sector
    ---------------------------------------------------------
        1  |  0:00.32 |  4:18.43 |        32    |    19424
        2  |  4:19.00 |  3:19.40 |     19425    |    34389
        3  |  7:38.40 |  4:50.30 |     34390    |    56169
        4  | 12:28.70 |  2:28.67 |     56170    |    67336
        5  | 14:57.62 |  4:07.53 |     67337    |    85914
        6  | 19:05.40 |  3:40.00 |     85915    |   102414
        7  | 22:45.40 |  5:02.32 |    102415    |   125096
        8  | 27:47.72 |  3:25.60 |    125097    |   140531
        9  | 31:13.57 |  4:19.73 |    140532    |   160029
       10  | 35:33.55 |  4:50.52 |    160030    |   181831
       11  | 40:24.32 |  3:56.73 |    181832    |   199604
       12  | 44:21.30 |  3:29.37 |    199605    |   215316
       13  | 47:50.67 |  4:44.33 |    215317    |   236649
Track  1
     Filename A:\CDA\Mose Allison - The Earth Wants You\01. Certified Senior Citizen.wav
     Pre-gap length  0:00:02.32
     Peak level 85.6 %
     Extraction speed 2.4 X
     Track quality 100.0 %
     Test CRC E5DFF4F6
     Copy CRC E5DFF4F6
     Accurately ripped (confidence 3)  [93068959]  (AR v1)
     Copy OK
Track  2
     Filename A:\CDA\Mose Allison - The Earth Wants You\02. This Ain't Me.wav
     Pre-gap length  0:00:02.35
     Peak level 97.3 %
     Extraction speed 2.2 X
     Track quality 99.9 %
     Test CRC 903DDED5
     Copy CRC 903DDED5
     Accurately ripped (confidence 3)  [5E5B92F6]  (AR v1)
     Copy OK
Track  3
     Filename A:\CDA\Mose Allison - The Earth Wants You\03. You Can't Push People Around.wav
     Pre-gap length  0:00:01.48
     Peak level 81.6 %
     Extraction speed 2.9 X
     Track quality 100.0 %
     Test CRC 25B5A0E5
     Copy CRC 25B5A0E5
     Accurately ripped (confidence 2)  [B8F447B6]  (AR v1)
     Copy OK
Track  4
     Filename A:\CDA\Mose Allison - The Earth Wants You\04. My Ideal.wav
     Pre-gap length  0:00:02.35
     Peak level 78.4 %
     Extraction speed 2.8 X
     Track quality 100.0 %
     Test CRC DE3FEC47
     Copy CRC DE3FEC47
     Accurately ripped (confidence 2)  [97B7D120]  (AR v1)
     Copy OK
Track  5
     Filename A:\CDA\Mose Allison - The Earth Wants You\05. The Earth Wants You.wav
     Pre-gap length  0:00:01.35
     Peak level 82.7 %
     Extraction speed 3.2 X
     Track quality 100.0 %
     Test CRC 8BF7778B
     Copy CRC 8BF7778B
     Accurately ripped (confidence 3)  [BC06CF37]  (AR v1)
     Copy OK
Track  6
     Filename A:\CDA\Mose Allison - The Earth Wants You\06. Cabaret Card.wav
     Pre-gap length  0:00:01.35
     Peak level 87.7 %
     Extraction speed 3.3 X
     Track quality 100.0 %
     Test CRC 9400B45B
     Copy CRC 9400B45B
     Accurately ripped (confidence 2)  [8749ED7C]  (AR v1)
     Copy OK
Track  7
     Filename A:\CDA\Mose Allison - The Earth Wants You\07. Red Wagon.wav
     Pre-gap length  0:00:02.38
     Peak level 81.2 %
     Extraction speed 3.3 X
     Track quality 99.9 %
     Test CRC 43C80AFE
     Copy CRC 43C80AFE
     Accurately ripped (confidence 2)  [D78C10B8]  (AR v1)
     Copy OK
Track  8
     Filename A:\CDA\Mose Allison - The Earth Wants You\08. Children Of The Future.wav
     Pre-gap length  0:00:02.67
     Peak level 67.1 %
     Extraction speed 3.7 X
     Track quality 100.0 %
     Test CRC FD69867C
     Copy CRC FD69867C
     Accurately ripped (confidence 2)  [1180FBC6]  (AR v1)
     Copy OK
Track  9
     Filename A:\CDA\Mose Allison - The Earth Wants You\09. I Don't Love You.wav
     Pre-gap length  0:00:02.65
     Peak level 82.7 %
     Extraction speed 3.9 X
     Track quality 100.0 %
     Test CRC 0D06B697
     Copy CRC 0D06B697
     Accurately ripped (confidence 2)  [8DE1B521]  (AR v1)
     Copy OK
Track 10
     Filename A:\CDA\Mose Allison - The Earth Wants You\10. Who's In, Who's Out.wav
     Pre-gap length  0:00:02.38
     Peak level 84.0 %
     Extraction speed 4.2 X
     Track quality 100.0 %
     Test CRC A1A71229
     Copy CRC A1A71229
     Accurately ripped (confidence 3)  [82C3617D]  (AR v1)
     Copy OK
Track 11
     Filename A:\CDA\Mose Allison - The Earth Wants You\11. Natural Born Malcontent.wav
     Pre-gap length  0:00:02.37
     Peak level 100.0 %
     Extraction speed 4.2 X
     Track quality 100.0 %
     Test CRC AC13B13C
     Copy CRC AC13B13C
     Accurately ripped (confidence 2)  [DD318636]  (AR v1)
     Copy OK
Track 12
     Filename A:\CDA\Mose Allison - The Earth Wants You\12. What A Shame.wav
     Pre-gap length  0:00:01.68
     Peak level 85.9 %
     Extraction speed 3.7 X
     Track quality 99.9 %
     Test CRC A5F18833
     Copy CRC A5F18833
     Accurately ripped (confidence 2)  [FAC4B7FC]  (AR v1)
     Copy OK
Track 13
     Filename A:\CDA\Mose Allison - The Earth Wants You\13. Variation On Dixie.wav
     Pre-gap length  0:00:02.37
     Peak level 83.3 %
     Extraction speed 4.6 X
     Track quality 100.0 %
     Test CRC 63D8185C
     Copy CRC 63D8185C
     Accurately ripped (confidence 2)  [A43478A8]  (AR v1)
     Copy OK
All tracks accurately ripped
No errors occurred
End of status report
==== Log checksum AB650846F5C3524792D04460B9EC48C0E1BD4001BAE1E4C0025D2555596F0569 ====
 
 
Содержание индексной карты (.CUE)
REM GENRE Jazz
REM DATE 1994
REM DISCID C10C530D
REM COMMENT "ExactAudioCopy v1.0b3"
PERFORMER "Mose Allison"
TITLE "The Earth Wants You"
FILE "01. Certified Senior Citizen.wav" WAVE
  TRACK 01 AUDIO
    TITLE "Certified Senior Citizen"
    PERFORMER "Mose Allison"
    PREGAP 00:00:32
    INDEX 01 00:00:00
  TRACK 02 AUDIO
    TITLE "This Ain't Me"
    PERFORMER "Mose Allison"
    INDEX 00 04:16:08
FILE "02. This Ain't Me.wav" WAVE
    INDEX 01 00:00:00
  TRACK 03 AUDIO
    TITLE "You Can't Push People Around"
    PERFORMER "Mose Allison"
    INDEX 00 03:17:67
FILE "03. You Can't Push People Around.wav" WAVE
    INDEX 01 00:00:00
  TRACK 04 AUDIO
    TITLE "My Ideal"
    PERFORMER "Mose Allison"
    INDEX 00 04:47:70
FILE "04. My Ideal.wav" WAVE
    INDEX 01 00:00:00
  TRACK 05 AUDIO
    TITLE "The Earth Wants You"
    PERFORMER "Mose Allison"
    INDEX 00 02:27:32
FILE "05. The Earth Wants You.wav" WAVE
    INDEX 01 00:00:00
  TRACK 06 AUDIO
    TITLE "Cabaret Card"
    PERFORMER "Mose Allison"
    INDEX 00 04:06:18
FILE "06. Cabaret Card.wav" WAVE
    INDEX 01 00:00:00
  TRACK 07 AUDIO
    TITLE "Red Wagon"
    PERFORMER "Mose Allison"
    INDEX 00 03:37:37
FILE "07. Red Wagon.wav" WAVE
    INDEX 01 00:00:00
  TRACK 08 AUDIO
    TITLE "Children Of The Future"
    PERFORMER "Mose Allison"
    INDEX 00 04:59:40
FILE "08. Children Of The Future.wav" WAVE
    INDEX 01 00:00:00
  TRACK 09 AUDIO
    TITLE "I Don't Love You"
    PERFORMER "Mose Allison"
    INDEX 00 03:22:70
FILE "09. I Don't Love You.wav" WAVE
    INDEX 01 00:00:00
  TRACK 10 AUDIO
    TITLE "Who's In, Who's Out"
    PERFORMER "Mose Allison"
    INDEX 00 04:17:35
FILE "10. Who's In, Who's Out.wav" WAVE
    INDEX 01 00:00:00
  TRACK 11 AUDIO
    TITLE "Natural Born Malcontent"
    PERFORMER "Mose Allison"
    INDEX 00 04:48:15
FILE "11. Natural Born Malcontent.wav" WAVE
    INDEX 01 00:00:00
  TRACK 12 AUDIO
    TITLE "What A Shame"
    PERFORMER "Mose Allison"
    INDEX 00 03:55:05
FILE "12. What A Shame.wav" WAVE
    INDEX 01 00:00:00
  TRACK 13 AUDIO
    TITLE "Variation On Dixie"
    PERFORMER "Mose Allison"
    INDEX 00 03:27:00
FILE "13. Variation On Dixie.wav" WAVE
    INDEX 01 00:00:00
 
 
Об альбоме (сборнике)
recorded September 8,9,10 1993 at Skyline Studios, New York, NY
 
 
Состав
Mose Allison - piano & vocals; Paul Motian - drums; Ratzo B.Harris - bass; John Scofield - guitar; Joe Lovano - alto saxophone; Bob Malach - tenor saxophone; Randy Brecker - trumpet; Ray Mantilla - conga; Hugh McCracken - harmonica.
22:04
577
Нет комментариев. Ваш будет первым!