Поиск

(Hard Bop, Post-Bop) Brian Dickinson & Jerry Bergonzi - Soul Mission - 2005, FLAC (image+.cue), lossless

(Hard Bop, Post-Bop) Brian Dickinson & Jerry Bergonzi - Soul Mission - 2005, FLAC (image+.cue), lossless
Brian Dickinson & Jerry Bergonzi - Soul Mission
Жанр: Hard Bop, Post-Bop
Год издания: 2005
Издатель (лейбл): Dodicilune
Страна: Канада/Италия
Аудиокодек: FLAC (*.flac)
Тип рипа: image+.cue
Битрейт аудио: lossless
Продолжительность: 65:16
Источник (релизер): lossless59 (hqshare)
Наличие сканов в содержимом раздачи: нет
Треклист:
01. Soul Mission (Bergonzi) - 6:16
02. Pardon Me (Dickinson) - 7:58
03. Delaware Daze (Dickinson) - 9:23
04. Splurge (Bergonzi) - 7:29
05. Sam's Song (Dickinson) - 7:54
06. With Reference (Bergonzi) - 7:17
07. Crazy Makers (Dickinson) - 11:04
08. Tribute (Bergonzi) - 8:01
Состав:
Jerry Bergonzi - tenor saxophone
Brian Dickinson - piano
Jim Vivian - bass
Ted Warren - drums
 
Лог создания рипа
EAC extraction logfile from 14. May 2006, 18:45 for CD
Brian Dickinson & Jerry Bergonzi / Soul Mission
Used drive  : PLEXTOR DVDR   PX-750A   Adapter: 1  ID: 0
Read mode   : Secure with NO C2, accurate stream, disable cache
Read offset correction : 102
Overread into Lead-In and Lead-Out : No
Used output format : C:\Documents and Settings\Agoo\Desktop\EAC\eac-0.95b3-cdrdao\flac.exe   (User Defined Encoder)
                     320 kBit/s
                     Additional command line options : -T "artist=%a" -T "title=%t" -T "album=%g" -T "date=%y" -T "tracknumber=%n" -T "genre=%m" %s
                     Use compression offset : 0
Other options      :
    Fill up missing offset samples with silence : Yes
    Delete leading and trailing silent blocks : No
    Installed external ASPI interface
Range status and errors
Selected range
     Filename C:\Estratti con Eac\Brian Dickinson & Jerry Bergonzi - Soul Mission.flac.wav
     Peak level 98.8 %
     Range quality 100.0 %
     CRC 3992EE4F
     Copy OK
No errors occured
End of status report
 
 
Содержание индексной карты (.CUE)
REM GENRE Jazz
REM DATE 2005
REM DISCID 740F4C08
REM COMMENT "ExactAudioCopy v0.95b3"
PERFORMER "Brian Dickinson & Jerry Bergonzi"
TITLE "Soul Mission"
FILE "Brian Dickinson & Jerry Bergonzi - Soul Mission.wav" WAVE
  TRACK 01 AUDIO
    TITLE "Soul Mission"
    PERFORMER "Brian Dickinson & Jerry Bergonzi"
    INDEX 01 00:00:00
  TRACK 02 AUDIO
    TITLE "Pardon Me"
    PERFORMER "Brian Dickinson & Jerry Bergonzi"
    INDEX 01 06:16:22
  TRACK 03 AUDIO
    TITLE "Delaware Daze"
    PERFORMER "Brian Dickinson & Jerry Bergonzi"
    INDEX 01 14:14:50
  TRACK 04 AUDIO
    TITLE "Splurge"
    PERFORMER "Brian Dickinson & Jerry Bergonzi"
    INDEX 01 23:38:02
  TRACK 05 AUDIO
    TITLE "Sam's Song"
    PERFORMER "Brian Dickinson & Jerry Bergonzi"
    INDEX 01 31:07:47
  TRACK 06 AUDIO
    TITLE "With Reference"
    PERFORMER "Brian Dickinson & Jerry Bergonzi"
    INDEX 01 38:52:47
  TRACK 07 AUDIO
    TITLE "Crazy Makers"
    PERFORMER "Brian Dickinson & Jerry Bergonzi"
    INDEX 01 46:10:45
  TRACK 08 AUDIO
    TITLE "Tribute"
    PERFORMER "Brian Dickinson & Jerry Bergonzi"
    INDEX 01 57:14:50
 
 
Об альбоме (сборнике)
Brian Dickinson e Jerry Bergonzi si incontrano in Soul Mission, disco registrato nel 2002 ed uscito per la Dodicilune records.
Attori, non protagonisti ma indispensabili, di questo dialogo musicale, sono il contrabbasso di Jim Vivian e la batteria di Ted Warren, sezione ritmica del quartetto di Dickinson.
Bergonzi e Dickinson si spartiscono la musica. Quattro composizioni originali a testa, quasi della medesima durata, stesso numero di assoli, ma una presenza più pregante del professore saxofonosta. Jerry Bergonzi offre, infatti, una lezione di sax, di improvvisazione, di pulizia, di rotondità; le sue note scendono precise, rotolano come sfere perfette a evidenziare, nuovamente, il possesso di una tecnica sublime e di una vicinanza ammirata al suono, comunque inimitabile, di Coltrane.
Nella composizione di entrambi domina la tradizione, l'eleganza di un jazz che abbiamo l'esigenza di definire classico, fa eccezione l'energica Crazy makers firmata da Dickinson in cui si ritrovano in primo piano Vivian e Warren. L'attenzione ritorna sul piano e sax immediatamente dopo, in Tribute di Bergonzi, per la chiusura di questo lavoro. La lezione è terminata le note sferiche disegnate dalle dita e dal fiato sono ferme, immobili come "un'anima" in ascolto.
-- Alessandro Armando per JazzItalia
Скачивание доступно после регистрации!!
Приватный:
Нет (DHT включён)
Размер:
371.05 Мб (389,070,431 байт) » файлов: 5
Участники:
0 раздают, 0 качают (0 участников всего)
Внешние участники:
2 раздают, 1 качают (3 участников всего) [ Обновить ]
11:41
585
Нет комментариев. Ваш будет первым!