Поиск

(Hard Bop, Soul, Funk, Hammond) [CD] Larry Young - Contrasts (1967) - 2014 {Japan SHM-CD Blue Note 24-192 Remaster}, FLAC (tracks+.cue), lossless

(Hard Bop, Soul, Funk, Hammond) [CD] Larry Young - Contrasts (1967) - 2014 {Japan SHM-CD Blue Note 24-192 Remaster}, FLAC (tracks+.cue), lossless
Larry Young - Contrasts (1967) Жанр: Hard Bop, Soul, Jazz Funk, Hammond
Носитель: CD
Страна-производитель диска (релиза): Japan
Год издания: 2014
Издатель (лейбл): Universal Japan/Blue Note
Номер по каталогу: TYCJ-81077
Аудиокодек: FLAC (*.flac)
Тип рипа: tracks+.cue
Битрейт аудио: lossless
Продолжительность: 39:17
Rip by ruskaval
Наличие сканов в содержимом раздачи: да
Треклист:
01. Majestic Soul (12:02)
02. Evening (7:12)
03. Major Affair (3:53)
04. Wild Is The Wind (4:31)
05. Tender Feelings (6:52)
06. Means Happiness (4:45)
 
 
Лог создания рипа
Exact Audio Copy V1.0 beta 3 from 29. August 2011
EAC extraction logfile from 24. January 2015, 14:36
Larry Young / Contrasts
Used drive  : ATAPI   iHAS124   B   Adapter: 2  ID: 1
Read mode               : Secure
Utilize accurate stream : Yes
Defeat audio cache      : Yes
Make use of C2 pointers : No
Read offset correction                      : 6
Overread into Lead-In and Lead-Out          : No
Fill up missing offset samples with silence : Yes
Delete leading and trailing silent blocks   : No
Null samples used in CRC calculations       : Yes
Used interface                              : Native Win32 interface for Win NT & 2000
Gap handling                                : Appended to previous track
Used output format              : User Defined Encoder
Selected bitrate                : 1024 kBit/s
Quality                         : High
Add ID3 tag                     : No
Command line compressor         : C:\Program Files (x86)\FLAC Frontend\tools\flac.exe
Additional command line options : -8 -V -T "ARTIST=%artist%" -T "TITLE=%title%" -T "ALBUM=%albumtitle%" -T "DATE=%year%" -T "TRACKNUMBER=%tracknr%" -T "TOTALTRACKS=%numtracks%" -T "GENRE=%genre%" -T "ALBUMARTIST=%albumartist%" -T "ALBUM ARTIST=%albumartist%" -T "COMMENT=EAC Secure Mode, Test & Copy, AccurateRip, FLAC -8" %source%
TOC of the extracted CD
     Track |   Start  |  Length  | Start sector | End sector
    ---------------------------------------------------------
        1  |  0:00.00 | 12:02.37 |         0    |    54186
        2  | 12:02.37 |  7:12.36 |     54187    |    86622
        3  | 19:14.73 |  3:52.63 |     86623    |   104085
        4  | 23:07.61 |  4:31.07 |    104086    |   124417
        5  | 27:38.68 |  6:52.25 |    124418    |   155342
        6  | 34:31.18 |  4:45.22 |    155343    |   176739
Track  1
     Filename C:\Larry Young - Contrasts (1967) {2014 Japan SHM-CD Blue Note 24-192 Remaster}\01 - Majestic Soul.wav
     Pre-gap length  0:00:02.00
     Peak level 100.0 %
     Extraction speed 2.2 X
     Track quality 100.0 %
     Test CRC 9415A997
     Copy CRC 9415A997
     Accurately ripped (confidence 1)  [A946B9F7]  (AR v2)
     Copy OK
Track  2
     Filename C:\Larry Young - Contrasts (1967) {2014 Japan SHM-CD Blue Note 24-192 Remaster}\02 - Evening.wav
     Pre-gap length  0:00:02.23
     Peak level 100.0 %
     Extraction speed 2.6 X
     Track quality 100.0 %
     Test CRC 7F3CEA8B
     Copy CRC 7F3CEA8B
     Accurately ripped (confidence 1)  [FEA2135F]  (AR v2)
     Copy OK
Track  3
     Filename C:\Larry Young - Contrasts (1967) {2014 Japan SHM-CD Blue Note 24-192 Remaster}\03 - Major Affair.wav
     Pre-gap length  0:00:02.23
     Peak level 100.0 %
     Extraction speed 2.6 X
     Track quality 100.0 %
     Test CRC F8E7357B
     Copy CRC F8E7357B
     Accurately ripped (confidence 1)  [C273BF28]  (AR v2)
     Copy OK
Track  4
     Filename C:\Larry Young - Contrasts (1967) {2014 Japan SHM-CD Blue Note 24-192 Remaster}\04 - Wild Is The Wind.wav
     Pre-gap length  0:00:02.23
     Peak level 97.2 %
     Extraction speed 2.8 X
     Track quality 100.0 %
     Test CRC 8A07D4DE
     Copy CRC 8A07D4DE
     Accurately ripped (confidence 1)  [1A464082]  (AR v2)
     Copy OK
Track  5
     Filename C:\Larry Young - Contrasts (1967) {2014 Japan SHM-CD Blue Note 24-192 Remaster}\05 - Tender Feelings.wav
     Pre-gap length  0:00:02.23
     Peak level 99.1 %
     Extraction speed 2.5 X
     Track quality 99.9 %
     Test CRC 3690E52D
     Copy CRC 3690E52D
     Accurately ripped (confidence 1)  [2A027330]  (AR v2)
     Copy OK
Track  6
     Filename C:\Larry Young - Contrasts (1967) {2014 Japan SHM-CD Blue Note 24-192 Remaster}\06 - Means Happiness.wav
     Pre-gap length  0:00:02.23
     Peak level 98.7 %
     Extraction speed 3.2 X
     Track quality 100.0 %
     Test CRC 28D9389C
     Copy CRC 28D9389C
     Accurately ripped (confidence 1)  [73C5BCDD]  (AR v2)
     Copy OK
All tracks accurately ripped
No errors occurred
End of status report
==== Log checksum F3BD07BBB45216BAF8BA47C20D72D862A46109ADC9BD17C89E2B463A3DEE15DA ====
 
 
Содержание индексной карты (.CUE)
REM GENRE Jazz
REM DATE 1967
REM DISCID 4A093406
REM COMMENT "ExactAudioCopy v1.0b3"
PERFORMER "Larry Young"
TITLE "Contrasts"
FILE "01 - Majestic Soul.wav" WAVE
  TRACK 01 AUDIO
    TITLE "Majestic Soul"
    PERFORMER "Larry Young"
    INDEX 01 00:00:00
  TRACK 02 AUDIO
    TITLE "Evening"
    PERFORMER "Larry Young"
    INDEX 00 12:00:14
FILE "02 - Evening.wav" WAVE
    INDEX 01 00:00:00
  TRACK 03 AUDIO
    TITLE "Major Affair"
    PERFORMER "Larry Young"
    INDEX 00 07:10:13
FILE "03 - Major Affair.wav" WAVE
    INDEX 01 00:00:00
  TRACK 04 AUDIO
    TITLE "Wild Is The Wind"
    PERFORMER "Larry Young"
    INDEX 00 03:50:40
FILE "04 - Wild Is The Wind.wav" WAVE
    INDEX 01 00:00:00
  TRACK 05 AUDIO
    TITLE "Tender Feelings"
    PERFORMER "Larry Young"
    INDEX 00 04:28:59
FILE "05 - Tender Feelings.wav" WAVE
    INDEX 01 00:00:00
  TRACK 06 AUDIO
    TITLE "Means Happiness"
    PERFORMER "Larry Young"
    INDEX 00 06:50:02
FILE "06 - Means Happiness.wav" WAVE
    INDEX 01 00:00:00
Скачивание доступно после регистрации!!
Приватный:
Нет (DHT включён)
Размер:
464.45 Мб (487,009,092 байт) » файлов: 25
Участники:
0 раздают, 0 качают (0 участников всего)
Внешние участники:
5 раздают, 2 качают (7 участников всего) [ Обновить ]
15:41
376
Нет комментариев. Ваш будет первым!