Поиск

(Hard Bop, Trumpet Jazz) [WEB] Booker Little - Save Your Love For Me: The Ballads Album - 2015, FLAC (tracks), lossless

(Hard Bop, Trumpet Jazz) [WEB] Booker Little - Save Your Love For Me: The Ballads Album - 2015, FLAC (tracks), lossless
Треклист:
Booker Little - Save Your Love For Me: The Ballads Album Жанр: Hard Bop, Trumpet Jazz
Носитель: WEB
Год издания: 2015
Издатель (лейбл): Nagel-Heyer Records
Аудиокодек: FLAC (*.flac)
Тип рипа: tracks
Битрейт аудио: lossless
Продолжительность: 79:45
Источник (релизер): What.cd (Sykeya)
Наличие сканов в содержимом раздачи: нет

Треклист:
01. Moonlight Becomes You (5:43)
02. Sweet And Lovely (4:16)
03. Calling Softly (5:40)
04. Dungeon's Waltz (4:30)
05. Matilde (5:54)
06. We Speak (6:46)
07. If I Should Lose You (5:12)
08. Quiet, Please (8:10)
09. Man Of Words (4:50)
10. Waltz Of The Demons (4:56)
11. Strength And Sanity (6:16)
12. Life's A Little Blue (6:52)
13. Booker's Blues (5:16)
14. Who Can I Turn To (When Nobody Needs Me) (5:25)
 
 
Лог проверки качества
AUDIOCHECKER v2.0 beta (build 457) - by Dester - opdester@freemail.hu
~~~~~~~~~~~~~~~~~~~~~~~~~~~~~~~~~~
-=== DO NOT EDIT THIS FILE! ===-
Path: ...\2015. Booker Little - Save Your Love for Me- The Ballads Album
01 -=- 01. Moonlight Becomes You.flac -=- CDDA (100%)
02 -=- 02. Sweet And Lovely.flac -=- CDDA (100%)
03 -=- 03. Calling Softly.flac -=- CDDA (99%)
04 -=- 04. Dungeon's Waltz.flac -=- CDDA (100%)
05 -=- 05. Matilde.flac -=- CDDA (100%)
06 -=- 06. We Speak.flac -=- CDDA (100%)
07 -=- 07. If I Should Lose You.flac -=- CDDA (100%)
08 -=- 08. Quiet, Please.flac -=- CDDA (99%)
09 -=- 09. Man Of Words.flac -=- CDDA (100%)
10 -=- 10. Waltz Of The Demons.flac -=- CDDA (100%)
11 -=- 11. Strength And Sanity.flac -=- CDDA (100%)
12 -=- 12. Life's A Little Blue.flac -=- CDDA (100%)
13 -=- 13. Booker's Blues.flac -=- CDDA (99%)
14 -=- 14. Who Can I Turn To (When Nobody Needs Me).flac -=- CDDA (100%)
Summary 99,79% CDDA
20942068
 
 
Динамический диапазон
foobar2000 1.1.6 / Dynamic Range Meter 1.1.1
log date: 2015-01-28 04:09:48
--------------------------------------------------------------------------------
Analyzed: Booker Little / Save Your Love For Me: The Ballads Album
--------------------------------------------------------------------------------
DR         Peak         RMS     Duration Track
--------------------------------------------------------------------------------
DR12      -1.11 dB   -16.48 dB      5:43 01-Moonlight Becomes You
DR12      -1.82 dB   -17.36 dB      4:16 02-Sweet And Lovely
DR13      -0.45 dB   -17.95 dB      5:40 03-Calling Softly
DR13      -1.39 dB   -16.16 dB      4:30 04-Dungeon's Waltz
DR13      -1.93 dB   -18.27 dB      5:54 05-Matilde
DR11      -1.20 dB   -15.98 dB      6:46 06-We Speak
DR14      -0.46 dB   -18.47 dB      5:12 07-If I Should Lose You
DR12      -0.07 dB   -16.38 dB      8:10 08-Quiet, Please
DR12      -0.30 dB   -17.98 dB      4:50 09-Man Of Words
DR12      -0.85 dB   -17.02 dB      4:56 10-Waltz Of The Demons
DR11      -0.74 dB   -14.44 dB      6:16 11-Strength And Sanity
DR12      -1.53 dB   -17.86 dB      6:52 12-Life's A Little Blue
DR14      -0.95 dB   -17.54 dB      5:16 13-Booker's Blues
DR13      -1.01 dB   -17.96 dB      5:25 14-Who Can I Turn To (When Nobody Needs Me)
--------------------------------------------------------------------------------
Number of tracks:  14
Official DR value: DR12
Samplerate:        44100 Hz
Channels:          2
Bits per sample:   16
Bitrate:           742 kbps
Codec:             FLAC
================================================================================
15:42
385
Нет комментариев. Ваш будет первым!