Поиск

(Jazz) Art Tatum (Lionel Hampton, Buddy Rich) - The Tatum Group Masterpieces, Vol. 4 - (1955)1990, FLAC (tracks+.cue), lossless

(Jazz) Art Tatum (Lionel Hampton, Buddy Rich) - The Tatum Group Masterpieces, Vol. 4 - (1955)1990, FLAC (tracks+.cue), lossless
Треклист:
Art Tatum / The Tatum Group Masterpieces, Vol. 4
Жанр: Jazz
Страна-производитель диска (релиза): Russia
Год издания: (1955)1990
Издатель (лейбл): Pablo
Страна исполнителя (группы): USA
Аудиокодек: FLAC (*.flac)
Тип рипа: tracks+.cue
Битрейт аудио: lossless
Продолжительность: 0:56:23.
Источник (релизер): clustert
Наличие сканов в содержимом раздачи: да
Треклист:
01. This Can't Be Love [0:06:20.35]
02. Stars Fell on Alabama [0:05:41.00]
03. Lover Man [0:06:02.25]
04. Prisoner of Love [0:06:11.72]
05. Love For Sale (Concept I) [0:09:41.28]
06. Love For Sale (Concept II) [0:06:18.22]
07. Body and Soul [0:05:26.23]
08. Please Be Kind [0:04:50.50]
09. This Can't Be Love (Alternate take) [0:05:51.30]
 
Лог создания рипа
Exact Audio Copy V1.0 beta 3 from 29. August 2011
Отчёт EAC об извлечении, выполненном 20. декабря 2014, 0:14
Art Tatum / The Tatum Group Masterpieces, Vol. 4
Дисковод: ASUS DRW-1814BLT Adapter: 4 ID: 0
Режим чтения : Достоверность
Использование точного потока : Да
Отключение кэша аудио : Да
Использование указателей C2 : Нет
Коррекция смещения при чтении : 6
Способность читать области Lead-in и Lead-out : Нет
Заполнение пропущенных сэмплов тишиной : Да
Удаление блоков с тишиной в начале и конце : Нет
При вычислениях CRC использовались нулевые сэмплы : Да
Интерфейс : Встроенный Win32-интерфейс для Win NT/2000
Обработка зазоров : Добавлено к предыдущему треку
Выходной формат : Пользовательский кодировщик
Выбранный битрейт : 128 kBit/s
Качество : Высокий
Добавление ID3-тега : Нет
Утилита сжатия : C:\Program Files\Exact Audio Copy\Flac\flac.exe
Дополнительные параметры : -V -8 -T "Genre=%genre%" -T "Artist=%artist%" -T "Title=%title%" -T "Album=%albumtitle%" -T "Date=%year%" -T "Tracknumber=%tracknr%" -T "Comment=EAC1.0b2 FLAC -8" %source%
TOC извлечённого CD
Трек | Старт | Длительность | Начальный сектор | Конечный сектор
---------------------------------------------------------------------
1 | 0:00.00 | 6:20.35 | 0 | 28534
2 | 6:20.35 | 5:41.00 | 28535 | 54109
3 | 12:01.35 | 6:02.25 | 54110 | 81284
4 | 18:03.60 | 6:11.72 | 81285 | 109181
5 | 24:15.57 | 9:41.28 | 109182 | 152784
6 | 33:57.10 | 6:18.22 | 152785 | 181156
7 | 40:15.32 | 5:26.23 | 181157 | 205629
8 | 45:41.55 | 4:50.50 | 205630 | 227429
9 | 50:32.30 | 5:51.30 | 227430 | 253784
Трек 1
Имя файла R:\Раздача 30\Art Tatum (Lionel Hampton, Buddy Rich) - 1990 - Tatum Group Masterpieces, vol. four\01 This Can't Be Love.wav
Длина предзазора 0:00:02.00
Пиковый уровень 80.8 %
Скорость извлечения 3.4 X
Качество трека 99.9 %
CRC теста A66CA753
CRC копии A66CA753
Точность не определена (достоверность 8) [999E899B], AccurateRip вернул [DB14076F] (AR v2)
Копирование... OK
Трек 2
Имя файла R:\Раздача 30\Art Tatum (Lionel Hampton, Buddy Rich) - 1990 - Tatum Group Masterpieces, vol. four\02 Stars Fell on Alabama.wav
Длина предзазора 0:00:03.38
Пиковый уровень 47.8 %
Скорость извлечения 5.3 X
Качество трека 100.0 %
CRC теста A0BFF9F2
CRC копии A0BFF9F2
Точность не определена (достоверность 8) [C3FC1B19], AccurateRip вернул [B75C2BE0] (AR v2)
Копирование... OK
Трек 3
Имя файла R:\Раздача 30\Art Tatum (Lionel Hampton, Buddy Rich) - 1990 - Tatum Group Masterpieces, vol. four\03 Lover Man.wav
Длина предзазора 0:00:02.35
Пиковый уровень 58.4 %
Скорость извлечения 6.0 X
Качество трека 100.0 %
CRC теста DA528FFF
CRC копии DA528FFF
Точность не определена (достоверность 8) [99D9E014], AccurateRip вернул [249DBDD8] (AR v2)
Копирование... OK
Трек 4
Имя файла R:\Раздача 30\Art Tatum (Lionel Hampton, Buddy Rich) - 1990 - Tatum Group Masterpieces, vol. four\04 Prisoner of Love.wav
Длина предзазора 0:00:03.45
Пиковый уровень 60.0 %
Скорость извлечения 6.5 X
Качество трека 100.0 %
CRC теста 89FE7C55
CRC копии 89FE7C55
Точность не определена (достоверность 8) [57B2B269], AccurateRip вернул [0EF0FD72] (AR v2)
Копирование... OK
Трек 5
Имя файла R:\Раздача 30\Art Tatum (Lionel Hampton, Buddy Rich) - 1990 - Tatum Group Masterpieces, vol. four\05 Love For Sale (Concept I).wav
Длина предзазора 0:00:03.10
Пиковый уровень 87.9 %
Скорость извлечения 7.4 X
Качество трека 100.0 %
CRC теста F7BF51D6
CRC копии F7BF51D6
Точность не определена (достоверность 8) [8D358FBA], AccurateRip вернул [8362BF8D] (AR v2)
Копирование... OK
Трек 6
Имя файла R:\Раздача 30\Art Tatum (Lionel Hampton, Buddy Rich) - 1990 - Tatum Group Masterpieces, vol. four\06 Love For Sale (Concept II).wav
Длина предзазора 0:00:03.33
Пиковый уровень 62.5 %
Скорость извлечения 7.8 X
Качество трека 100.0 %
CRC теста B5E5F0E9
CRC копии B5E5F0E9
Точность не определена (достоверность 8) [C2B6DC96], AccurateRip вернул [53FCD0AF] (AR v2)
Копирование... OK
Трек 7
Имя файла R:\Раздача 30\Art Tatum (Lionel Hampton, Buddy Rich) - 1990 - Tatum Group Masterpieces, vol. four\07 Body and Soul.wav
Длина предзазора 0:00:02.45
Пиковый уровень 47.4 %
Скорость извлечения 5.8 X
Качество трека 99.9 %
CRC теста A310FB76
CRC копии A310FB76
Точность не определена (достоверность 8) [AE00185D], AccurateRip вернул [67A1439E] (AR v2)
Копирование... OK
Трек 8
Имя файла R:\Раздача 30\Art Tatum (Lionel Hampton, Buddy Rich) - 1990 - Tatum Group Masterpieces, vol. four\08 Please Be Kind.wav
Длина предзазора 0:00:03.28
Пиковый уровень 45.4 %
Скорость извлечения 8.3 X
Качество трека 100.0 %
CRC теста FACE6C26
CRC копии FACE6C26
Точность не определена (достоверность 8) [FB1DC06E], AccurateRip вернул [81BDBB34] (AR v2)
Копирование... OK
Трек 9
Имя файла R:\Раздача 30\Art Tatum (Lionel Hampton, Buddy Rich) - 1990 - Tatum Group Masterpieces, vol. four\09 This Can't Be Love (Alternate take).wav
Длина предзазора 0:00:03.15
Пиковый уровень 72.6 %
Скорость извлечения 8.7 X
Качество трека 100.0 %
CRC теста AA5A148A
CRC копии AA5A148A
Точность не определена (достоверность 8) [4599E877], AccurateRip вернул [B3C49ED3] (AR v2)
Копирование... OK
Ни один трек не прошёл проверки на точность
В вашей базе может быть иной вариант штамповки диска
Ошибок не произошло
Конец отчёта
==== Контрольная сумма отчёта 7061083E6E8D1DB8E16A9FA12F366AFC8E462839218235BE4D24AC6AF84FD8ED ====
 
Содержание индексной карты (.CUE)
REM GENRE Jazz
REM DATE 1990
REM DISCID 700D3709
REM COMMENT "ExactAudioCopy v1.0b3"
PERFORMER "Art Tatum"
TITLE "The Tatum Group Masterpieces, Vol. 4"
FILE "01 This Can't Be Love.wav" WAVE
TRACK 01 AUDIO
TITLE "This Can't Be Love"
PERFORMER "Art Tatum"
ISRC H2=S57600089
INDEX 01 00:00:00
TRACK 02 AUDIO
TITLE "Stars Fell on Alabama"
PERFORMER "Art Tatum"
ISRC H2=S57600090
INDEX 00 06:16:72
FILE "02 Stars Fell on Alabama.wav" WAVE
INDEX 01 00:00:00
TRACK 03 AUDIO
TITLE "Lover Man"
PERFORMER "Art Tatum"
ISRC H2=S57600091
INDEX 00 05:38:40
FILE "03 Lover Man.wav" WAVE
INDEX 01 00:00:00
TRACK 04 AUDIO
TITLE "Prisoner of Love"
PERFORMER "Art Tatum"
ISRC H2=S57600092
INDEX 00 05:58:55
FILE "04 Prisoner of Love.wav" WAVE
INDEX 01 00:00:00
TRACK 05 AUDIO
TITLE "Love For Sale (Concept I)"
PERFORMER "Art Tatum"
ISRC H2=S57600093
INDEX 00 06:08:62
FILE "05 Love For Sale (Concept I).wav" WAVE
INDEX 01 00:00:00
TRACK 06 AUDIO
TITLE "Love For Sale (Concept II)"
PERFORMER "Art Tatum"
ISRC H2=S57600094
INDEX 00 09:37:70
FILE "06 Love For Sale (Concept II).wav" WAVE
INDEX 01 00:00:00
TRACK 07 AUDIO
TITLE "Body and Soul"
PERFORMER "Art Tatum"
ISRC H2=S55500161
INDEX 00 06:15:52
FILE "07 Body and Soul.wav" WAVE
INDEX 01 00:00:00
TRACK 08 AUDIO
TITLE "Please Be Kind"
PERFORMER "Art Tatum"
ISRC H2=S57600095
INDEX 00 05:22:70
FILE "08 Please Be Kind.wav" WAVE
INDEX 01 00:00:00
TRACK 09 AUDIO
TITLE "This Can't Be Love (Alternate take)"
PERFORMER "Art Tatum"
ISRC H2=S58900034
INDEX 00 04:47:35
FILE "09 This Can't Be Love (Alternate take).wav" WAVE
INDEX 01 00:00:00
16:32
676
Нет комментариев. Ваш будет первым!