Поиск

(Jazz, Blues, Hard Bop) Mose Allison - I Don't Worry About a Thing - 1959, FLAC (image+.cue), lossless

(Jazz, Blues, Hard Bop) Mose Allison - I Don't Worry About a Thing - 1959, FLAC (image+.cue), lossless
Треклист:
Mose Allison - I Don't Worry About a Thing
Жанр: Jazz, Blues, Hard Bop
Год выпуска диска: 1959
Производитель диска: USA
Аудио кодек: FLAC
Тип рипа: image+.cue
Битрейт аудио: lossless
Продолжительность: 0:32:51
Трэклист:
1. I Don't Worry About a Thing 2:19
2. It Didn't Turn Out That Way 2:44
3. Your Mind Is on Vacation 2:37
4. Let Me See 4:12
5. Everything I Have Is Yours 4:08
6. Stand By 3:59
7. Idyll 4:19
8. The Well 3:23
9. Meet Me at No Special Place 2:36
10. The Song Is Ended 2:34
All compositions by Mose Allison

Personnel:
Mose Allison (Vocals and Piano)
Addison Farmer (Double Bass)
Osie Johnson (Drums)
Доп. информация:Рип не мой, скачано в сети.
Также на трекере есть:
Mose Allison в MP3: Mose Allison - 5 albums
Mose Allison видео: Tom Waits & Mose Allison - Soundstage, December 22, 1975
 
EAC:
Exact Audio Copy V0.99 prebeta 4 from 23. January 2008
EAC extraction logfile from 5. July 2009, 10:02
Mose Allison / I Don't Worry About a Thing
Used drive : _NEC DVD_RW ND-3500AG Adapter: 0 ID: 0
Read mode : Secure
Utilize accurate stream : Yes
Defeat audio cache : Yes
Make use of C2 pointers : No
Read offset correction : 48
Overread into Lead-In and Lead-Out : No
Fill up missing offset samples with silence : Yes
Delete leading and trailing silent blocks : No
Null samples used in CRC calculations : Yes
Used interface : Native Win32 interface for Win NT & 2000
Used output format : User Defined Encoder
Selected bitrate : 768 kBit/s
Quality : High
Add ID3 tag : No
Command line compressor : C:\Program Files\Exact Audio Copy\FLAC\FLAC.EXE
Additional command line options : -6 -V -T "ARTIST=%a" -T "TITLE=%t" -T "ALBUM=%g" -T "DATE=%y" -T "TRACKNUMBER=%n" -T "GENRE=%m" -T "COMMENT=%e" %s -o %d
TOC of the extracted CD
Track | Start | Length | Start sector | End sector
---------------------------------------------------------
1 | 0:00.00 | 2:19.60 | 0 | 10484
2 | 2:19.60 | 2:44.18 | 10485 | 22802
3 | 5:04.03 | 2:37.52 | 22803 | 34629
4 | 7:41.55 | 4:12.05 | 34630 | 53534
5 | 11:53.60 | 4:08.68 | 53535 | 72202
6 | 16:02.53 | 3:59.72 | 72203 | 90199
7 | 20:02.50 | 4:19.15 | 90200 | 109639
8 | 24:21.65 | 3:23.28 | 109640 | 124892
9 | 27:45.18 | 2:36.37 | 124893 | 136629
10 | 30:21.55 | 2:34.35 | 136630 | 148214
Range status and errors
Selected range
Filename J:\eMusic\Rip\Mose Allison - I Don't Worry About a Thing.wav
Peak level 87.5 %
Range quality 100.0 %
Test CRC 2E4C6FB9
Copy CRC 2E4C6FB9
Copy OK
No errors occurred
AccurateRip summary
Track 1 accurately ripped (confidence 1) [ED738088]
Track 2 accurately ripped (confidence 1) [29DB7049]
Track 3 accurately ripped (confidence 1) [5070DB7A]
Track 4 accurately ripped (confidence 1) [2655E661]
Track 5 accurately ripped (confidence 1) [A995D6E4]
Track 6 accurately ripped (confidence 1) [830582EE]
Track 7 accurately ripped (confidence 1) [B9643051]
Track 8 accurately ripped (confidence 1) [DF870481]
Track 9 accurately ripped (confidence 1) [54223A8C]
Track 10 accurately ripped (confidence 1) [F130C972]
All tracks accurately ripped
End of status report
 
 
Обложки:
 
01:32
520
Нет комментариев. Ваш будет первым!