Поиск

(Jazz-Funk) [CD] Gary Bartz - Music Is My Sanctuary (1977) - 2014, FLAC (tracks+.cue), lossless

(Jazz-Funk) [CD] Gary Bartz - Music Is My Sanctuary (1977) - 2014, FLAC (tracks+.cue), lossless
Gary Bartz - Music Is My Sanctuary (1977) Жанр: Jazz-Funk
Носитель: CD
Страна-производитель диска (релиза): Japan
Год издания: 2014
Издатель (лейбл): Universal Music Japan
Номер по каталогу: UCCU-90083
Аудиокодек: FLAC (*.flac)
Тип рипа: tracks+.cue
Битрейт аудио: lossless
Продолжительность: 36:06
Rip by JET 1
Наличие сканов в содержимом раздачи: да
Треклист:
01. Music Is My Sanctuary (6:26)
02. Carnaval De L'Esprit (5:59)
03. Love Ballad (4:14)
04. Swing Thing (6:55)
05. Oo Baby Baby (5:58)
06. Macaroni (6:34)
 
 
Состав
Gary Bartz - alto saxophone, soprano saxophone, acoustic piano, electric piano, synthesizer, vocals, background vocals
Larry Mizell - keyboards, background vocals
Syreeta Wright - vocals, background vocals
Curtis Robinson, Jr., Welton Gite - bass
Nate Neblett, James Gadson, Howard King - drums
Eddie Henderson, Ray Brown - trumpet
George Cables - piano
David T. Walker, Juewett Bostick, Wa Wa Watson, John Rowin - guitars
Mtume, Bill Summers - percussion
Sigidi - background vocals
Recorded at Sound Factory West, Hollywood, CA.
 
 
 
Лог создания рипа
Exact Audio Copy V1.0 beta 3 from 29. August 2011
EAC extraction logfile from 3. April 2016, 10:01
Gary Bartz / Music Is My Sanctuary
Used drive  : GENERIC CDRCB05   Adapter: 4  ID: 0
Read mode               : Secure
Utilize accurate stream : Yes
Defeat audio cache      : Yes
Make use of C2 pointers : No
Read offset correction                      : 102
Overread into Lead-In and Lead-Out          : No
Fill up missing offset samples with silence : Yes
Delete leading and trailing silent blocks   : No
Null samples used in CRC calculations       : Yes
Used interface                              : Native Win32 interface for Win NT & 2000
Gap handling                                : Appended to previous track
Used output format              : User Defined Encoder
Selected bitrate                : 1024 kBit/s
Quality                         : High
Add ID3 tag                     : No
Command line compressor         : C:\Program Files\FLAC\flac.exe
Additional command line options : -8 -V -T "ARTIST=%artist%" -T "TITLE=%title%" -T "ALBUM=%albumtitle%" -T "DATE=%year%" -T "TRACKNUMBER=%tracknr%" -T "GENRE=%genre%" -T "PERFORMER=%albuminterpret%" -T "COMPOSER=%composer%" %haslyrics%--tag-from-file=LYRICS="%lyricsfile%"%haslyrics% -T "ALBUMARTIST=%albumartist%" -T "DISCNUMBER=%cdnumber%" -T "TOTALDISCS=%totalcds%" -T "TOTALTRACKS=%numtracks%" -T "COMMENT=%comment%" %source% -o %dest%
TOC of the extracted CD
     Track |   Start  |  Length  | Start sector | End sector
    ---------------------------------------------------------
        1  |  0:00.00 |  6:25.67 |         0    |    28941
        2  |  6:25.67 |  5:59.23 |     28942    |    55889
        3  | 12:25.15 |  4:14.00 |     55890    |    74939
        4  | 16:39.15 |  6:54.66 |     74940    |   106055
        5  | 23:34.06 |  5:57.45 |    106056    |   132875
        6  | 29:31.51 |  6:33.65 |    132876    |   162415
Track  1
     Filename F:\POSTSSSSS\Gary Bartz - Music Is My Sanctuary (1977) [2014 Japan]\01 - Music Is My Sanctuary.wav
     Pre-gap length  0:00:02.00
     Peak level 98.9 %
     Extraction speed 2.6 X
     Track quality 100.0 %
     Test CRC FFC36EFA
     Copy CRC FFC36EFA
     Accurately ripped (confidence 7)  [27E25178]  (AR v2)
     Copy OK
Track  2
     Filename F:\POSTSSSSS\Gary Bartz - Music Is My Sanctuary (1977) [2014 Japan]\02 - Carnaval De L'Esprit.wav
     Pre-gap length  0:00:01.63
     Peak level 98.9 %
     Extraction speed 3.0 X
     Track quality 100.0 %
     Test CRC 260500C2
     Copy CRC 260500C2
     Accurately ripped (confidence 7)  [D0AC4F70]  (AR v2)
     Copy OK
Track  3
     Filename F:\POSTSSSSS\Gary Bartz - Music Is My Sanctuary (1977) [2014 Japan]\03 - Love Ballad.wav
     Pre-gap length  0:00:01.63
     Peak level 98.9 %
     Extraction speed 3.1 X
     Track quality 100.0 %
     Test CRC 8DC31CC7
     Copy CRC 8DC31CC7
     Accurately ripped (confidence 7)  [B211D032]  (AR v2)
     Copy OK
Track  4
     Filename F:\POSTSSSSS\Gary Bartz - Music Is My Sanctuary (1977) [2014 Japan]\04 - Swing Thing.wav
     Pre-gap length  0:00:01.63
     Peak level 98.9 %
     Extraction speed 3.6 X
     Track quality 100.0 %
     Test CRC B14702C8
     Copy CRC B14702C8
     Accurately ripped (confidence 7)  [07C03F6E]  (AR v2)
     Copy OK
Track  5
     Filename F:\POSTSSSSS\Gary Bartz - Music Is My Sanctuary (1977) [2014 Japan]\05 - Oo Baby Baby.wav
     Pre-gap length  0:00:01.63
     Peak level 98.9 %
     Extraction speed 3.8 X
     Track quality 100.0 %
     Test CRC D4399108
     Copy CRC D4399108
     Accurately ripped (confidence 7)  [866100E7]  (AR v2)
     Copy OK
Track  6
     Filename F:\POSTSSSSS\Gary Bartz - Music Is My Sanctuary (1977) [2014 Japan]\06 - Macaroni.wav
     Pre-gap length  0:00:01.63
     Peak level 98.9 %
     Extraction speed 4.2 X
     Track quality 100.0 %
     Test CRC 5D3E11FD
     Copy CRC 5D3E11FD
     Accurately ripped (confidence 7)  [665C8063]  (AR v2)
     Copy OK
All tracks accurately ripped
No errors occurred
End of status report
==== Log checksum E4E4F48E98D86F5F6B9D7F01BC0A16424C9D85B03AD3DAB3625B0361B55E7926 ====
 
 
Содержание индексной карты (.CUE)
REM GENRE Jazz+Funk
REM DATE 1977
REM DISCID 46087506
REM COMMENT "ExactAudioCopy v1.0b3"
PERFORMER "Gary Bartz"
TITLE "Music Is My Sanctuary"
FILE "01 - Music Is My Sanctuary.wav" WAVE
  TRACK 01 AUDIO
    TITLE "Music Is My Sanctuary"
    PERFORMER "Gary Bartz"
    INDEX 01 00:00:00
  TRACK 02 AUDIO
    TITLE "Carnaval De L'Esprit"
    PERFORMER "Gary Bartz"
    INDEX 00 06:24:04
FILE "02 - Carnaval De L'Esprit.wav" WAVE
    INDEX 01 00:00:00
  TRACK 03 AUDIO
    TITLE "Love Ballad"
    PERFORMER "Gary Bartz"
    INDEX 00 05:57:35
FILE "03 - Love Ballad.wav" WAVE
    INDEX 01 00:00:00
  TRACK 04 AUDIO
    TITLE "Swing Thing"
    PERFORMER "Gary Bartz"
    INDEX 00 04:12:12
FILE "04 - Swing Thing.wav" WAVE
    INDEX 01 00:00:00
  TRACK 05 AUDIO
    TITLE "Oo Baby Baby"
    PERFORMER "Gary Bartz"
    INDEX 00 06:53:03
FILE "05 - Oo Baby Baby.wav" WAVE
    INDEX 01 00:00:00
  TRACK 06 AUDIO
    TITLE "Macaroni"
    PERFORMER "Gary Bartz"
    INDEX 00 05:55:57
FILE "06 - Macaroni.wav" WAVE
    INDEX 01 00:00:00
Скачивание доступно после регистрации!!
Приватный:
Нет (DHT включён)
Размер:
306.62 Мб (321,513,770 байт) » файлов: 17
Участники:
0 раздают, 0 качают (0 участников всего)
Внешние участники:
5 раздают, 2 качают (7 участников всего) [ Обновить ]
08:55
576
Нет комментариев. Ваш будет первым!