Поиск

(Modern Creative, Contemporary Jazz) Ben Schachter (w/ Tim Hagans, Jef Lee Johnson, Jamaaladeen Tacuma) - Fractals - 1998, FLAC (tracks+.cue), lossless

(Modern Creative, Contemporary Jazz) Ben Schachter (w/ Tim Hagans, Jef Lee Johnson, Jamaaladeen Tacuma) - Fractals - 1998, FLAC (tracks+.cue), lossless
Треклист:
Ben Schachter / Fractals
Жанр: Modern Creative, Contemporary Jazz
Страна-производитель диска: US
Год издания: 1998
Издатель (лейбл): Ben Schachter / BEN-JAM Music
Номер по каталогу: BJCD 0333-1
Страна: US
Аудиокодек: FLAC (*.flac)
Тип рипа: tracks+.cue
Битрейт аудио: lossless
Продолжительность: 57:53
Источник (релизер): свой фирменный диск
Наличие сканов в содержимом раздачи:
Треклист:
1. Fractals (It Is...) 8:36
2. On The Ocean 7:29
3. Cowboy Song 4:21
4. Four Joe 4:57
5. Short Statement 0:33
6. Edward 8:57
7. That Thing 4:02
8. Glide 5:22
9. Ben & Paula's Garden 5:48
10. Fractals (...What It Is) 7:35
 
Лог создания рипа
Exact Audio Copy V1.0 beta 3 from 29. August 2011
EAC extraction logfile from 26. August 2013, 22:06
Ben Schachter / Fractals
Used drive : PIONEER DVD-RW DVR-115D Adapter: 0 ID: 0
Read mode : Secure
Utilize accurate stream : Yes
Defeat audio cache : Yes
Make use of C2 pointers : No
Read offset correction : 48
Overread into Lead-In and Lead-Out : No
Fill up missing offset samples with silence : Yes
Delete leading and trailing silent blocks : No
Null samples used in CRC calculations : Yes
Used interface : Installed external ASPI interface
Gap handling : Appended to previous track
Used output format : User Defined Encoder
Selected bitrate : 896 kBit/s
Quality : High
Add ID3 tag : No
Command line compressor : C:\Program Files\Exact Audio Copy\FLAC\FLAC.EXE
Additional command line options : -6 -V -T "ARTIST=%artist%" -T "TITLE=%title%" -T "ALBUM=%albumtitle%" -T "DATE=%year%" -T "TRACKNUMBER=%tracknr%" -T "GENRE=%genre%" -T "COMMENT=%comment%" -T "BAND=%albuminterpret%" -T "COMPOSER=%composer%" %haslyrics%--tag-from-file=LYRICS="%lyricsfile%"%haslyrics% -T "DISCNUMBER=%cdnumber%" -T "TOTALDISCS=%totalcds%" -T "TOTALTRACKS=%numtracks%" %hascover%--picture="%coverfile%"%hascover% %source% -o %dest%
TOC of the extracted CD
Track | Start | Length | Start sector | End sector
---------------------------------------------------------
1 | 0:00.00 | 8:38.15 | 0 | 38864
2 | 8:38.15 | 7:29.10 | 38865 | 72549
3 | 16:07.25 | 4:20.57 | 72550 | 92106
4 | 20:28.07 | 4:58.73 | 92107 | 114529
5 | 25:27.05 | 0:35.42 | 114530 | 117196
6 | 26:02.47 | 8:59.05 | 117197 | 157626
7 | 35:01.52 | 4:04.10 | 157627 | 175936
8 | 39:05.62 | 5:24.30 | 175937 | 200266
9 | 44:30.17 | 5:48.15 | 200267 | 226381
10 | 50:18.32 | 7:35.40 | 226382 | 260546
Track 1
Filename D:\zzz\01 - Fractals (It Is...).wav
Pre-gap length 0:00:02.00
Peak level 97.8 %
Extraction speed 5.0 X
Track quality 100.0 %
Test CRC BB23B950
Copy CRC BB23B950
Track not present in AccurateRip database
Copy OK
Track 2
Filename D:\zzz\02 - On The Ocean.wav
Pre-gap length 0:00:02.10
Peak level 97.7 %
Extraction speed 5.8 X
Track quality 100.0 %
Test CRC FA29800D
Copy CRC FA29800D
Track not present in AccurateRip database
Copy OK
Track 3
Filename D:\zzz\03 - Cowboy Song.wav
Peak level 82.0 %
Extraction speed 6.0 X
Track quality 100.0 %
Test CRC A04E9263
Copy CRC A04E9263
Track not present in AccurateRip database
Copy OK
Track 4
Filename D:\zzz\04 - Four Joe.wav
Peak level 93.7 %
Extraction speed 6.5 X
Track quality 100.0 %
Test CRC C9074257
Copy CRC C9074257
Track not present in AccurateRip database
Copy OK
Track 5
Filename D:\zzz\05 - A Short Statement.wav
Pre-gap length 0:00:01.28
Peak level 84.6 %
Extraction speed 3.6 X
Track quality 100.0 %
Test CRC F27D9EC6
Copy CRC F27D9EC6
Track not present in AccurateRip database
Copy OK
Track 6
Filename D:\zzz\06 - Edward.wav
Pre-gap length 0:00:02.27
Peak level 96.9 %
Extraction speed 7.3 X
Track quality 100.0 %
Test CRC 4C4DF6B5
Copy CRC 4C4DF6B5
Track not present in AccurateRip database
Copy OK
Track 7
Filename D:\zzz\07 - That Thing.wav
Pre-gap length 0:00:01.50
Peak level 99.9 %
Extraction speed 7.2 X
Track quality 100.0 %
Test CRC C575B6F3
Copy CRC C575B6F3
Track not present in AccurateRip database
Copy OK
Track 8
Filename D:\zzz\08 - Glide.wav
Pre-gap length 0:00:01.47
Peak level 97.9 %
Extraction speed 7.6 X
Track quality 100.0 %
Test CRC 555CF71C
Copy CRC 555CF71C
Track not present in AccurateRip database
Copy OK
Track 9
Filename D:\zzz\09 - Ben & Paula's Garden.wav
Pre-gap length 0:00:02.07
Peak level 98.8 %
Extraction speed 8.1 X
Track quality 100.0 %
Test CRC A60B5273
Copy CRC A60B5273
Track not present in AccurateRip database
Copy OK
Track 10
Filename D:\zzz\10 - Fractals (...What It Is).wav
Peak level 96.5 %
Extraction speed 8.0 X
Track quality 99.9 %
Test CRC 6C385FBC
Copy CRC 6C385FBC
Track not present in AccurateRip database
Copy OK
None of the tracks are present in the AccurateRip database
No errors occurred
End of status report
==== Log checksum A3BE4E15F2930A8A1D06A5960E02AA3D6F8F692B5C903679F3B500AEDFB290C1 ====
 
Содержание индексной карты (.CUE)
REM GENRE "Modern Creative"
REM DATE 1998
REM DISCID 740D910A
REM COMMENT "ExactAudioCopy v1.0b3"
PERFORMER "Ben Schachter"
TITLE "Fractals"
FILE "01 - Fractals (It Is...).wav" WAVE
TRACK 01 AUDIO
TITLE "Fractals (It Is...)"
PERFORMER "Ben Schachter"
INDEX 01 00:00:00
TRACK 02 AUDIO
TITLE "On The Ocean"
PERFORMER "Ben Schachter"
INDEX 00 08:36:05
FILE "02 - On The Ocean.wav" WAVE
INDEX 01 00:00:00
FILE "03 - Cowboy Song.wav" WAVE
TRACK 03 AUDIO
TITLE "Cowboy Song"
PERFORMER "Ben Schachter"
INDEX 01 00:00:00
FILE "04 - Four Joe.wav" WAVE
TRACK 04 AUDIO
TITLE "Four Joe"
PERFORMER "Ben Schachter"
INDEX 01 00:00:00
TRACK 05 AUDIO
TITLE "A Short Statement"
PERFORMER "Ben Schachter"
INDEX 00 04:57:45
FILE "05 - A Short Statement.wav" WAVE
INDEX 01 00:00:00
TRACK 06 AUDIO
TITLE "Edward"
PERFORMER "Ben Schachter"
INDEX 00 00:33:15
FILE "06 - Edward.wav" WAVE
INDEX 01 00:00:00
TRACK 07 AUDIO
TITLE "That Thing"
PERFORMER "Ben Schachter"
INDEX 00 08:57:30
FILE "07 - That Thing.wav" WAVE
INDEX 01 00:00:00
TRACK 08 AUDIO
TITLE "Glide"
PERFORMER "Ben Schachter"
INDEX 00 04:02:38
FILE "08 - Glide.wav" WAVE
INDEX 01 00:00:00
TRACK 09 AUDIO
TITLE "Ben & Paula's Garden"
PERFORMER "Ben Schachter"
INDEX 00 05:22:23
FILE "09 - Ben & Paula's Garden.wav" WAVE
INDEX 01 00:00:00
FILE "10 - Fractals (...What It Is).wav" WAVE
TRACK 10 AUDIO
TITLE "Fractals (...What It Is)"
PERFORMER "Ben Schachter"
INDEX 01 00:00:00
 
Лог проверки качества
d:\>d:\aucdtect -d/-m0 d:\zzz\*.wav
auCDtect: CD records authenticity detector, version 0.8.2
Copyright (c) 2004 Oleg Berngardt. All rights reserved.
Copyright (c) 2004 Alexander Djourik. All rights reserved.
------------------------------------------------------------
Processing file: [01. Fractals (It Is...).wav]
------------------------------------------------------------
This track looks like CDDA with probability 100%
------------------------------------------------------------
Processing file: [02. On The Ocean.wav]
------------------------------------------------------------
This track looks like CDDA with probability 100%
------------------------------------------------------------
Processing file: [03. Cowboy Song.wav]
------------------------------------------------------------
This track looks like CDDA with probability 99%
------------------------------------------------------------
Processing file: [04. Four Joe.wav]
------------------------------------------------------------
This track looks like CDDA with probability 100%
------------------------------------------------------------
Processing file: [05. A Short Statement.wav]
------------------------------------------------------------
This track looks like CDDA with probability 100%
------------------------------------------------------------
Processing file: [06. Edward.wav]
------------------------------------------------------------
This track looks like CDDA with probability 99%
------------------------------------------------------------
Processing file: [07. That Thing.wav]
------------------------------------------------------------
This track looks like CDDA with probability 100%
------------------------------------------------------------
Processing file: [08. Glide.wav]
------------------------------------------------------------
This track looks like CDDA with probability 100%
------------------------------------------------------------
Processing file: [09. Ben & Paula's Garden.wav]
------------------------------------------------------------
This track looks like CDDA with probability 100%
------------------------------------------------------------
Processing file: [10. Fractals (...What It Is).wav]
------------------------------------------------------------
This track looks like CDDA with probability 100%
------------------------------------------------------------
Final Conclusion:
------------------------------------------------------------
These tracks looks like CDDA with probability 100%
Доп. информация:
 
Artist & Album Info
All compositions by Ben Schachter
Recorded by Gregg Mann at Sonic Recording Studios, Philadelphia, PA
Mixed by Gregg Mann & Ben Schachter at Harmolodic Studios, Harlem, NYC
Mastered by Allan Tucker at Foothill Digital, NYC
Produced by Ben Schachter
Designed in Ben & Paula's Garden
Fractal images courtesy of ArtMatrix (Ithaca, NY) (C)1997
Ben Schachter is a saxophonist/composer with original and compelling talents. He has recorded and performed worldwide with Jamaaladeen Tacuma, Tim Hagans, Jack Walrath, Sam Rivers, Uri Caine, George Garzone, Gerald Veasley, Jef Lee Johnson and many others.
Schachter has also been an active educator, having taught at Berklee College of Music, as a guest clinician in Europe, and presently at Temple University in Philadelphia.
FRACTALS is Ben Schachter's debut recording as a leader. It features Ben's unique compositions performed by an ensemble of important artists on the cutting edge of creative jazz; TIM HAGANS, JAMAALADEEN TACUMA, JEF LEE JOHNSON and others.
The sound of two basses drives much of the music on the CD, as does the stellar playing and soaring creativity of the soloists. The recording was engineered and mixed with help from Ornette Coleman's Harmolodic Studios. This record represents a truly fresh jazz conception.
The Philadelphia Inquirer says of FRACTALS: "It's rare that a recording is both experimental and accessible... Ben Schachter accomplishes this delicate feat on FRACTALS.... a slamming context for Schachter, guitarist Jef Lee Johnson and trumpeter Tim Hagans, who engage in some deep-end explorations. ...the influence of Thelonious Monk, yet a driving, more modern vibe...the title track is both harmonically adventurous and a rocking good tune."
 
Состав
Ben Schachter: saxophones
Jef Lee Johnson: guitar
Tim Hagans: trumpet
Tom Cohen: drums
Micah Jones: ac bass
Jamaaladeen Tacuma: e bass
08:22
580
Нет комментариев. Ваш будет первым!