Поиск

(New Age) S.E.N.S. (SENS) (Sound Earth Nature Spirit) [Collection] 25 альбомов, FLAC, APE, WV (tracks+.cue)

Треклист:
S.E.N.S. (SENS) (Sound Earth Nature Spirit) [Collection]
Жанр: New Age
Аудио кодек: FLAC, APE, WV
Тип рипа: tracks+.cue
Продолжительность: 00:20:52:24
S.E.N.S. был сформирован в 1988 Akihiko Fukaura и Yukari Katsuki. Первым их произведение - the NHK feature "the Silk Road of the sea" в 1988. Музыка написанная к фильму "A City of Sadness" получает на международном фестивале в Венеции Гран. Альбом при продажах европейских и азиатских странах получает хорошие отзовы и его называют большим открытием года.
В Японии признается "Инструментальном альбом Года" и получают награду "A Japan Gold Disk Grand-Prix" за альбомом "Transparent Music". Кроме того их награждают "Asunaro White Paper","God, Just a Little More". Принимают участие в записях для телевизионных сериалов, мультфильмов.
Их сайт: http://www.sens-company.com/jp/index.html
Трэклист:
 
Albums
 
3 (1989) - KYARA (ape)
1. S-Tone 00:54
2. Kyara 03:56
3. Mysterious Songbird 02:47
4. The Night Of Poya 03:59
5. Gajumaru 02:37
6. So Far 01:14
7. Bird In Flight 07:09
8. Aphrodite ~ Sea of Lapis Lazuli 04:07
9. The God Of The Sea ~ to Choko 04:17
10. O-Pura U-Pura 03:56
11. Blue Flower 04:19
12. Anton 06:10
 
audiochecker
AUDIOCHECKER v2.0 beta (build 457) - by Dester - opdester@freemail.hu
~~~~~~~~~~~~~~~~~~~~~~~~~~~~~~~~~~
-=== НЕ РЕДАКТИРУЙТЕ ЭТОТ ФАЙЛ! ===-
Путь: ...\3 (1989) - KYARA [ape]
01 -=- 01 S.E.N.S. - S-Tone.ape -=- CDDA (99%)
02 -=- 02 S.E.N.S. - Kyara.ape -=- CDDA (100%)
03 -=- 03 S.E.N.S. - Mysterious Songbird.ape -=- CDDA (92%)
04 -=- 04 S.E.N.S. - The Night Of Poya.ape -=- CDDA (100%)
05 -=- 05 S.E.N.S. - Gajumaru.ape -=- MPEG (95%)
06 -=- 06 S.E.N.S. - So Far.ape -=- CDDA (49%)
07 -=- 07 S.E.N.S. - Bird In Flight.ape -=- CDDA (100%)
08 -=- 08 S.E.N.S. - Aphrodite ~ Sea of Lapis Lazuli.ape -=- CDDA (100%)
09 -=- 09 S.E.N.S. - The God Of The Sea ~ to Choko.ape -=- CDDA (100%)
10 -=- 10 S.E.N.S. - O-Pura U-Pura.ape -=- CDDA (100%)
11 -=- 11 S.E.N.S. - Blue Flower.ape -=- CDDA (85%)
12 -=- 12 S.E.N.S. - Anton.ape -=- CDDA (100%)
Сводка 85,83% CDDA
227975124
 
Лог EAC
EAC extraction logfile from 9. August 2004, 2:29 for CD
Unknown Artist / Unknown Title
Used drive : LITE-ON LTR-32123S Adapter: 1 ID: 0
Read mode : Secure with NO C2, accurate stream, disable cache
Read offset correction : 0
Overread into Lead-In and Lead-Out : No
Used output format : Internal WAV Routines
44.100 Hz; 16 Bit; Stereo
Other options :
Fill up missing offset samples with silence : Yes
Delete leading and trailing silent blocks : No
Native Win32 interface for Win NT & 2000
Range status and errors
Selected range
Filename C:\Documents and Settings\Administrator\®а­±\CDImage.wav
Peak level 100.0 %
Range quality 100.0 %
CRC F19C39D9
Copy OK
No errors occured
End of status report
 
CUE
REM DATE 1989
REM GENRE "New Age"
PERFORMER "S.E.N.S."
TITLE "KYARA"
FILE "01 S.E.N.S. - S-Tone.wav" WAVE
TRACK 01 AUDIO
TITLE S-Tone
PERFORMER S.E.N.S.
INDEX 01 00:00:00
FILE "02 S.E.N.S. - Kyara.wav" WAVE
TRACK 02 AUDIO
TITLE Kyara
PERFORMER S.E.N.S.
PREGAP 00:00:02
INDEX 01 00:00:00
FILE "03 S.E.N.S. - Mysterious Songbird.wav" WAVE
TRACK 03 AUDIO
TITLE "Mysterious Songbird"
PERFORMER S.E.N.S.
PREGAP 00:03:00
INDEX 01 00:00:00
FILE "04 S.E.N.S. - The Night Of Poya.wav" WAVE
TRACK 04 AUDIO
TITLE "The Night Of Poya"
PERFORMER S.E.N.S.
PREGAP 00:00:02
INDEX 01 00:00:00
FILE "05 S.E.N.S. - Gajumaru.wav" WAVE
TRACK 05 AUDIO
TITLE Gajumaru
PERFORMER S.E.N.S.
PREGAP 00:00:02
INDEX 01 00:00:00
FILE "06 S.E.N.S. - So Far.wav" WAVE
TRACK 06 AUDIO
TITLE "So Far"
PERFORMER S.E.N.S.
PREGAP 00:03:00
INDEX 01 00:00:00
FILE "07 S.E.N.S. - Bird In Flight.wav" WAVE
TRACK 07 AUDIO
TITLE "Bird In Flight"
PERFORMER S.E.N.S.
PREGAP 00:00:03
INDEX 01 00:00:00
FILE "08 S.E.N.S. - Aphrodite ~ Sea of Lapis Lazuli.wav" WAVE
TRACK 08 AUDIO
TITLE "Aphrodite ~ Sea of Lapis Lazuli"
PERFORMER S.E.N.S.
PREGAP 00:04:00
INDEX 01 00:00:00
FILE "09 S.E.N.S. - The God Of The Sea ~ to Choko.wav" WAVE
TRACK 09 AUDIO
TITLE "The God Of The Sea ~ to Choko"
PERFORMER S.E.N.S.
PREGAP 00:00:02
INDEX 01 00:00:00
FILE "10 S.E.N.S. - O-Pura U-Pura.wav" WAVE
TRACK 10 AUDIO
TITLE "O-Pura U-Pura"
PERFORMER S.E.N.S.
PREGAP 00:00:03
INDEX 01 00:00:00
FILE "11 S.E.N.S. - Blue Flower.wav" WAVE
TRACK 11 AUDIO
TITLE "Blue Flower"
PERFORMER S.E.N.S.
PREGAP 00:04:00
INDEX 01 00:00:00
FILE "12 S.E.N.S. - Anton.wav" WAVE
TRACK 12 AUDIO
TITLE Anton
PERFORMER S.E.N.S.
PREGAP 00:00:03
INDEX 01 00:00:00
 
6 (1990) - Tsuki no ishi to chikyu no mizu (wv) (image+.cue)
1. Stone of the Moon and Water of the Earth 04:07
2. Against the Wind 06:06
3. Lunar Shrine 04:13
4. Fatalist 03:13
5. Tears 01:49
6. Sand Castle 01:21
7. Love in song 03:34
8. Stone of the Moon and Water of the Earth (Reprise) 01:20
9. Nocturne de six Juin 05:21
10. River 04:35
11. Pale Blue Story 04:13
 
auCDtect
-----------------------
DON'T MODIFY THIS FILE
-----------------------
PERFORMER: auCDtect Task Manager, ver. 1.0.3 B1 build 1.0.3.0
Copyright (c) 2008, 2009 y-soft. All rights reserved
http://y-soft.110mb.com
ANALYZER: auCDtect: CD records authenticity detector, version 0.8.2
Copyright (c) 2004 Oleg Berngardt. All rights reserved.
Copyright (c) 2004 Alexander Djourik. All rights reserved.
FILE: S.E.N.S. - Tsuki no ishi to chikyu no mizu.wv
Size: 214254739 Hash: 9030B3E1137A25B97CEDBB75B14106B4 Accuracy: -m0
Conclusion: CDDA 100%
Signature: 96AB19F1FE2312805D87A50E5AF0C60E5DB07738
 
Log EAC
Exact Audio Copy V0.99 prebeta 5 from 4. May 2009
EAC extraction logfile from 30. October 2009, 22:09
S.E.N.S. / Tsukinoishi to Chikyunomizu
Used drive : PIONEER DVD-RW DVR-215 Adapter: 3 ID: 0
Read mode : Secure
Utilize accurate stream : Yes
Defeat audio cache : Yes
Make use of C2 pointers : No
Read offset correction : 48
Overread into Lead-In and Lead-Out : No
Fill up missing offset samples with silence : Yes
Delete leading and trailing silent blocks : No
Null samples used in CRC calculations : Yes
Used interface : Native Win32 interface for Win NT & 2000
Used output format : User Defined Encoder
Selected bitrate : 128 kBit/s
Quality : High
Add ID3 tag : No
Command line compressor : C:\Program Files\Exact Audio Copy\wavpack.exe
Additional command line options : -w "Artist=%a" -w "Album=%g" -w "Year=%y" -w "Genre=%m" -f %s -m -i -q -x3 %d
TOC of the extracted CD
Track | Start | Length | Start sector | End sector
---------------------------------------------------------
1 | 0:00.00 | 4:07.02 | 0 | 18526
2 | 4:07.02 | 6:06.38 | 18527 | 46014
3 | 10:13.40 | 4:14.00 | 46015 | 65064
4 | 14:27.40 | 3:37.60 | 65065 | 81399
5 | 18:05.25 | 1:49.25 | 81400 | 89599
6 | 19:54.50 | 1:22.57 | 89600 | 95806
7 | 21:17.32 | 3:36.65 | 95807 | 112071
8 | 24:54.22 | 1:20.73 | 112072 | 118144
9 | 26:15.20 | 5:24.17 | 118145 | 142461
10 | 31:39.37 | 4:35.20 | 142462 | 163106
11 | 36:14.57 | 4:13.50 | 163107 | 182131
Range status and errors
Selected range
Filename D:\S.E.N.S. - Tsukinoishi to Chikyunomizu.wav
Peak level 99.9 %
Range quality 100.0 %
Copy CRC 69109DBB
Copy OK
No errors occurred
AccurateRip summary
Track 1 not present in database
Track 2 not present in database
Track 3 not present in database
Track 4 not present in database
Track 5 not present in database
Track 6 not present in database
Track 7 not present in database
Track 8 not present in database
Track 9 not present in database
Track 10 not present in database
Track 11 not present in database
None of the tracks are present in the AccurateRip database
End of status report
 
7 (1991) - SHIN BEAGLE-GO TANKENKI (New Beagle Explorational Journal) (ape)
1. Adventure for Beagle ~ Opening Theme 02:03
2. Exploration 04:22
3. Angel Fall 02:47
4. Peace 03:32
5. Parade ~ SE 00:41
6. Land of Wind 01:21
7. Scene #1 01:11
8. On The Road 01:24
9. Exploration #2 02:20
10. In The Sea 01:47
11. Theme for Darwin 03:12
12. Adventure for Beagle 04:27
 
audiochecker
AUDIOCHECKER v2.0 beta (build 457) - by Dester - opdester@freemail.hu
~~~~~~~~~~~~~~~~~~~~~~~~~~~~~~~~~~
-=== НЕ РЕДАКТИРУЙТЕ ЭТОТ ФАЙЛ! ===-
Путь: ...\7 (1991) - SHIN BEAGLE-GO TANKENKI (New Beagle Explorational Journal) [ape]
01 -=- 01 S.E.N.S. - Adventure for Beagle ~ Opening Theme.ape -=- CDDA (100%)
02 -=- 02 S.E.N.S. - Exploration.ape -=- CDDA (100%)
03 -=- 03 S.E.N.S. - Angel Fall.ape -=- CDDA (100%)
04 -=- 04 S.E.N.S. - Peace.ape -=- CDDA (100%)
05 -=- 05 S.E.N.S. - Parade ~ SE.ape -=- CDDA (100%)
06 -=- 06 S.E.N.S. - Land of Wind.ape -=- CDDA (100%)
07 -=- 07 S.E.N.S. - Scene # 1.ape -=- CDDA (100%)
08 -=- 08 S.E.N.S. - On The Road.ape -=- CDDA (100%)
09 -=- 09 S.E.N.S. - Exploration # 2.ape -=- CDDA (99%)
10 -=- 10 S.E.N.S. - In The Sea.ape -=- CDDA (100%)
11 -=- 11 S.E.N.S. - Theme for Darwin.ape -=- CDDA (100%)
12 -=- 12 S.E.N.S. - Adventure for Beagle.ape -=- CDDA (100%)
Сводка 99,92% CDDA
82335108
 
CUE
REM DATE 1991
REM GENRE "New Age"
PERFORMER S.E.N.S.
TITLE "SHIN BEAGLE-GO TANKENKI"
FILE "01 S.E.N.S. - Adventure for Beagle ~ Opening Theme.wav" WAVE
TRACK 01 AUDIO
TITLE "Adventure for Beagle ~ Opening Theme"
PERFORMER S.E.N.S.
INDEX 01 00:00:00
FILE "02 S.E.N.S. - Exploration.wav" WAVE
TRACK 02 AUDIO
TITLE Exploration
PERFORMER S.E.N.S.
INDEX 01 00:00:00
FILE "03 S.E.N.S. - Angel Fall.wav" WAVE
TRACK 03 AUDIO
TITLE "Angel Fall"
PERFORMER S.E.N.S.
INDEX 01 00:00:00
FILE "04 S.E.N.S. - Peace.wav" WAVE
TRACK 04 AUDIO
TITLE Peace
PERFORMER S.E.N.S.
INDEX 01 00:00:00
FILE "05 S.E.N.S. - Parade ~ SE.wav" WAVE
TRACK 05 AUDIO
TITLE "Parade ~ SE"
PERFORMER S.E.N.S.
INDEX 01 00:00:00
FILE "06 S.E.N.S. - Land of Wind.wav" WAVE
TRACK 06 AUDIO
TITLE "Land of Wind"
PERFORMER S.E.N.S.
INDEX 01 00:00:00
FILE "07 S.E.N.S. - Scene # 1.wav" WAVE
TRACK 07 AUDIO
TITLE "Scene # 1"
PERFORMER S.E.N.S.
INDEX 01 00:00:00
FILE "08 S.E.N.S. - On The Road.wav" WAVE
TRACK 08 AUDIO
TITLE "On The Road"
PERFORMER S.E.N.S.
INDEX 01 00:00:00
FILE "09 S.E.N.S. - Exploration # 2.wav" WAVE
TRACK 09 AUDIO
TITLE "Exploration # 2"
PERFORMER S.E.N.S.
INDEX 01 00:00:00
FILE "10 S.E.N.S. - In The Sea.wav" WAVE
TRACK 10 AUDIO
TITLE "In The Sea"
PERFORMER S.E.N.S.
INDEX 01 00:00:00
FILE "11 S.E.N.S. - Theme for Darwin.wav" WAVE
TRACK 11 AUDIO
TITLE "Theme for Darwin"
PERFORMER S.E.N.S.
INDEX 01 00:00:00
FILE "12 S.E.N.S. - Adventure for Beagle.wav" WAVE
TRACK 12 AUDIO
TITLE "Adventure for Beagle"
PERFORMER S.E.N.S.
INDEX 01 00:00:00
 
12 (1993) - ASUNARO HAKUSHO (Asunaro White Paper) (ape)
1. Prologue 02:08
2. Requiem ~ The Passing of the Morning 05:12
3. Tomorrow's Wind 03:49
4. Like the Wind ~ Guitar Version 02:17
5. Closed Door of 110 01:40
6. Fake 03:25
7. Like the Wind ~ Main Theme 05:04
8. Jesus, Joy Of Man's Desiring ~ Harp Version 03:19
9. Thought 01:11
10. True Love ~ Instrumental Version 05:23
11. Stairs of Time 03:38
12. Reminiscence 06:09
 
audiochecker
AUDIOCHECKER v2.0 beta (build 457) - by Dester - opdester@freemail.hu
~~~~~~~~~~~~~~~~~~~~~~~~~~~~~~~~~~
-=== НЕ РЕДАКТИРУЙТЕ ЭТОТ ФАЙЛ! ===-
Путь: ...\12 (1993) - ASUNARO HAKUSHO (Asunaro White Paper) [ape]
01 -=- 01 S.E.N.S. - Prologue.ape -=- CDDA (100%)
02 -=- 02 S.E.N.S. - Requiem ~ The Passing of the Morning.ape -=- CDDA (100%)
03 -=- 03 S.E.N.S. - Tomorrow's Wind.ape -=- CDDA (100%)
04 -=- 04 S.E.N.S. - Like the Wind ~ Guitar Version.ape -=- CDDA (100%)
05 -=- 05 S.E.N.S. - Closed Door of 110.ape -=- CDDA (100%)
06 -=- 06 S.E.N.S. - Fake.ape -=- CDDA (100%)
07 -=- 07 S.E.N.S. - Like the Wind ~Main Theme.ape -=- CDDA (100%)
08 -=- 08 S.E.N.S. - Jesus, Joy Of Man's Desiring ~ Harp Version.ape -=- CDDA (100%)
09 -=- 09 S.E.N.S. - Thought.ape -=- CDDA (100%)
10 -=- 10 S.E.N.S. - True Love ~ Instrumental Version.ape -=- MPEG (80%)
11 -=- 11 S.E.N.S. - Stairs of Time.ape -=- CDDA (43%)
12 -=- 12 S.E.N.S. - Reminiscence.ape -=- CDDA (100%)
Сводка 88,58% CDDA
179790772
 
CUE
REM DATE 1993
REM GENRE "New Age"
PERFORMER S.E.N.S.
TITLE "ASUNARO HAKUSHO (Asunaro White Paper)"
FILE "01 S.E.N.S. - Prologue.wav" WAVE
TRACK 01 AUDIO
TITLE Prologue
PERFORMER S.E.N.S.
INDEX 01 00:00:00
FILE "02 S.E.N.S. - Requiem ~ The Passing of the Morning.wav" WAVE
TRACK 02 AUDIO
TITLE "Requiem ~ The Passing of the Morning"
PERFORMER S.E.N.S.
INDEX 01 00:00:00
FILE "03 S.E.N.S. - Tomorrow's Wind.wav" WAVE
TRACK 03 AUDIO
TITLE "Tomorrow's Wind"
PERFORMER S.E.N.S.
INDEX 01 00:00:00
FILE "04 S.E.N.S. - Like the Wind ~ Guitar Version.wav" WAVE
TRACK 04 AUDIO
TITLE "Like the Wind ~ Guitar Version"
PERFORMER S.E.N.S.
INDEX 01 00:00:00
FILE "05 S.E.N.S. - Closed Door of 110.wav" WAVE
TRACK 05 AUDIO
TITLE "Closed Door of 110"
PERFORMER S.E.N.S.
INDEX 01 00:00:00
FILE "06 S.E.N.S. - Fake.wav" WAVE
TRACK 06 AUDIO
TITLE Fake
PERFORMER S.E.N.S.
INDEX 01 00:00:00
FILE "07 S.E.N.S. - Like the Wind ~Main Theme.wav" WAVE
TRACK 07 AUDIO
TITLE "Like the Wind ~Main Theme"
PERFORMER S.E.N.S.
INDEX 01 00:00:00
FILE "08 S.E.N.S. - Jesus, Joy Of Man's Desiring ~ Harp Version.wav" WAVE
TRACK 08 AUDIO
TITLE "Jesus, Joy Of Man's Desiring ~ Harp Version"
PERFORMER S.E.N.S.
INDEX 01 00:00:00
FILE "09 S.E.N.S. - Thought.wav" WAVE
TRACK 09 AUDIO
TITLE Thought
PERFORMER S.E.N.S.
INDEX 01 00:00:00
FILE "10 S.E.N.S. - True Love ~ Instrumental Version.wav" WAVE
TRACK 10 AUDIO
TITLE "True Love ~ Instrumental Version"
PERFORMER S.E.N.S.
INDEX 01 00:00:00
FILE "11 S.E.N.S. - Stairs of Time.wav" WAVE
TRACK 11 AUDIO
TITLE "Stairs of Time"
PERFORMER S.E.N.S.
INDEX 01 00:00:00
FILE "12 S.E.N.S. - Reminiscence.wav" WAVE
TRACK 12 AUDIO
TITLE Reminiscence
PERFORMER S.E.N.S.
INDEX 01 00:00:00
 
16 (1995) - Asian Blue (ape)
1. Asian Blue 04:11
2. Tin Field 04:01
3. Sican ~ Prayer 02:47
4. Ripple 02:34
5. Wonder Land 03:01
6. I, Kimono ~ Cat Whistle 02:20
7. Villa of the God of the Sea 02:30
8. Paradise 02:46
9. Sican 05:27
10. Reality 02:45
11. I, Kimono ~ Dance of Parting 03:49
12. Asian Blue ~ Sea where swims the moon 06:11
 
audiochecker
AUDIOCHECKER v2.0 beta (build 457) - by Dester - opdester@freemail.hu
~~~~~~~~~~~~~~~~~~~~~~~~~~~~~~~~~~
-=== НЕ РЕДАКТИРУЙТЕ ЭТОТ ФАЙЛ! ===-
Путь: ...\16 (1995) - Asian Blue [ape]
01 -=- 01 S.E.N.S. - Asian Blue.ape -=- CDDA (100%)
02 -=- 02 S.E.N.S. - Tin Field.ape -=- CDDA (100%)
03 -=- 03 S.E.N.S. - Sican ~ Prayer.ape -=- CDDA (100%)
04 -=- 04 S.E.N.S. - Ripple.ape -=- CDDA (85%)
05 -=- 05 S.E.N.S. - Wonder Land.ape -=- CDDA (100%)
06 -=- 06 S.E.N.S. - I, Kimono ~ Cat Whistle.ape -=- CDDA (94%)
07 -=- 07 S.E.N.S. - Villa of the God of the Sea.ape -=- CDDA (94%)
08 -=- 08 S.E.N.S. - Paradise.ape -=- CDDA (100%)
09 -=- 09 S.E.N.S. - Sican.ape -=- CDDA (100%)
10 -=- 10 S.E.N.S. - Reality.ape -=- CDDA (100%)
11 -=- 11 S.E.N.S. - I, Kimono ~ Dance of Parting.ape -=- CDDA (100%)
12 -=- 12 S.E.N.S. - Asian Blue ~ Sea where swims the moon.ape -=- CDDA (100%)
Сводка 97,75% CDDA
5515572
 
CUE
REM DATE 1995
REM GENRE "New Age"
PERFORMER S.E.N.S.
TITLE "Asian Blue"
FILE "01 S.E.N.S. - Asian Blue.wav" WAVE
TRACK 01 AUDIO
TITLE "Asian Blue"
PERFORMER S.E.N.S.
INDEX 01 00:00:00
FILE "02 S.E.N.S. - Tin Field.wav" WAVE
TRACK 02 AUDIO
TITLE "Tin Field"
PERFORMER S.E.N.S.
INDEX 01 00:00:00
FILE "03 S.E.N.S. - Sican ~ Prayer.wav" WAVE
TRACK 03 AUDIO
TITLE "Sican ~ Prayer"
PERFORMER S.E.N.S.
INDEX 01 00:00:00
FILE "04 S.E.N.S. - Ripple.wav" WAVE
TRACK 04 AUDIO
TITLE Ripple
PERFORMER S.E.N.S.
INDEX 01 00:00:00
FILE "05 S.E.N.S. - Wonder Land.wav" WAVE
TRACK 05 AUDIO
TITLE "Wonder Land"
PERFORMER S.E.N.S.
INDEX 01 00:00:00
FILE "06 S.E.N.S. - I, Kimono ~ Cat Whistle.wav" WAVE
TRACK 06 AUDIO
TITLE "I, Kimono ~ Cat Whistle"
PERFORMER S.E.N.S.
INDEX 01 00:00:00
FILE "07 S.E.N.S. - Villa of the God of the Sea.wav" WAVE
TRACK 07 AUDIO
TITLE "Villa of the God of the Sea"
PERFORMER S.E.N.S.
INDEX 01 00:00:00
FILE "08 S.E.N.S. - Paradise.wav" WAVE
TRACK 08 AUDIO
TITLE Paradise
PERFORMER S.E.N.S.
INDEX 01 00:00:00
FILE "09 S.E.N.S. - Sican.wav" WAVE
TRACK 09 AUDIO
TITLE Sican
PERFORMER S.E.N.S.
INDEX 01 00:00:00
FILE "10 S.E.N.S. - Reality.wav" WAVE
TRACK 10 AUDIO
TITLE Reality
PERFORMER S.E.N.S.
INDEX 01 00:00:00
FILE "11 S.E.N.S. - I, Kimono ~ Dance of Parting.wav" WAVE
TRACK 11 AUDIO
TITLE "I, Kimono ~ Dance of Parting"
PERFORMER S.E.N.S.
INDEX 01 00:00:00
FILE "12 S.E.N.S. - Asian Blue ~ Sea where swims the moon.wav" WAVE
TRACK 12 AUDIO
TITLE "Asian Blue ~ Sea where swims the moon"
PERFORMER S.E.N.S.
INDEX 01 00:00:00
 
17 (1996) - Palace Memories (ape)
1. Time Slip 01:15
2. Palace Memories 05:01
3. Treasures 02:55
4. Magic Warriors 04:23
5. Imperial Vermillion 04:40
6. Palace Memories ~ Sunset 03:30
7. Chimes 02:12
8. Peace of Mind 03:38
9. The Dragon 03:25
10. Visionary 07:02
11. Palace Memories ~ Denouement 04:08
 
audiochecker
AUDIOCHECKER v2.0 beta (build 457) - by Dester - opdester@freemail.hu
~~~~~~~~~~~~~~~~~~~~~~~~~~~~~~~~~~
-=== НЕ РЕДАКТИРУЙТЕ ЭТОТ ФАЙЛ! ===-
Путь: ...\17 (1996) - Palace Memories [ape]
01 -=- 01 S.E.N.S. - Time Slip.APE -=- CDDA (100%)
02 -=- 02 S.E.N.S. - Palace Memories.APE -=- CDDA (85%)
03 -=- 03 S.E.N.S. - Tresures.APE -=- MPEG (90%)
04 -=- 04 S.E.N.S. - Magic Warriors.APE -=- CDDA (100%)
05 -=- 05 S.E.N.S. - Imperial Vermillion.APE -=- CDDA (100%)
06 -=- 06 S.E.N.S. - Palace Memories ~ Sunset.APE -=- CDDA (99%)
07 -=- 07 S.E.N.S. - Chimes.APE -=- CDDA (100%)
08 -=- 08 S.E.N.S. - Peace of Mind.APE -=- CDDA (100%)
09 -=- 09 S.E.N.S. - The Dragon.APE -=- CDDA (100%)
10 -=- 10 S.E.N.S. - Visionary.APE -=- CDDA (100%)
11 -=- 11 S.E.N.S. - Palace Memories ~ Denouement.APE -=- CDDA (100%)
Сводка 90,36% CDDA
197507972
 
CUE
REM DATE 1996
REM GENRE "New Age"
PERFORMER S.E.N.S.
TITLE "Palace Memories"
FILE "01 S.E.N.S. - Time Slip.wav" WAVE
TRACK 01 AUDIO
TITLE "Time Slip"
PERFORMER S.E.N.S.
INDEX 01 00:00:00
FILE "02 S.E.N.S. - Palace Memories.wav" WAVE
TRACK 02 AUDIO
TITLE "Palace Memories"
PERFORMER S.E.N.S.
INDEX 01 00:00:00
FILE "03 S.E.N.S. - Tresures.wav" WAVE
TRACK 03 AUDIO
TITLE Tresures
PERFORMER S.E.N.S.
INDEX 01 00:00:00
FILE "04 S.E.N.S. - Magic Warriors.wav" WAVE
TRACK 04 AUDIO
TITLE "Magic Warriors"
PERFORMER S.E.N.S.
INDEX 01 00:00:00
FILE "05 S.E.N.S. - Imperial Vermillion.wav" WAVE
TRACK 05 AUDIO
TITLE "Imperial Vermillion"
PERFORMER S.E.N.S.
INDEX 01 00:00:00
FILE "06 S.E.N.S. - Palace Memories ~ Sunset.wav" WAVE
TRACK 06 AUDIO
TITLE "Palace Memories ~ Sunset"
PERFORMER S.E.N.S.
INDEX 01 00:00:00
FILE "07 S.E.N.S. - Chimes.wav" WAVE
TRACK 07 AUDIO
TITLE Chimes
PERFORMER S.E.N.S.
INDEX 01 00:00:00
FILE "08 S.E.N.S. - Peace of Mind.wav" WAVE
TRACK 08 AUDIO
TITLE "Peace of Mind"
PERFORMER S.E.N.S.
INDEX 01 00:00:00
FILE "09 S.E.N.S. - The Dragon.wav" WAVE
TRACK 09 AUDIO
TITLE "The Dragon"
PERFORMER S.E.N.S.
INDEX 01 00:00:00
FILE "10 S.E.N.S. - Visionary.wav" WAVE
TRACK 10 AUDIO
TITLE Visionary
PERFORMER S.E.N.S.
INDEX 01 00:00:00
FILE "11 S.E.N.S. - Palace Memories ~ Denouement.wav" WAVE
TRACK 11 AUDIO
TITLE "Palace Memories ~ Denouement"
PERFORMER S.E.N.S.
INDEX 01 00:00:00
 
21 (1997) - Flying (ape)
1. Still 01:25
2. Flying 04:23
3. Heaven's Song ~ Whisper Vox 01:52
4. Nite Wing 01:55
5. Peep 03:05
6. Feel Me 03:19
7. Low down 01:48
8. Flying ~ Guitar 04:34
9. Do Not ~ Instrumental 02:22
10. Pain 03:36
11. Affinity 03:22
12. Heaven's Song 04:55
13. Flying ~ Piano 02:41
 
audiochecker
AUDIOCHECKER v2.0 beta (build 457) - by Dester - opdester@freemail.hu
~~~~~~~~~~~~~~~~~~~~~~~~~~~~~~~~~~
-=== НЕ РЕДАКТИРУЙТЕ ЭТОТ ФАЙЛ! ===-
Путь: ...\21 (1997) - Flying [ape]
01 -=- 01 S.E.N.S. - Still.ape -=- CDDA (99%)
02 -=- 02 S.E.N.S. - Flying.ape -=- CDDA (100%)
03 -=- 03 S.E.N.S. - Heaven's Song (Whisper Vox).ape -=- CDDA (100%)
04 -=- 04 S.E.N.S. - Nite Wing.ape -=- CDDA (100%)
05 -=- 05 S.E.N.S. - Peep.ape -=- CDDA (100%)
06 -=- 06 S.E.N.S. - Feel Me.ape -=- CDDA (100%)
07 -=- 07 S.E.N.S. - Low Down.ape -=- CDDA (100%)
08 -=- 08 S.E.N.S. - Flying (Guitar).ape -=- CDDA (100%)
09 -=- 09 S.E.N.S. - Do Not (Instrumental).ape -=- CDDA (100%)
10 -=- 10 S.E.N.S. - Pain.ape -=- CDDA (100%)
11 -=- 11 S.E.N.S. - Affinity.ape -=- CDDA (100%)
12 -=- 12 S.E.N.S. - Heaven's Song.ape -=- CDDA (100%)
13 -=- 13 S.E.N.S. - Flying (Piano).ape -=- CDDA (100%)
Сводка 99,92% CDDA
178825908
 
CUE
REM DATE 1997
REM GENRE "New Age"
PERFORMER S.E.N.S.
TITLE Flying
FILE "01 S.E.N.S. - Still.wav" WAVE
TRACK 01 AUDIO
TITLE Still
PERFORMER S.E.N.S.
INDEX 01 00:00:00
FILE "02 S.E.N.S. - Flying.wav" WAVE
TRACK 02 AUDIO
TITLE Flying
PERFORMER S.E.N.S.
INDEX 01 00:00:00
FILE "03 S.E.N.S. - Heaven's Song (Whisper Vox).wav" WAVE
TRACK 03 AUDIO
TITLE "Heaven's Song (Whisper Vox)"
PERFORMER S.E.N.S.
INDEX 01 00:00:00
FILE "04 S.E.N.S. - Nite Wing.wav" WAVE
TRACK 04 AUDIO
TITLE "Nite Wing"
PERFORMER S.E.N.S.
INDEX 01 00:00:00
FILE "05 S.E.N.S. - Peep.wav" WAVE
TRACK 05 AUDIO
TITLE Peep
PERFORMER S.E.N.S.
INDEX 01 00:00:00
FILE "06 S.E.N.S. - Feel Me.wav" WAVE
TRACK 06 AUDIO
TITLE "Feel Me"
PERFORMER S.E.N.S.
INDEX 01 00:00:00
FILE "07 S.E.N.S. - Low Down.wav" WAVE
TRACK 07 AUDIO
TITLE "Low Down"
PERFORMER S.E.N.S.
INDEX 01 00:00:00
FILE "08 S.E.N.S. - Flying (Guitar).wav" WAVE
TRACK 08 AUDIO
TITLE "Flying (Guitar)"
PERFORMER S.E.N.S.
INDEX 01 00:00:00
FILE "09 S.E.N.S. - Do Not (Instrumental).wav" WAVE
TRACK 09 AUDIO
TITLE "Do Not (Instrumental)"
PERFORMER S.E.N.S.
INDEX 01 00:00:00
FILE "10 S.E.N.S. - Pain.wav" WAVE
TRACK 10 AUDIO
TITLE Pain
PERFORMER S.E.N.S.
INDEX 01 00:00:00
FILE "11 S.E.N.S. - Affinity.wav" WAVE
TRACK 11 AUDIO
TITLE Affinity
PERFORMER S.E.N.S.
INDEX 01 00:00:00
FILE "12 S.E.N.S. - Heaven's Song.wav" WAVE
TRACK 12 AUDIO
TITLE "Heaven's Song"
PERFORMER S.E.N.S.
INDEX 01 00:00:00
FILE "13 S.E.N.S. - Flying (Piano).wav" WAVE
TRACK 13 AUDIO
TITLE "Flying (Piano)"
PERFORMER S.E.N.S.
INDEX 01 00:00:00
 
23 (1997) - L'oiseau Bleu (flac)
1. Act II 01:46
2. L'oiseau Bleu 05:02
3. To the North 04:32
4. Recollection 03:15
5. Illusion 03:29
6. Solitude 02:31
7. Bright Day 05:15
8. Wanderin' Destiny ~ Instrumental 03:05
9. To the South 04:52
10. L'oiseau Bleu ~ Guitare 03:07
11. Away from Home 04:42
 
audiochecker
AUDIOCHECKER v2.0 beta (build 457) - by Dester - opdester@freemail.hu
~~~~~~~~~~~~~~~~~~~~~~~~~~~~~~~~~~
-=== НЕ РЕДАКТИРУЙТЕ ЭТОТ ФАЙЛ! ===-
Путь: ...\23 (1997) - L'oiseau Bleu [flac]
01 -=- 01. S.E.N.S. - Act II.flac -=- CDDA (100%)
02 -=- 02. S.E.N.S. - L'oiseau Bleu.flac -=- CDDA (100%)
03 -=- 03. S.E.N.S. - To the North.flac -=- CDDA (99%)
04 -=- 04. S.E.N.S. - Recollection.flac -=- CDDA (99%)
05 -=- 05. S.E.N.S. - Illusion.flac -=- CDDA (100%)
06 -=- 06. S.E.N.S. - Solitude.flac -=- CDDA (100%)
07 -=- 07. S.E.N.S. - Bright Day.flac -=- CDDA (100%)
08 -=- 08. S.E.N.S. - Wanderin' Destiny - Instrumental.flac -=- CDDA (100%)
09 -=- 09. S.E.N.S. - To the South.flac -=- CDDA (100%)
10 -=- 10. S.E.N.S. - L'oiseau Bleu - Guitare.flac -=- CDDA (100%)
11 -=- 11. S.E.N.S. - Away from Home.flac -=- CDDA (99%)
Сводка 99,73% CDDA
79964996
 
CUE
REM DATE 1997
REM GENRE "Instrumental"
PERFORMER "S.E.N.S."
TITLE "L'oiseau Bleu"
FILE "01. S.E.N.S. - Act II.wav" WAVE
TRACK 01 AUDIO
TITLE "Act II"
PERFORMER "S.E.N.S."
INDEX 01 00:00:00
FILE "02. S.E.N.S. - L'oiseau Bleu.wav" WAVE
TRACK 02 AUDIO
TITLE "L'oiseau Bleu"
PERFORMER "S.E.N.S."
INDEX 01 00:00:00
FILE "03. S.E.N.S. - To the North.wav" WAVE
TRACK 03 AUDIO
TITLE "To the North"
PERFORMER "S.E.N.S."
INDEX 01 00:00:00
FILE "04. S.E.N.S. - Recollection.wav" WAVE
TRACK 04 AUDIO
TITLE "Recollection"
PERFORMER "S.E.N.S."
INDEX 01 00:00:00
FILE "05. S.E.N.S. - Illusion.wav" WAVE
TRACK 05 AUDIO
TITLE "Illusion"
PERFORMER "S.E.N.S."
INDEX 01 00:00:00
FILE "06. S.E.N.S. - Solitude.wav" WAVE
TRACK 06 AUDIO
TITLE "Solitude"
PERFORMER "S.E.N.S."
INDEX 01 00:00:00
FILE "07. S.E.N.S. - Bright Day.wav" WAVE
TRACK 07 AUDIO
TITLE "Bright Day"
PERFORMER "S.E.N.S."
INDEX 01 00:00:00
FILE "08. S.E.N.S. - Wanderin' Destiny - Instrumental.wav" WAVE
TRACK 08 AUDIO
TITLE "Wanderin' Destiny - Instrumental"
PERFORMER "S.E.N.S."
INDEX 01 00:00:00
FILE "09. S.E.N.S. - To the South.wav" WAVE
TRACK 09 AUDIO
TITLE "To the South"
PERFORMER "S.E.N.S."
INDEX 01 00:00:00
FILE "10. S.E.N.S. - L'oiseau Bleu - Guitare.wav" WAVE
TRACK 10 AUDIO
TITLE "L'oiseau Bleu - Guitare"
PERFORMER "S.E.N.S."
INDEX 01 00:00:00
FILE "11. S.E.N.S. - Away from Home.wav" WAVE
TRACK 11 AUDIO
TITLE "Away from Home"
PERFORMER "S.E.N.S."
INDEX 01 00:00:00
 
25 (1998) - Wish (flac)
1. Wish to Wish 03:00
2. Fleeting Dreams 03:50
3. Brightness 03:40
4. Wish ~ piano 01:35
5. Wish ~ relief 02:46
6. Fleeting Dreams ~ darkness 02:07
7. Fleeting Dreams ~ winds 01:54
8. Kirara ~ piano 03:10
9. I for You ~ instrumental 02:58
10. Brightness ~ angel 03:35
11. Perplexity 02:17
12. Wish 05:27
 
audiochecker
AUDIOCHECKER v2.0 beta (build 457) - by Dester - opdester@freemail.hu
~~~~~~~~~~~~~~~~~~~~~~~~~~~~~~~~~~
-=== НЕ РЕДАКТИРУЙТЕ ЭТОТ ФАЙЛ! ===-
Путь: ...\25 (1998) - Wish [flac]
01 -=- 01 S.E.N.S. - Wish to Wish.flac -=- CDDA (100%)
02 -=- 02 S.E.N.S. - Fleeting Dreams.flac -=- CDDA (99%)
03 -=- 03 S.E.N.S. - Brightness.flac -=- CDDA (100%)
04 -=- 04 S.E.N.S. - Wish ~ piano.flac -=- CDDA (100%)
05 -=- 05 S.E.N.S. - Wish ~ relief.flac -=- CDDA (100%)
06 -=- 06 S.E.N.S. - Fleeting Dreams ~ darkness.flac -=- CDDA (100%)
07 -=- 07 S.E.N.S. - Fleeting Dreams ~ winds.flac -=- CDDA (100%)
08 -=- 08 S.E.N.S. - Kirara ~ piano.flac -=- CDDA (100%)
09 -=- 09 S.E.N.S. - I for You ~ instrumental.flac -=- CDDA (100%)
10 -=- 10 S.E.N.S. - Brightness ~ angel.flac -=- CDDA (87%)
11 -=- 11 S.E.N.S. - Perplexity.flac -=- CDDA (100%)
12 -=- 12 S.E.N.S. - Wish.flac -=- CDDA (100%)
Сводка 98,83% CDDA
138684756
 
CUE
REM DATE 1998
REM GENRE "New Age"
PERFORMER "S.E.N.S."
TITLE "Wish"
FILE "01 S.E.N.S. - Wish to Wish.wav" WAVE
TRACK 01 AUDIO
TITLE "Wish to Wish"
PERFORMER "S.E.N.S."
INDEX 01 00:00:00
FILE "02 S.E.N.S. - Fleeting Dreams.wav" WAVE
TRACK 02 AUDIO
TITLE "Fleeting Dreams"
PERFORMER "S.E.N.S."
INDEX 01 00:00:00
FILE "03 S.E.N.S. - Brightness.wav" WAVE
TRACK 03 AUDIO
TITLE "Brightness"
PERFORMER "S.E.N.S."
INDEX 01 00:00:00
FILE "04 S.E.N.S. - Wish ~ piano.wav" WAVE
TRACK 04 AUDIO
TITLE "Wish ~ piano"
PERFORMER "S.E.N.S."
INDEX 01 00:00:00
FILE "05 S.E.N.S. - Wish ~ relief.wav" WAVE
TRACK 05 AUDIO
TITLE "Wish ~ relief"
PERFORMER "S.E.N.S."
INDEX 01 00:00:00
FILE "06 S.E.N.S. - Fleeting Dreams ~ darkness.wav" WAVE
TRACK 06 AUDIO
TITLE "Fleeting Dreams ~ darkness"
PERFORMER "S.E.N.S."
INDEX 01 00:00:00
FILE "07 S.E.N.S. - Fleeting Dreams ~ winds.wav" WAVE
TRACK 07 AUDIO
TITLE "Fleeting Dreams ~ winds"
PERFORMER "S.E.N.S."
INDEX 01 00:00:00
FILE "08 S.E.N.S. - Kirara ~ piano.wav" WAVE
TRACK 08 AUDIO
TITLE "Kirara ~ piano"
PERFORMER "S.E.N.S."
INDEX 01 00:00:00
FILE "09 S.E.N.S. - I for You ~ instrumental.wav" WAVE
TRACK 09 AUDIO
TITLE "I for You ~ instrumental"
PERFORMER "S.E.N.S."
INDEX 01 00:00:00
FILE "10 S.E.N.S. - Brightness ~ angel.wav" WAVE
TRACK 10 AUDIO
TITLE "Brightness ~ angel"
PERFORMER "S.E.N.S."
INDEX 01 00:00:00
FILE "11 S.E.N.S. - Perplexity.wav" WAVE
TRACK 11 AUDIO
TITLE "Perplexity"
PERFORMER "S.E.N.S."
INDEX 01 00:00:00
FILE "12 S.E.N.S. - Wish.wav" WAVE
TRACK 12 AUDIO
TITLE "Wish"
PERFORMER "S.E.N.S."
INDEX 01 00:00:00
 
32 (2002) - Heart (flac)
1. Pale Crimson 03:43
2. Love 05:16
3. Jam Smile 03:29
4. Blessing of the Sun 04:26
5. Heart of Glass 04:49
6. Maria 04:51
7. Catnap 01:05
8. Peach Milk 03:25
9. Feel 01:19
10. Spiral 04:30
11. The Heart's Voice 05:48
 
audiochecker
AUDIOCHECKER v2.0 beta (build 457) - by Dester - opdester@freemail.hu
~~~~~~~~~~~~~~~~~~~~~~~~~~~~~~~~~~
-=== НЕ РЕДАКТИРУЙТЕ ЭТОТ ФАЙЛ! ===-
Путь: ...\32 (2002) - Heart [flac]
01 -=- 01 S.E.N.S. - Pale Crimson.flac -=- CDDA (100%)
02 -=- 02 S.E.N.S. - Love.flac -=- CDDA (100%)
03 -=- 03 S.E.N.S. - Jam Smile.flac -=- CDDA (100%)
04 -=- 04 S.E.N.S. - Blessing of the Sun.flac -=- CDDA (76%)
05 -=- 05 S.E.N.S. - Heart of Glass.flac -=- CDDA (100%)
06 -=- 06 S.E.N.S. - Maria.flac -=- CDDA (100%)
07 -=- 07 S.E.N.S. - Catnap.flac -=- CDDA (100%)
08 -=- 08 S.E.N.S. - Peach Milk.flac -=- CDDA (100%)
09 -=- 09 S.E.N.S. - Feel.flac -=- CDDA (54%)
10 -=- 10 S.E.N.S. - Spiral.flac -=- CDDA (100%)
11 -=- 11 S.E.N.S. - The Heart's Voice.flac -=- CDDA (99%)
Сводка 93,55% CDDA
111068884
 
CUE
REM DATE 2002
REM GENRE "New Age"
PERFORMER "S.E.N.S."
TITLE "Heart"
FILE "01 S.E.N.S. - Pale Crimson.wav" WAVE
TRACK 01 AUDIO
TITLE "Pale Crimson"
PERFORMER "S.E.N.S."
INDEX 01 00:00:00
FILE "02 S.E.N.S. - Love.wav" WAVE
TRACK 02 AUDIO
TITLE "Love"
PERFORMER "S.E.N.S."
INDEX 01 00:00:00
FILE "03 S.E.N.S. - Jam Smile.wav" WAVE
TRACK 03 AUDIO
TITLE "Jam Smile"
PERFORMER "S.E.N.S."
INDEX 01 00:00:00
FILE "04 S.E.N.S. - Blessing of the Sun.wav" WAVE
TRACK 04 AUDIO
TITLE "Blessing of the Sun"
PERFORMER "S.E.N.S."
INDEX 01 00:00:00
FILE "05 S.E.N.S. - Heart of Glass.wav" WAVE
TRACK 05 AUDIO
TITLE "Heart of Glass"
PERFORMER "S.E.N.S."
INDEX 01 00:00:00
FILE "06 S.E.N.S. - Maria.wav" WAVE
TRACK 06 AUDIO
TITLE "Maria"
PERFORMER "S.E.N.S."
INDEX 01 00:00:00
FILE "07 S.E.N.S. - Catnap.wav" WAVE
TRACK 07 AUDIO
TITLE "Catnap"
PERFORMER "S.E.N.S."
INDEX 01 00:00:00
FILE "08 S.E.N.S. - Peach Milk.wav" WAVE
TRACK 08 AUDIO
TITLE "Peach Milk"
PERFORMER "S.E.N.S."
INDEX 01 00:00:00
FILE "09 S.E.N.S. - Feel.wav" WAVE
TRACK 09 AUDIO
TITLE "Feel"
PERFORMER "S.E.N.S."
INDEX 01 00:00:00
FILE "10 S.E.N.S. - Spiral.wav" WAVE
TRACK 10 AUDIO
TITLE "Spiral"
PERFORMER "S.E.N.S."
INDEX 01 00:00:00
FILE "11 S.E.N.S. - The Heart's Voice.wav" WAVE
TRACK 11 AUDIO
TITLE "The Heart's Voice"
PERFORMER "S.E.N.S."
INDEX 01 00:00:00
 
34 (2003) - The Key (flac)
1. Turn the Key 06:05
2. Heart 04:53
3. Memories 03:25
4. Reason 04:02
5. Dreambound 04:33
6. So 02:20
7. Refrain 04:18
8. Little Bird 03:02
9. Teardrops 03:22
10. The Beginning 04:50
 
audiochecker
AUDIOCHECKER v2.0 beta (build 457) - by Dester - opdester@freemail.hu
~~~~~~~~~~~~~~~~~~~~~~~~~~~~~~~~~~
-=== НЕ РЕДАКТИРУЙТЕ ЭТОТ ФАЙЛ! ===-
Путь: ...\34 (2003) - The Key [flac]
01 -=- 01 S.E.N.S. - Turn the Key.flac -=- CDDA (100%)
02 -=- 02 S.E.N.S. - Heart.flac -=- CDDA (99%)
03 -=- 03 S.E.N.S. - Memories.flac -=- CDDA (99%)
04 -=- 04 S.E.N.S. - Reason.flac -=- CDDA (100%)
05 -=- 05 S.E.N.S. - Dreambound.flac -=- CDDA (99%)
06 -=- 06 S.E.N.S. - So.flac -=- CDDA (100%)
07 -=- 07 S.E.N.S. - Refrain.flac -=- CDDA (100%)
08 -=- 08 S.E.N.S. - Little Bird.flac -=- CDDA (99%)
09 -=- 09 S.E.N.S. - Teardrops.flac -=- CDDA (100%)
10 -=- 10 S.E.N.S. - The Beginning.flac -=- CDDA (100%)
Сводка 99,60% CDDA
6334820
 
CUE
REM ACCURATERIPID 00104dee-007f2040-8909950a
REM DATE 2003
REM GENRE "New Age"
PERFORMER "S.E.N.S."
TITLE "The Key"
FILE "01 S.E.N.S. - Turn the Key.wav" WAVE
TRACK 01 AUDIO
TITLE "Turn the Key"
PERFORMER "S.E.N.S."
INDEX 01 00:00:00
FILE "02 S.E.N.S. - Heart.wav" WAVE
TRACK 02 AUDIO
TITLE "Heart"
PERFORMER "S.E.N.S."
INDEX 01 00:00:00
FILE "03 S.E.N.S. - Memories.wav" WAVE
TRACK 03 AUDIO
TITLE "Memories"
PERFORMER "S.E.N.S."
INDEX 01 00:00:00
FILE "04 S.E.N.S. - Reason.wav" WAVE
TRACK 04 AUDIO
TITLE "Reason"
PERFORMER "S.E.N.S."
INDEX 01 00:00:00
FILE "05 S.E.N.S. - Dreambound.wav" WAVE
TRACK 05 AUDIO
TITLE "Dreambound"
PERFORMER "S.E.N.S."
INDEX 01 00:00:00
FILE "06 S.E.N.S. - So.wav" WAVE
TRACK 06 AUDIO
TITLE "So"
PERFORMER "S.E.N.S."
INDEX 01 00:00:00
FILE "07 S.E.N.S. - Refrain.wav" WAVE
TRACK 07 AUDIO
TITLE "Refrain"
PERFORMER "S.E.N.S."
INDEX 01 00:00:00
FILE "08 S.E.N.S. - Little Bird.wav" WAVE
TRACK 08 AUDIO
TITLE "Little Bird"
PERFORMER "S.E.N.S."
INDEX 01 00:00:00
FILE "09 S.E.N.S. - Teardrops.wav" WAVE
TRACK 09 AUDIO
TITLE "Teardrops"
PERFORMER "S.E.N.S."
INDEX 01 00:00:00
FILE "10 S.E.N.S. - The Beginning.wav" WAVE
TRACK 10 AUDIO
TITLE "The Beginning"
PERFORMER "S.E.N.S."
INDEX 01 00:00:00
 
38 (2006) - Yasumijikan (ape)
1. The Little Life 04:45
2. Friendship 03:44
3. Blessing of the Sun 04:26
4. Asu No Kaze 03:50
5. Bright Day 05:18
6. Jam Smile 03:26
7. Teardrops 03:24
8. Lost Memory 02:30
9. Little Miracles ~ Reverie 03:06
10. Way Out 04:44
11. Rock the Heart 05:26
 
audiochecker
AUDIOCHECKER v2.0 beta (build 457) - by Dester - opdester@freemail.hu
~~~~~~~~~~~~~~~~~~~~~~~~~~~~~~~~~~
-=== НЕ РЕДАКТИРУЙТЕ ЭТОТ ФАЙЛ! ===-
Путь: ...\38 (2006) - Yasumijikan [ape]
01 -=- 01 S.E.N.S. - The Little Life.ape -=- CDDA (99%)
02 -=- 02 S.E.N.S. - Friendship.ape -=- CDDA (100%)
03 -=- 03 S.E.N.S. - Blessing Of The Sun.ape -=- CDDA (100%)
04 -=- 04 S.E.N.S. - Asu No Kaze.ape -=- CDDA (100%)
05 -=- 05 S.E.N.S. - Bright Day.ape -=- CDDA (100%)
06 -=- 06 S.E.N.S. - Jam Smile.ape -=- CDDA (100%)
07 -=- 07 S.E.N.S. - Teardrops.ape -=- CDDA (99%)
08 -=- 08 S.E.N.S. - Lost Memory.ape -=- CDDA (42%)
09 -=- 09 S.E.N.S. - Little Miracles ~ reverie.ape -=- CDDA (100%)
10 -=- 10 S.E.N.S. - Way Out.ape -=- CDDA (100%)
11 -=- 11 S.E.N.S. - Rock The Heart.ape -=- CDDA (100%)
Сводка 94,55% CDDA
85235044
 
CUE
REM DATE 2006
REM GENRE "New Age"
REM DISCID 8F0A850B
REM COMMENT "ExactAudioCopy v0.99pb5"
PERFORMER S.E.N.S.
TITLE Yasumijikan
FILE "01 S.E.N.S. - The Little Life.wav" WAVE
TRACK 01 AUDIO
TITLE "The Little Life"
PERFORMER S.E.N.S.
INDEX 01 00:00:00
FILE "02 S.E.N.S. - Friendship.wav" WAVE
TRACK 02 AUDIO
TITLE Friendship
PERFORMER S.E.N.S.
PREGAP 00:01:29
INDEX 01 00:00:00
FILE "03 S.E.N.S. - Blessing Of The Sun.wav" WAVE
TRACK 03 AUDIO
TITLE "Blessing Of The Sun"
PERFORMER S.E.N.S.
INDEX 01 00:00:00
FILE "04 S.E.N.S. - Asu No Kaze.wav" WAVE
TRACK 04 AUDIO
TITLE "Asu No Kaze"
PERFORMER S.E.N.S.
PREGAP 00:00:56
INDEX 01 00:00:00
FILE "05 S.E.N.S. - Bright Day.wav" WAVE
TRACK 05 AUDIO
TITLE "Bright Day"
PERFORMER S.E.N.S.
PREGAP 00:00:59
INDEX 01 00:00:00
FILE "06 S.E.N.S. - Jam Smile.wav" WAVE
TRACK 06 AUDIO
TITLE "Jam Smile"
PERFORMER S.E.N.S.
PREGAP 00:02:19
INDEX 01 00:00:00
FILE "07 S.E.N.S. - Teardrops.wav" WAVE
TRACK 07 AUDIO
TITLE Teardrops
PERFORMER S.E.N.S.
PREGAP 00:02:09
INDEX 01 00:00:00
FILE "08 S.E.N.S. - Lost Memory.wav" WAVE
TRACK 08 AUDIO
TITLE "Lost Memory"
PERFORMER S.E.N.S.
INDEX 01 00:00:00
FILE "09 S.E.N.S. - Little Miracles ~ reverie.wav" WAVE
TRACK 09 AUDIO
TITLE "Little Miracles ~ reverie"
PERFORMER S.E.N.S.
PREGAP 00:00:57
INDEX 01 00:00:00
FILE "10 S.E.N.S. - Way Out.wav" WAVE
TRACK 10 AUDIO
TITLE "Way Out"
PERFORMER S.E.N.S.
PREGAP 00:01:24
INDEX 01 00:00:00
FILE "11 S.E.N.S. - Rock The Heart.wav" WAVE
TRACK 11 AUDIO
TITLE "Rock The Heart"
PERFORMER S.E.N.S.
PREGAP 00:00:56
INDEX 01 00:00:00
 
39 (2007) - Sound Earth Nature Spirit vol. SOUND (ape)
1. Love 05:13
2. Remembering Me 03:47
3. Your Scene 04:00
4. Bon Voyage 03:36
5. Rain 04:30
6. Feel Me 03:20
7. Space & Time 02:32
8. Rock the Heart 05:25
9. Palace Memories 05:05
10. L'oiseau Bleu 05:01
11. Heart 04:50
12. Happy Arabia 04:09
13. Anton 06:09
14. Peace of Mind 03:38
15. Crossing Over 06:43
16. The Little Life ~ Cat Patrol (Bonus Track) 02:19
 
audiochecker
AUDIOCHECKER v2.0 beta (build 457) - by Dester - opdester@freemail.hu
~~~~~~~~~~~~~~~~~~~~~~~~~~~~~~~~~~
-=== НЕ РЕДАКТИРУЙТЕ ЭТОТ ФАЙЛ! ===-
Путь: ...\39 (2007) - Sound Earth Nature Spirit vol. SOUND [ape]
01 -=- 01 S.E.N.S. - Love.ape -=- CDDA (100%)
02 -=- 02 S.E.N.S. - Remembering Me.ape -=- CDDA (100%)
03 -=- 03 S.E.N.S. - Your Scene.ape -=- CDDA (43%)
04 -=- 04 S.E.N.S. - Bon Voyage.ape -=- CDDA (99%)
05 -=- 05 S.E.N.S. - Rain.ape -=- CDDA (100%)
06 -=- 06 S.E.N.S. - Feel Me.ape -=- CDDA (100%)
07 -=- 07 S.E.N.S. - Space & Time.ape -=- CDDA (92%)
08 -=- 08 S.E.N.S. - Rock the Heart.ape -=- CDDA (100%)
09 -=- 09 S.E.N.S. - Palace Memories.ape -=- CDDA (92%)
10 -=- 10 S.E.N.S. - L'oiseau Bleu.ape -=- CDDA (99%)
11 -=- 11 S.E.N.S. - Heart.ape -=- CDDA (99%)
12 -=- 12 S.E.N.S. - Happy Arabia.ape -=- CDDA (100%)
13 -=- 13 S.E.N.S. - Anton.ape -=- CDDA (100%)
14 -=- 14 S.E.N.S. - Peace of Mind.ape -=- CDDA (100%)
15 -=- 15 S.E.N.S. - Crossing Over.ape -=- CDDA (100%)
16 -=- 16 S.E.N.S. - The Little Life (Cat Patrol).ape -=- CDDA (100%)
Сводка 95,25% CDDA
240245364
 
40 (2008) - Sound Earth Nature Spirit vol. EARTH (ape)
01. Wish 05:28
02. Sunshine 05:00
03. Stone of the Moon and Water of the Earth 03:38
04. Peace 03:36
05. The God of the Sea 05:35
06. Olympus 04:12
07. Edge of the Storm 04:30
08. Lunar Dream 05:20
09. In the Shining Season 05:36
10. Refrain 04:17
11. Asian Blue 04:14
12. Tin Field 04:00
13. Rainbow on the Moon 04:07
14. Forest of Memories 06:39
15. Love Song for You 05:27
 
audiochecker
AUDIOCHECKER v2.0 beta (build 457) - by Dester - opdester@freemail.hu
~~~~~~~~~~~~~~~~~~~~~~~~~~~~~~~~~~
-=== НЕ РЕДАКТИРУЙТЕ ЭТОТ ФАЙЛ! ===-
Путь: ...\40 (2008) - Sound Earth Nature Spirit vol. EARTH [APE]
001 -=- 01 S.E.N.S. - Wish.ape -=- CDDA (100%)
002 -=- 02 S.E.N.S. - Sunshine.ape -=- CDDA (100%)
003 -=- 03 S.E.N.S. - Stone of the Moon and Water of the Earth.ape -=- CDDA (100%)
004 -=- 04 S.E.N.S. - Peace.ape -=- CDDA (100%)
005 -=- 05 S.E.N.S. - The God of the Sea.ape -=- CDDA (100%)
006 -=- 06 S.E.N.S. - Olympus.ape -=- CDDA (100%)
007 -=- 07 S.E.N.S. - Edge of the Storm.ape -=- CDDA (100%)
008 -=- 08 S.E.N.S. - Lunar Dream.ape -=- CDDA (100%)
009 -=- 09 S.E.N.S. - In the Shining Season.ape -=- CDDA (100%)
010 -=- 10 S.E.N.S. - Refrain.ape -=- CDDA (99%)
011 -=- 11 S.E.N.S. - Asian Blue.ape -=- CDDA (100%)
012 -=- 12 S.E.N.S. - Tin Field.ape -=- MPEG (95%)
013 -=- 13 S.E.N.S. - Rainbow on the Moon.ape -=- CDDA (100%)
014 -=- 14 S.E.N.S. - Forest of Memories.ape -=- CDDA (100%)
015 -=- 15 S.E.N.S. - Love Song for You.ape -=- CDDA (100%)
Сводка 93,60% CDDA
149978980
 
41 (2008) - Sound Earth Nature Spirit vol. NATURE (ape)
1. Flying 04:26
2. Winds of Time (Hito To Toki To Kaze No Naka He) 05:17
3. Aurora 04:29
4. Alien Park 05:00
5. Kazemachi (NHK [Earth Watcher]) 03:40
6. The Little Life 04:42
7. Against the Wind 04:49
8. Kyara 03:59
9. Like The Wind (Kaze No You Ni) 05:05
10. Away From Home 04:44
11. Sky Remembrances (Sora No Kioku) 04:05
12. Brave Soul 04:47
13. Color (Shikisai) 04:32
14. Pale Blue Story 04:18
15. Asian Blue - Tsuki Ga Oyogu Umi 06:15
 
audiochecker
AUDIOCHECKER v2.0 beta (build 457) - by Dester - opdester@freemail.hu
~~~~~~~~~~~~~~~~~~~~~~~~~~~~~~~~~~
-=== НЕ РЕДАКТИРУЙТЕ ЭТОТ ФАЙЛ! ===-
Путь: ...\41 (2008) - Sound Earth Nature Spirit vol. NATURE [APE]
001 -=- 01 S.E.N.S. - Flying.ape -=- CDDA (100%)
002 -=- 02 S.E.N.S. - Hito To Toki To Kaze No Naka He.ape -=- CDDA (100%)
003 -=- 03 S.E.N.S. - Aurora.ape -=- CDDA (100%)
004 -=- 04 S.E.N.S. - Alien Park.ape -=- CDDA (100%)
005 -=- 05 S.E.N.S. - Nhk[Earth Watcher]- Kazemachi.ape -=- CDDA (100%)
006 -=- 06 S.E.N.S. - The Little Life.ape -=- CDDA (100%)
007 -=- 07 S.E.N.S. - Against the Wind.ape -=- CDDA (100%)
008 -=- 08 S.E.N.S. - Kyara.ape -=- CDDA (100%)
009 -=- 09 S.E.N.S. - Kaze No You Ni.ape -=- CDDA (100%)
010 -=- 10 S.E.N.S. - Away from Home.ape -=- CDDA (100%)
011 -=- 11 S.E.N.S. - Sora No Kioku.ape -=- CDDA (99%)
012 -=- 12 S.E.N.S. - Brave Soul.ape -=- CDDA (99%)
013 -=- 13 S.E.N.S. - Shikisai.ape -=- CDDA (100%)
014 -=- 14 S.E.N.S. - Pale Blue Story.ape -=- CDDA (99%)
015 -=- 15 S.E.N.S. - Asian Blue ~ Tsuki Ga Oyogu Umi.ape -=- CDDA (100%)
Сводка 99,80% CDDA
145414196
 
42 (2009) - Sound Earth Nature Spirit vol. SPIRIT (ape)
1. Aphrodite 04:36
2. The Choice Of Gentleness (Yasashisa No Sentaku) 05:02
3. Requiem 05:16
4. Forgiving 04:52
5. Magic Warriors 04:24
6. A City Of sadness (Hijou Joushi) 07:38
7. Missing You 03:35
8. Way Out 04:45
9. Heaven's Song 04:58
10. Teardrops 03:21
11. Forbidden Love 04:34
12. Maria 04:51
13. Sican 05:31
14. The Key 04:41
15. Birth 05:54
 
audiochecker
AUDIOCHECKER v2.0 beta (build 457) - by Dester - opdester@freemail.hu
~~~~~~~~~~~~~~~~~~~~~~~~~~~~~~~~~~
-=== НЕ РЕДАКТИРУЙТЕ ЭТОТ ФАЙЛ! ===-
Путь: ...\42 (2009) - Sound Earth Nature Spirit vol. SPIRIT [ape]
001 -=- 01 S.E.N.S. - Aphrodite.APE -=- CDDA (100%)
002 -=- 02 S.E.N.S. - Yasashisa No Sentaku.APE -=- CDDA (100%)
003 -=- 03 S.E.N.S. - Requiem.APE -=- CDDA (100%)
004 -=- 04 S.E.N.S. - Forgiving.APE -=- CDDA (100%)
005 -=- 05 S.E.N.S. - Magic Warriors.APE -=- CDDA (100%)
006 -=- 06 S.E.N.S. - Hijou Joushi.APE -=- CDDA (100%)
007 -=- 07 S.E.N.S. - Missing You.APE -=- CDDA (100%)
008 -=- 08 S.E.N.S. - Way Out.APE -=- CDDA (100%)
009 -=- 09 S.E.N.S. - Heaven's Song.APE -=- CDDA (100%)
010 -=- 10 S.E.N.S. - Teardrop.APE -=- CDDA (100%)
011 -=- 11 S.E.N.S. - Forbidden Love.APE -=- CDDA (100%)
012 -=- 12 S.E.N.S. - Maria.APE -=- CDDA (99%)
013 -=- 13 S.E.N.S. - Sican.APE -=- CDDA (100%)
014 -=- 14 S.E.N.S. - The Key.APE -=- CDDA (100%)
015 -=- 15 S.E.N.S. - Birth.APE -=- CDDA (100%)
Сводка 99,93% CDDA
145154052
 
Best
 
13 (1994) - STATEMENT (ape)
1. A City of Sadness 07:24
2. Winds a Time 05:05
3. Masala Tea Waltz 03:06
4. Against The Wind 04:53
5. Stone of the Moon and Water of the Earth 03:36
6. Birth 04:46
7. Remembering Me 03:45
8. Peace 03:36
9. Like the Wind 05:02
10. Love in Song 03:32
11. Jambia Dance 03:31
12. Choice of Gentleness 04:58
13. Adventure for Beagle 04:17
14. The God of the Sea 05:26
15. Aphrodite 04:34
 
audiochecker
AUDIOCHECKER v2.0 beta (build 457) - by Dester - opdester@freemail.hu
~~~~~~~~~~~~~~~~~~~~~~~~~~~~~~~~~~
-=== НЕ РЕДАКТИРУЙТЕ ЭТОТ ФАЙЛ! ===-
Путь: ...\13 (1994) - STATEMENT [ape]
01 -=- 01 S.E.N.S. - A City of Sadness.ape -=- CDDA (100%)
02 -=- 02 S.E.N.S. - Winds a Time.ape -=- CDDA (100%)
03 -=- 03 S.E.N.S. - Masala Tea Waltz.ape -=- CDDA (100%)
04 -=- 04 S.E.N.S. - Against The Wind.ape -=- CDDA (100%)
05 -=- 05 S.E.N.S. - Stone of the Moon and Water of the Earth.ape -=- CDDA (100%)
06 -=- 06 S.E.N.S. - Birth.ape -=- CDDA (100%)
07 -=- 07 S.E.N.S. - Remembering Me.ape -=- CDDA (100%)
08 -=- 08 S.E.N.S. - Peace.ape -=- CDDA (100%)
09 -=- 09 S.E.N.S. - Like the Wind.ape -=- CDDA (100%)
10 -=- 10 S.E.N.S. - Love in Song.ape -=- CDDA (100%)
11 -=- 11 S.E.N.S. - Jambia Dance.ape -=- MPEG (85%)
12 -=- 12 S.E.N.S. - Choice of Gentleness.ape -=- CDDA (100%)
13 -=- 13 S.E.N.S. - Adventure for Beagle.ape -=- CDDA (100%)
14 -=- 14 S.E.N.S. - The God of the Sea.ape -=- CDDA (100%)
15 -=- 15 S.E.N.S. - Aphrodite.ape -=- CDDA (100%)
Сводка 94,33% CDDA
203539380
 
29 (2000) - Tomei na Ongaku (Transparent Music) (ape)
1. Winds a Time 05:17
2. Remembering Me 03:47
3. Suite II ~ The Choice of Gentleness 05:01
4. Requiem 05:14
5. Love in Song 03:35
6. Peace 03:37
7. Sky Remembrances 04:05
8. In the Shining Season 05:34
9. L'oiseau Bleu 05:01
10. Wish to Wish 03:10
11. Flying 04:25
12. Heaven's Song ~ Whisper Vox 01:57
13. Forbidden love 04:33
14. Like the Wind 05:03
 
audiochecker
AUDIOCHECKER v2.0 beta (build 457) - by Dester - opdester@freemail.hu
~~~~~~~~~~~~~~~~~~~~~~~~~~~~~~~~~~
-=== НЕ РЕДАКТИРУЙТЕ ЭТОТ ФАЙЛ! ===-
Путь: ...\29 (2000) - Tomei na Ongaku (Transparent Music) [ape]
01 -=- 01 S.E.N.S. - Winds a Time.ape -=- CDDA (100%)
02 -=- 02 S.E.N.S. - Remembering Me.ape -=- CDDA (100%)
03 -=- 03 S.E.N.S. - Suite II ~ The Choice of Gentleness.ape -=- CDDA (99%)
04 -=- 04 S.E.N.S. - Requiem.ape -=- CDDA (100%)
05 -=- 05 S.E.N.S. - Love in Song.ape -=- CDDA (100%)
06 -=- 06 S.E.N.S. - Peace.ape -=- CDDA (100%)
07 -=- 07 S.E.N.S. - Sky Remembrances.ape -=- CDDA (99%)
08 -=- 08 S.E.N.S. - In the Shining Season.ape -=- CDDA (100%)
09 -=- 09 S.E.N.S. - L'oiseau Bleu.ape -=- CDDA (100%)
10 -=- 10 S.E.N.S. - Wish to Wish.ape -=- CDDA (86%)
11 -=- 11 S.E.N.S. - Flying.ape -=- CDDA (100%)
12 -=- 12 S.E.N.S. - Heaven's Song ~ Whisper Vox.ape -=- CDDA (100%)
13 -=- 13 S.E.N.S. - Forbidden love.ape -=- CDDA (100%)
14 -=- 14 S.E.N.S. - Like the Wind.ape -=- CDDA (100%)
Сводка 98,86% CDDA
61976644
 
30 (2000) - Tomei na Ongaku 2 (Transparent Music 2) (ape)
1. Aurora 04:31
2. Stone of the Moon and Water of the Earth 03:41
3. Boy 02:29
4. L'oiseau Bleu ~ Guitare 03:07
5. Affinity 03:21
6. Something in the Air 05:25
7. Your Scene 04:00
8. Prime Season 04:37
9. Feel Me 03:18
10. Lunar Dream 05:20
11. Afternoon Tea 05:14
12. Theme of Bunsei 05:24
13. Away from Home 04:42
14. Future 06:28
 
audiochecker
AUDIOCHECKER v2.0 beta (build 457) - by Dester - opdester@freemail.hu
~~~~~~~~~~~~~~~~~~~~~~~~~~~~~~~~~~
-=== НЕ РЕДАКТИРУЙТЕ ЭТОТ ФАЙЛ! ===-
Путь: ...\30 (2000) - Tomei na Ongaku 2 (Transparent Music 2) [ape]
01 -=- 01 S.E.N.S. - Aurora.ape -=- CDDA (100%)
02 -=- 02 S.E.N.S. - Stone of the Moon and Water of the Earth.ape -=- CDDA (100%)
03 -=- 03 S.E.N.S. - Boy.ape -=- CDDA (99%)
04 -=- 04 S.E.N.S. - L'oiseau Bleu ~ Guitare.ape -=- CDDA (100%)
05 -=- 05 S.E.N.S. - Affinity.ape -=- CDDA (100%)
06 -=- 06 S.E.N.S. - Something in the Air.ape -=- CDDA (100%)
07 -=- 07 S.E.N.S. - Your Scene.ape -=- CDDA (87%)
08 -=- 08 S.E.N.S. - Prime Season.ape -=- CDDA (100%)
09 -=- 09 S.E.N.S. - Feel Me.ape -=- CDDA (100%)
10 -=- 10 S.E.N.S. - Lunar Dream.ape -=- CDDA (99%)
11 -=- 11 S.E.N.S - Afternoon Tea.ape -=- CDDA (99%)
12 -=- 12 S.E.N.S. - Theme of Bunsei.ape -=- CDDA (42%)
13 -=- 13 S.E.N.S. - Away from Home.ape -=- CDDA (100%)
14 -=- 14 S.E.N.S. - Future.ape -=- CDDA (85%)
Сводка 93,64% CDDA
82619588
 
Log EAC
Exact Audio Copy V0.99 prebeta 5 from 4. May 2009
EAC extraction logfile from 6. September 2009, 23:32
S.E.N.S / Tomei na Ongaku 2
Used drive : PIONEER DVD-RW DVR-215 Adapter: 0 ID: 0
Read mode : Secure
Utilize accurate stream : Yes
Defeat audio cache : Yes
Make use of C2 pointers : No
Read offset correction : 48
Overread into Lead-In and Lead-Out : No
Fill up missing offset samples with silence : Yes
Delete leading and trailing silent blocks : No
Null samples used in CRC calculations : Yes
Used interface : Native Win32 interface for Win NT & 2000
Used output format : Monkey's Audio Lossless Encoder
Selected bitrate : Extra High Lossless Compression
Quality : High
Add ID3 tag : Yes
Command line compressor : C:\Program Files\Monkey's Audio\MAC.exe
TOC of the extracted CD
Track | Start | Length | Start sector | End sector
---------------------------------------------------------
1 | 0:00.00 | 4:32.10 | 0 | 20409
2 | 4:32.10 | 3:42.65 | 20410 | 37124
3 | 8:15.00 | 2:31.12 | 37125 | 48461
4 | 10:46.12 | 3:07.05 | 48462 | 62491
5 | 13:53.17 | 3:22.38 | 62492 | 77679
6 | 17:15.55 | 5:27.07 | 77680 | 102211
7 | 22:42.62 | 4:00.58 | 102212 | 120269
8 | 26:43.45 | 4:38.05 | 120270 | 141124
9 | 31:21.50 | 3:20.10 | 141125 | 156134
10 | 34:41.60 | 5:20.42 | 156135 | 180176
11 | 40:02.27 | 5:15.58 | 180177 | 203859
12 | 45:18.10 | 5:24.52 | 203860 | 228211
13 | 50:42.62 | 4:45.13 | 228212 | 249599
14 | 55:28.00 | 6:28.35 | 249600 | 278734
Range status and errors
Selected range
Filename D:\emule\APE\temp\S.E.N.S - Tomei na Ongaku 2.wav
Peak level 100.0 %
Range quality 99.9 %
Copy CRC 9F86E260
Copy OK
No errors occurred
End of status report
 
33 (2003) - Transparent Time (flac)
1. Act II 01:45
2. Kaze (Voice of Etsushi Toyokawa) 00
00:01
969
Нет комментариев. Ваш будет первым!