Поиск

(Post-Bop, Contemporary Jazz, Hard-Bop, Modern Jazz, Trumpet) [CD] Tim Hagans (Marc Copland, Drew Gress, Bill Stewart) - Beautiful Lily - 2005, FLAC (tracks+.cue), lossless

(Post-Bop, Contemporary Jazz, Hard-Bop, Modern Jazz, Trumpet) [CD] Tim Hagans (Marc Copland, Drew Gress, Bill Stewart) - Beautiful Lily - 2005, FLAC (tracks+.cue), lossless
Tim Hagans - Beautiful Lily
Жанр: Post-Bop, Contemporary Jazz, Hard-Bop, Modern Jazz, Trumpet
Носитель: CD
Страна-производитель диска (релиза): Germany
Год издания: 2005
Издатель (лейбл): Pirouet Records
Номер по каталогу: PIT3016
Страна исполнителя (группы): USA
Аудиокодек: FLAC (*.flac)
Тип рипа: tracks+.cue
Битрейт аудио: lossless
Продолжительность: 60:26
Источник (релизер): what.cd (hemminm)
Наличие сканов в содержимом раздачи: front, back
Треклист:
01. Prologue (01:54)
02. Space Dozen (07:31)
03. Beautiful Lily (08:08)
04. Doyle's Foil (05:49)
05. Interlude I (02:11)
06. The Sun At The Zenith (08:41)
07. Buck Eyes (05:35)
08. Interlude II (02:06)
09. Footprints (08:52)
10. Emazing (07:53)
11. Epilogue (01:46)
 
Лог создания рипа
Exact Audio Copy V1.0 beta 3 from 29. August 2011
EAC extraction logfile from 17. August 2015, 13:02
Tim Hagans / Beautiful Lily
Used drive  : MATSHITADVD-RAM UJ8C0   Adapter: 0  ID: 0
Read mode               : Secure
Utilize accurate stream : Yes
Defeat audio cache      : Yes
Make use of C2 pointers : No
Read offset correction                      : 103
Overread into Lead-In and Lead-Out          : No
Fill up missing offset samples with silence : Yes
Delete leading and trailing silent blocks   : No
Null samples used in CRC calculations       : Yes
Used interface                              : Native Win32 interface for Win NT & 2000
Gap handling                                : Appended to previous track
Used output format              : User Defined Encoder
Selected bitrate                : 1024 kBit/s
Quality                         : High
Add ID3 tag                     : No
Command line compressor         : C:\Program Files (x86)\Exact Audio Copy\Flac\flac.exe
Additional command line options : -8 -V -T "ARTIST=%artist%" -T "TITLE=%title%" -T "ALBUM=%albumtitle%" -T "DATE=%year%" -T "TRACKNUMBER=%tracknr%" -T "GENRE=%genre%" -T "PERFORMER=%albuminterpret%" -T "COMPOSER=%composer%" %haslyrics%--tag-from-file=LYRICS="%lyricsfile%"%haslyrics% -T "ALBUMARTIST=%albumartist%" -T "DISCNUMBER=%cdnumber%" -T "TOTALDISCS=%totalcds%" -T "TOTALTRACKS=%numtracks%" -T "COMMENT=%comment%" %source% -o %dest%
TOC of the extracted CD
     Track |   Start  |  Length  | Start sector | End sector
    ---------------------------------------------------------
        1  |  0:00.00 |  1:55.28 |         0    |     8652
        2  |  1:55.28 |  7:33.57 |      8653    |    42684
        3  |  9:29.10 |  8:10.23 |     42685    |    79457
        4  | 17:39.33 |  5:51.26 |     79458    |   105808
        5  | 23:30.59 |  2:11.54 |    105809    |   115687
        6  | 25:42.38 |  8:43.64 |    115688    |   154976
        7  | 34:26.27 |  5:38.02 |    154977    |   180328
        8  | 40:04.29 |  2:06.25 |    180329    |   189803
        9  | 42:10.54 |  8:54.57 |    189804    |   229910
       10  | 51:05.36 |  7:56.24 |    229911    |   265634
       11  | 59:01.60 |  1:45.57 |    265635    |   273566
Track  1
     Filename C:\Users\micha_000\Music\CDEX\01 - Prologue.wav
     Pre-gap length  0:00:02.00
     Peak level 55.0 %
     Extraction speed 2.1 X
     Track quality 100.0 %
     Test CRC 228E00B8
     Copy CRC 228E00B8
     Accurately ripped (confidence 2)  [F6FD052F]  (AR v2)
     Copy OK
Track  2
     Filename C:\Users\micha_000\Music\CDEX\02 - Space Dozen.wav
     Pre-gap length  0:00:01.20
     Peak level 97.4 %
     Extraction speed 3.0 X
     Track quality 100.0 %
     Test CRC 8ED2B9AC
     Copy CRC 8ED2B9AC
     Accurately ripped (confidence 2)  [96ECDEF1]  (AR v2)
     Copy OK
Track  3
     Filename C:\Users\micha_000\Music\CDEX\03 - Beautiful Lily.wav
     Pre-gap length  0:00:02.28
     Peak level 95.0 %
     Extraction speed 3.4 X
     Track quality 100.0 %
     Test CRC 159E66AD
     Copy CRC 159E66AD
     Accurately ripped (confidence 2)  [F4DD4482]  (AR v2)
     Copy OK
Track  4
     Filename C:\Users\micha_000\Music\CDEX\04 - Doyle's Foil.wav
     Pre-gap length  0:00:02.32
     Peak level 99.8 %
     Extraction speed 3.7 X
     Track quality 100.0 %
     Test CRC 8D221459
     Copy CRC 8D221459
     Accurately ripped (confidence 2)  [4385F996]  (AR v2)
     Copy OK
Track  5
     Filename C:\Users\micha_000\Music\CDEX\05 - Interlude I.wav
     Pre-gap length  0:00:02.12
     Peak level 67.4 %
     Extraction speed 3.3 X
     Track quality 100.0 %
     Test CRC A783AB59
     Copy CRC A783AB59
     Accurately ripped (confidence 2)  [D4A6EDA7]  (AR v2)
     Copy OK
Track  6
     Filename C:\Users\micha_000\Music\CDEX\06 - The Sun At The Zenith.wav
     Pre-gap length  0:00:00.41
     Peak level 99.2 %
     Extraction speed 4.2 X
     Track quality 100.0 %
     Test CRC EECBD116
     Copy CRC EECBD116
     Accurately ripped (confidence 2)  [0B1D37CF]  (AR v2)
     Copy OK
Track  7
     Filename C:\Users\micha_000\Music\CDEX\07 - Buck Eyes.wav
     Pre-gap length  0:00:02.37
     Peak level 99.6 %
     Extraction speed 4.4 X
     Track quality 100.0 %
     Test CRC 2BF22A2E
     Copy CRC 2BF22A2E
     Accurately ripped (confidence 2)  [A1C87255]  (AR v2)
     Copy OK
Track  8
     Filename C:\Users\micha_000\Music\CDEX\08 - Interlude II.wav
     Pre-gap length  0:00:02.37
     Peak level 77.8 %
     Extraction speed 3.8 X
     Track quality 100.0 %
     Test CRC 541DDDC2
     Copy CRC 541DDDC2
     Accurately ripped (confidence 2)  [511B3406]  (AR v2)
     Copy OK
Track  9
     Filename C:\Users\micha_000\Music\CDEX\09 - Footprints.wav
     Peak level 99.3 %
     Extraction speed 4.9 X
     Track quality 100.0 %
     Test CRC 3B51170D
     Copy CRC 3B51170D
     Accurately ripped (confidence 2)  [D625497D]  (AR v2)
     Copy OK
Track 10
     Filename C:\Users\micha_000\Music\CDEX\10 - Emazing.wav
     Pre-gap length  0:00:02.37
     Peak level 95.9 %
     Extraction speed 5.1 X
     Track quality 100.0 %
     Test CRC 4A747872
     Copy CRC 4A747872
     Accurately ripped (confidence 2)  [0CC4CEBF]  (AR v2)
     Copy OK
Track 11
     Filename C:\Users\micha_000\Music\CDEX\11 - Epilogue.wav
     Pre-gap length  0:00:03.50
     Peak level 76.5 %
     Extraction speed 4.2 X
     Track quality 100.0 %
     Test CRC 82F4E788
     Copy CRC 82F4E788
     Accurately ripped (confidence 2)  [957DAD16]  (AR v2)
     Copy OK
All tracks accurately ripped
No errors occurred
End of status report
==== Log checksum 2C763B5097E116BA75367A37E2882452AC94F036AB0CD058F0EDF3DEF6C2C552 ====
 
 
Содержание индексной карты (.CUE)
REM GENRE Jazz
REM DATE 2005
REM DISCID 7D0E3F0B
REM COMMENT "ExactAudioCopy v1.0b3"
PERFORMER "Tim Hagans"
TITLE "Beautiful Lily"
FILE "01 - Prologue.wav" WAVE
  TRACK 01 AUDIO
    TITLE "Prologue"
    PERFORMER "Tim Hagans"
    INDEX 01 00:00:00
  TRACK 02 AUDIO
    TITLE "Space Dozen"
    PERFORMER "Tim Hagans"
    INDEX 00 01:54:13
FILE "02 - Space Dozen.wav" WAVE
    INDEX 01 00:00:00
  TRACK 03 AUDIO
    TITLE "Beautiful Lily"
    PERFORMER "Tim Hagans"
    INDEX 00 07:31:36
FILE "03 - Beautiful Lily.wav" WAVE
    INDEX 01 00:00:00
  TRACK 04 AUDIO
    TITLE "Doyle's Foil"
    PERFORMER "Tim Hagans"
    INDEX 00 08:07:74
FILE "04 - Doyle's Foil.wav" WAVE
    INDEX 01 00:00:00
  TRACK 05 AUDIO
    TITLE "Interlude I"
    PERFORMER "Tim Hagans"
    INDEX 00 05:49:17
FILE "05 - Interlude I.wav" WAVE
    INDEX 01 00:00:00
  TRACK 06 AUDIO
    TITLE "The Sun At The Zenith"
    PERFORMER "Tim Hagans"
    INDEX 00 02:11:23
FILE "06 - The Sun At The Zenith.wav" WAVE
    INDEX 01 00:00:00
  TRACK 07 AUDIO
    TITLE "Buck Eyes"
    PERFORMER "Tim Hagans"
    INDEX 00 08:41:36
FILE "07 - Buck Eyes.wav" WAVE
    INDEX 01 00:00:00
  TRACK 08 AUDIO
    TITLE "Interlude II"
    PERFORMER "Tim Hagans"
    INDEX 00 05:35:49
FILE "08 - Interlude II.wav" WAVE
    INDEX 01 00:00:00
FILE "09 - Footprints.wav" WAVE
  TRACK 09 AUDIO
    TITLE "Footprints"
    PERFORMER "Tim Hagans"
    INDEX 01 00:00:00
  TRACK 10 AUDIO
    TITLE "Emazing"
    PERFORMER "Tim Hagans"
    INDEX 00 08:52:29
FILE "10 - Emazing.wav" WAVE
    INDEX 01 00:00:00
  TRACK 11 AUDIO
    TITLE "Epilogue"
    PERFORMER "Tim Hagans"
    INDEX 00 07:52:61
FILE "11 - Epilogue.wav" WAVE
    INDEX 01 00:00:00
 
 
Лог проверки качества
AUDIOCHECKER v2.0 beta (build 457) - by Dester - opdester@freemail.hu
~~~~~~~~~~~~~~~~~~~~~~~~~~~~~~~~~~
-=== DO NOT EDIT THIS FILE! ===-
Path: ...\Tim Hagans - Beautiful Lily (2005) [FLAC]
01 -=- 01 - Prologue.flac -=- CDDA (100%)
02 -=- 02 - Space Dozen.flac -=- CDDA (100%)
03 -=- 03 - Beautiful Lily.flac -=- CDDA (100%)
04 -=- 04 - Doyle's Foil.flac -=- CDDA (100%)
05 -=- 05 - Interlude I.flac -=- CDDA (100%)
06 -=- 06 - The Sun At The Zenith.flac -=- CDDA (100%)
07 -=- 07 - Buck Eyes.flac -=- CDDA (100%)
08 -=- 08 - Interlude II.flac -=- CDDA (100%)
09 -=- 09 - Footprints.flac -=- CDDA (100%)
10 -=- 10 - Emazing.flac -=- CDDA (100%)
11 -=- 11 - Epilogue.flac -=- CDDA (100%)
Summary 100,00% CDDA
75726532
 
 
Об исполнителе (группе)
From Wikipedia, the free encyclopedia
Tim Hagans (born August 19, 1954) is a jazz trumpet player, arranger and composer. He has been nominated for three Grammy Awards: for Best Instrumental Composition for "Box of Cannoli" on The Avatar Sessions (Fuzzy Music 2010); for Best Contemporary Jazz CD for Animation*Imagination (Blue Note 1999); and again for Best Contemporary Jazz CD for Re-Animation (Blue Note 2000).
Hagans grew up in Dayton, Ohio. His early inspirations included Miles Davis, Freddie Hubbard, and Thad Jones, to whom he dedicated For the Music Suite, a 40-minute piece for jazz orchestra composed on a grant from the National Endowment for the Arts. In 1974, Hagans joined the Stan Kenton band.,[1] with whom he played until 1977, when he toured with Woody Herman. He then left for Europe, where he lived in Malmö, Sweden, a hotbed of the European jazz scene. While in Europe, he toured extensively and played with Dexter Gordon, Kenny Drew, Horace Parlan, and Thad Jones. His first recorded composition, "I Hope This Time Isn't the Last," appears on Thad Jones Live at Slukefter (Metronome, 1980). In 1987, Hagans moved to New York City. He has performed with Maria Schneider, Yellowjackets, Steps, Secret Society, and Gary Peacock. Hagans has worked extensively with producer and saxophonist Bob Belden on a variety of recordings and live performances, including their ongoing Animation/Imagination project.[2] Festivals at which he has performed include the Mount Fuji Festival in Japan, the Montreal Jazz Festival, the Berlin Jazz Tage, and the Montreux Jazz Festival in Switzerland.
Hagans has taught master classes at universities both here and abroad. He taught at the University of Cincinnati from 1982 to 1984, and at Berklee College of Music from 1984 to 1987.[1] From 1996 to 2010, Hagans was Artistic Director and Composer-in-Residence for the Norrbotten Big Band located in Luleå, Sweden. The Norrbotten is a 17-piece jazz orchestra for whom Hagans wrote and arranged original compositions with guest artists including Randy Brecker, Joe Lovano, Dave Liebman, Peter Erskine, and Rufus Reid, an enterprise culminating in the Grammy nominated The Avatar Sessions: The Music of Tim Hagans, for which the Norbotten Big Band traveled to New York. His compositions are featured on numerous recordings with the Norrbotten Big Band, including Future North (Doubletime Records, 1998), Future Miles (Act Records, 2002), and Worth the Wait (Fuzzy Music, 2007). Hagans has been commissioned by several other European jazz orchestras, including the NDR Big Band in Hamburg, UMO in Helsinki, and he was Composer-in-Residence at the Jazz Baltica Festival in 2000. In 2008, Hagans was awarded the ASCAP/IAJE Established Composer Award, and in 2009 he was commissioned by the Barents Composers Orchestra to write a piece for strings, woodwinds, and percussion: Daytonality, a piece based on improvisational melodic language.
Hagans is the subject of the feature documentary Boogaloo Road, directed by Runar Enberg and Marianne Soderberg. He is a featured soloist on Howard Shore's soundtrack for the feature film The Score starring Marlon Brando, Edward Norton, and Robert De Niro.
Tim Hagans is a recording artist for Palmetto Records, where his latest CD is The Moon Is Waiting (Palmetto 2011). He currently performs, tours, and records with the Tim Hagans Quartet: Tim Hagans, trumpet; Viv Juris, guitar; Rufus Reid, bass, and Jukkis Uotila, drums. The quartet is featured on The Moon Is Waiting.
Following his interest in exploring theatrical venues for innovative jazz, Hagans is Composer-in-Residence with the Michele Brangwen Dance Ensemble, a dance company located in Houston, Texas and in New York City. The company's focus on working exclusively with live original music and incorporating musicians into the stage imagery has been a source of inspiration for Hagans. In January 2012, his composition Outside My Window was performed with the MBDE at Dance Theatre of Harlem. Hagans also performs with author-actor Peter Josyph in duets consisting of haiku texts and freely improvised trumpet, including Josyph's the way of the trumpet, a haiku novel written for and dedicated to Hagans.
In June 2012, Hagans will be awarded an honorary doctorate from the Sibelius Academy in Helsinki.
 
 
Состав
Tim Hagans - trumpet
Marc Copland - piano
Drew Gress - bass
Bill Stewart - drums
Скачивание доступно после регистрации!!
Приватный:
Нет (DHT включён)
Размер:
302.13 Мб (316,810,991 байт) » файлов: 18
Участники:
0 раздают, 0 качают (0 участников всего)
Внешние участники:
1 раздают, 0 качают (1 участников всего) [ Обновить ]
03:46
677
Нет комментариев. Ваш будет первым!