Поиск

(Post-Bop, Fusion, Piano Jazz) Andy LaVerne (with John Abercrombie, Mark Egan, Marc Johnson, Danny Gottlieb; feat. Chick Corea) - Plays The Music Of Chick Corea - 1988, APE (imae+.cue), lossless

(Post-Bop, Fusion, Piano Jazz) Andy LaVerne (with John Abercrombie, Mark Egan, Marc Johnson, Danny Gottlieb; feat. Chick Corea) - Plays The Music Of Chick Corea - 1988, APE (imae+.cue), lossless
Andy LaVerne plays the music of CHICK COREA"Hey Andy!
Great record! Your piano playing is beautiful
and I like the band and the synth sounds too.
That was a real surprise! Great!
Love, Chick"

Жанр: Post-Bop, Fusion, Piano Jazz
Страна-производитель диска: USA
Год издания диска: 1988
Издатель (лейбл): Jazzline
Номер по каталогу: 11108
Аудио кодек: APE (*.ape)
Тип рипа: image+.cue
Битрейт аудио: lossless
Продолжительность: 60:06
Наличие сканов в содержимом раздачи: да
Источник (релизер): nnm, thanks barin99
Треклист:
1. Chick Corea
2. Bill Evans
3. Cornucopia
4. Turnaround
5. Folk Song
6. Psalm
7. Ghost of Triengen
8. Softly as You Go
9. Like This
10. Romans (Writen for John McLaughlin)
11. Heart to Heart
12. You're Everything
13. Blues for Liebestraum

Исполнители:
Andy LaVerne - Grand Piano, Hammond B3 Organ, Synclavier
John Abercrombie - Acoustic & Electric Guitars
Mark Egan - Electric Bass
Marc Johnson - Acoustic Bass
Danny Gottlieb - Drums, Percussion
& special guest
Chick Corea - Grand Piano (11)
Recorded at Sound Ideas Studios, New York in 1986.
All music by Corea, expect 1 - LaVerne, 11 - LaVerne/Corea.
 
Лог EAC
Exact Audio Copy V0.99 prebeta 4 from 23. January 2008
EAC extraction logfile from 4. June 2009, 19:22
Andy LaVerne / Plays The Music Of Chick Corea
Used drive : HL-DT-STRW/DVD GCC-4242N Adapter: 1 ID: 0
Read mode : Secure
Utilize accurate stream : Yes
Defeat audio cache : Yes
Make use of C2 pointers : No
Read offset correction : 102
Overread into Lead-In and Lead-Out : No
Fill up missing offset samples with silence : Yes
Delete leading and trailing silent blocks : No
Null samples used in CRC calculations : Yes
Used interface : Native Win32 interface for Win NT & 2000
Used output format : Internal WAV Routines
Sample format : 44.100 Hz; 16 Bit; Stereo
TOC of the extracted CD
Track | Start | Length | Start sector | End sector
---------------------------------------------------------
1 | 0:00.00 | 4:53.65 | 0 | 22039
2 | 4:53.65 | 3:20.22 | 22040 | 37061
3 | 8:14.12 | 5:01.18 | 37062 | 59654
4 | 13:15.30 | 5:52.57 | 59655 | 86111
5 | 19:08.12 | 6:54.63 | 86112 | 117224
6 | 26:03.00 | 3:44.37 | 117225 | 134061
7 | 29:47.37 | 4:51.50 | 134062 | 155936
8 | 34:39.12 | 3:29.28 | 155937 | 171639
9 | 38:08.40 | 4:20.37 | 171640 | 191176
10 | 42:29.02 | 3:04.65 | 191177 | 205041
11 | 45:33.67 | 5:58.50 | 205042 | 231941
12 | 51:32.42 | 5:02.58 | 231942 | 254649
13 | 56:35.25 | 3:30.72 | 254650 | 270471
Range status and errors
Selected range
Filename C:\_\EAC_Out\Out\Andy LaVerne Plays The Music Of Chick Corea\Andy LaVerne Plays The Music Of Chick Corea.wav
Peak level 82.4 %
Range quality 100.0 %
Copy CRC E2A9A2AA
Copy OK
No errors occurred
AccurateRip summary
Track 1 accurately ripped (confidence 1) [DA5270BA]
Track 2 accurately ripped (confidence 1) [8D02003B]
Track 3 accurately ripped (confidence 1) [41EAF77B]
Track 4 accurately ripped (confidence 1) [F779DCBC]
Track 5 accurately ripped (confidence 1) [04298BAE]
Track 6 accurately ripped (confidence 1) [90267D20]
Track 7 accurately ripped (confidence 1) [90B75D3D]
Track 8 accurately ripped (confidence 1) [34ADE613]
Track 9 accurately ripped (confidence 1) [0D3DFE30]
Track 10 accurately ripped (confidence 1) [8957F6B4]
Track 11 accurately ripped (confidence 1) [2EBD8013]
Track 12 accurately ripped (confidence 1) [BB843FCF]
Track 13 accurately ripped (confidence 1) [E5C15EDC]
All tracks accurately ripped
End of status report
 
Содержание индексной карты (.CUE)
REM GENRE "Contemporary Jazz"
REM DATE 1986
REM DISCID C90E160D
REM COMMENT "ExactAudioCopy v0.99pb4"
PERFORMER "Andy LaVerne"
TITLE "Plays The Music Of Chick Corea"
FILE "Andy LaVerne Plays The Music Of Chick Corea.wav" WAVE
TRACK 01 AUDIO
TITLE "Chick Corea"
PERFORMER "Andy LaVerne"
INDEX 01 00:00:00
TRACK 02 AUDIO
TITLE "Bill Evans"
PERFORMER "Andy LaVerne"
INDEX 00 04:50:17
INDEX 01 04:53:65
TRACK 03 AUDIO
TITLE "Cornucopia"
PERFORMER "Andy LaVerne"
INDEX 00 08:12:00
INDEX 01 08:14:12
TRACK 04 AUDIO
TITLE "Turnaround"
PERFORMER "Andy LaVerne"
INDEX 00 13:13:27
INDEX 01 13:15:30
TRACK 05 AUDIO
TITLE "Folk Song"
PERFORMER "Andy LaVerne"
INDEX 00 19:06:17
INDEX 01 19:08:12
TRACK 06 AUDIO
TITLE "Psalm"
PERFORMER "Andy LaVerne"
INDEX 00 25:59:40
INDEX 01 26:03:00
TRACK 07 AUDIO
TITLE "Ghost Of Triengen"
PERFORMER "Andy LaVerne"
INDEX 00 29:47:27
INDEX 01 29:47:37
TRACK 08 AUDIO
TITLE "Softly As You Go"
PERFORMER "Andy LaVerne"
INDEX 00 34:36:45
INDEX 01 34:39:12
TRACK 09 AUDIO
TITLE "Like This"
PERFORMER "Andy LaVerne"
INDEX 00 38:06:12
INDEX 01 38:08:40
TRACK 10 AUDIO
TITLE "Romance"
PERFORMER "Andy LaVerne"
INDEX 00 42:26:00
INDEX 01 42:29:02
TRACK 11 AUDIO
TITLE "Heart To Heart"
PERFORMER "Andy LaVerne"
INDEX 00 45:30:20
INDEX 01 45:33:67
TRACK 12 AUDIO
TITLE "Youґre Everything"
PERFORMER "Andy LaVerne"
INDEX 00 51:29:15
INDEX 01 51:32:42
TRACK 13 AUDIO
TITLE "Blues For Liebestraum"
PERFORMER "Andy LaVerne"
INDEX 00 56:32:36
INDEX 01 56:35:25
 
скрин
Энди ЛаВерн (Andy LaVerne) - американский джазовый пианист/клавишник, композитор, аранжировщик. Родился в Нью-Йорке 4 декабря 1947 года, уже в восемь лет начал заниматься в Джулиардской школе музыки (классическое фортепиано), позднее учился в колледже Беркли и консерватории Новой Англии, а также брал частные уроки у самого Билла Эванса. В 1973-75 гг. Энди гастролировал в биг-бэндом Вуди Хермана, затем играл с Джоном Эберкромби, Мирославом Витусом и Ричи Бейраком. С 1977 по 1980 являлся членом группы Стэна Гетца; в 80-е выступал в выступал в составе Brubeck-LaVerne Trio (с Крисом и Дэном Брубек) и начал уделять много времени образовательной деятельности. ЛаВерн - автор множества учебных пособий (книжных, CD и DVD): Guide to Modern Jazz Piano, Vols. 1 &, 2, Handbook of Chord Substitutions, Keyboard’s Jazz Piano Compendium, Tunes You Thought You Knew и др.; давал мастер-классы в США и зарубежом; кроме того, он часто выступает со статьями в таких изданиях как Down Beat, Keyboard Magazine, Piano Today Magazine, Jazz and Keyboard Workshop, JazzOne. Энди ЛаВерн - почетный профессор университета Хартфорда, в 2000 году стал победителем John Lennon Songwriting Contest с композицией "Shania". За свою карьеру он записал около 50 "лидерских" альбомов (SteepleChase, Concord, DMP, Triloka), в последнее время сотрудничал с саксофонистом Jerry Bergonzi и певцом Neil Sedaka. (Wiki, AMG)Официальный сайт
Скачивание доступно после регистрации!!
Приватный:
Нет (DHT включён)
Размер:
286.36 Мб (300,269,537 байт) » файлов: 9
Участники:
0 раздают, 0 качают (0 участников всего)
Внешние участники:
3 раздают, 1 качают (4 участников всего) [ Обновить ]
04:16
862
Нет комментариев. Ваш будет первым!