Поиск

(Post-Bop, Jazz, Piano Trio) [WEB] Mark Soskin (with Jay Anderson & Adam Nussbaum) - Upper West Side Stories - 2018 [SteepleChase], FLAC (tracks), lossless

(Post-Bop, Jazz, Piano Trio) [WEB] Mark Soskin (with Jay Anderson & Adam Nussbaum) - Upper West Side Stories - 2018 [SteepleChase], FLAC (tracks), lossless
Издатель (лейбл):
Upper West Side Stories
Mark Soskin
'
Жанр: Post-Bop, Jazz
Год издания: 2018
Издатель (лейбл): SteepleChase
Номер по каталогу: SCCD 31834
Страна исполнителя: USA
Аудиокодек: FLAC (*.flac)
Тип рипа: tracks
Битрейт аудио: lossless
Продолжительность: 68:00
Источник (релизер): WEB
Наличие сканов: нет
Треклист:
01. I've Never Been In Love Before
02. Gloria's Step
03. Remember
04. Ugly Beauty
05. Ummg/Upper West Side Stroll
06. Pee Wee
07. Un Poco Loco
08. Pensativa
09. Listening Room
10. Soireé
11. Fee-Fi-Fo-Fum
 
Лог проверки качества
AUDIOCHECKER v2.0 beta (build 457) - by Dester - opdester@freemail.hu
~~~~~~~~~~~~~~~~~~~~~~~~~~~~~~~~~~
-=== DO NOT EDIT THIS FILE! ===-
Path: ...\Mark Soskin - Upper West Side Stories (2018) [FLAC]
01 -=- 01 - I've Never Been in Love Before.flac -=- CDDA (100%)
02 -=- 02 - Gloria's Step.flac -=- CDDA (100%)
03 -=- 03 - Remember.flac -=- CDDA (100%)
04 -=- 04 - Ugly Beauty.flac -=- CDDA (100%)
05 -=- 05 - Ummg - Upper West Side Stroll.flac -=- CDDA (100%)
06 -=- 06 - Pee Wee.flac -=- CDDA (100%)
07 -=- 07 - Un Poco Loco.flac -=- CDDA (100%)
08 -=- 08 - Pensativa.flac -=- CDDA (100%)
09 -=- 09 - Listening Room.flac -=- CDDA (100%)
10 -=- 10 - Soiree.flac -=- CDDA (100%)
11 -=- 11 - Fee-Fi-fo-Fum.flac -=- CDDA (100%)
Summary 100,00% CDDA
214823220
••••••••••
foobar2000 1.3.12 / Замер динамического диапазона (DR) 1.1.1
Дата отчёта:  2018-05-30 14:00:44
--------------------------------------------------------------------------------
Анализ:   Mark Soskin / Upper West Side Stories
--------------------------------------------------------------------------------
DR         Пики         RMS           Продолжительность трека
--------------------------------------------------------------------------------
DR10      -0.67 дБ   -13.40 дБ      6:55 01-I've Never Been in Love Before
DR9       -0.72 дБ   -12.69 дБ      5:35 02-Gloria's Step
DR10      -0.80 дБ   -13.28 дБ      6:10 03-Remember
DR13      -0.89 дБ   -17.20 дБ      8:06 04-Ugly Beauty
DR11      -0.66 дБ   -14.22 дБ      5:40 05-Ummg - Upper West Side Stroll
DR13      -0.88 дБ   -17.19 дБ      6:41 06-Pee Wee
DR8       -0.05 дБ   -10.45 дБ      5:10 07-Un Poco Loco
DR10      -0.44 дБ   -13.44 дБ      7:28 08-Pensativa
DR11      -0.48 дБ   -14.28 дБ      5:49 09-Listening Room
DR14      -0.91 дБ   -18.47 дБ      4:12 10-Soiree
DR10      -0.79 дБ   -13.59 дБ      6:14 11-Fee-Fi-fo-Fum
--------------------------------------------------------------------------------
Количество треков: 11
Реальные значения DR: DR11
Частота:   44100 Гц
Каналов:   2
Разрядность:   16
Битрейт:   836 кбит/с
Кодек:   FLAC
================================================================================
 
 
Состав
Mark Soskin
piano
Jay Anderson
bass
Adam Nussbaum
drums
10:35
887
Нет комментариев. Ваш будет первым!