Поиск

(Post-Bop) Mose Allison - Local Color (1957) - 1990, FLAC (tracks+.cue), lossless

(Post-Bop) Mose Allison - Local Color (1957) - 1990, FLAC (tracks+.cue), lossless
Треклист:
Mose Allison – Local Color (1957)
Жанр: Post-Bop
Год издания диска: 1990
Издатель (лейбл): OJC/Prestige
Barcode: 00025218645720
Аудиокодек: FLAC (*.flac)
Тип рипа: tracks+.cue
Битрейт аудио: lossless
Продолжительность: 36:15
Rip by Sarchiapone
Наличие сканов в содержимом раздачи: да
Треклист:
01. Carnival (3:04)
02. Parchman Farm (3:21)
03. Crepuscular Air (3:47)
04. Mojo Woman (4:07)
05. Town (3:26)
06. Trouble In Mind (3:18)
07. Lost Mind (3:34)
08. I'll Never Be Free (5:40)
09. Don't Ever Say Goodbye (3:16)
10. Ain't You A Mess (2:41)
Personnel:
Mose Allison - p, tp (6), vo (2, 7)
Addison Farmer - b
Nick Stabulas - d
Rec.: Hackensack, NJ, November 8, 1957.
 
 
Лог создания рипа
Exact Audio Copy V0.99 prebeta 5 from 4. May 2009
EAC extraction logfile from 11. December 2009, 23:32
Mose Allison / Local Color
Used drive  : PLEXTOR CD-R   PREMIUM2   Adapter: 1  ID: 1
Read mode               : Secure
Utilize accurate stream : Yes
Defeat audio cache      : Yes
Make use of C2 pointers : No
Read offset correction                      : 30
Overread into Lead-In and Lead-Out          : No
Fill up missing offset samples with silence : Yes
Delete leading and trailing silent blocks   : No
Null samples used in CRC calculations       : Yes
Used interface                              : Installed external ASPI interface
Gap handling                                : Appended to previous track
Used output format              : User Defined Encoder
Selected bitrate                : 32 kBit/s
Quality                         : High
Add ID3 tag                     : No
Command line compressor         : C:\Programmi\FLAC\flac.exe
Additional command line options : -8 -V -T "ARTIST=%a" -T "TITLE=%t" -T "ALBUM=%g" -T "DATE=%y" -T "TRACKNUMBER=%n" -T "GENRE=%m" -T "COMMENT=EAC FLAC -8" %s
TOC of the extracted CD
     Track |   Start  |  Length  | Start sector | End sector
    ---------------------------------------------------------
        1  |  0:00.00 |  3:03.55 |         0    |    13779
        2  |  3:03.55 |  3:20.70 |     13780    |    28849
        3  |  6:24.50 |  3:46.42 |     28850    |    45841
        4  | 10:11.17 |  4:07.18 |     45842    |    64384
        5  | 14:18.35 |  3:26.37 |     64385    |    79871
        6  | 17:44.72 |  3:18.28 |     79872    |    94749
        7  | 21:03.25 |  3:34.35 |     94750    |   110834
        8  | 24:37.60 |  5:40.20 |    110835    |   136354
        9  | 30:18.05 |  3:15.65 |    136355    |   151044
       10  | 33:33.70 |  2:40.50 |    151045    |   163094
Track  1
     Filename D:\My Rip\01 - Carnival.wav
     Pre-gap length  0:00:02.00
     Peak level 65.9 %
     Track quality 100.0 %
     Test CRC 5D112088
     Copy CRC 5D112088
     Cannot be verified as accurate (confidence 1)  [AB227935], AccurateRip returned [65F04CA3]
     Copy OK
Track  2
     Filename D:\My Rip\02 - Parchman Farm.wav
     Pre-gap length  0:00:04.10
     Peak level 89.7 %
     Track quality 100.0 %
     Test CRC EAD3028D
     Copy CRC EAD3028D
     Cannot be verified as accurate (confidence 1)  [7CBE83CE], AccurateRip returned [51A82AC4]
     Copy OK
Track  3
     Filename D:\My Rip\03 - Crepuscular Air.wav
     Pre-gap length  0:00:03.06
     Peak level 53.6 %
     Track quality 100.0 %
     Test CRC C0EAB670
     Copy CRC C0EAB670
     Cannot be verified as accurate (confidence 1)  [87AD09E8], AccurateRip returned [27C7B70C]
     Copy OK
Track  4
     Filename D:\My Rip\04 - Mojo Woman.wav
     Pre-gap length  0:00:03.16
     Peak level 58.1 %
     Track quality 100.0 %
     Test CRC D9680650
     Copy CRC D9680650
     Cannot be verified as accurate (confidence 1)  [18F217C9], AccurateRip returned [BC12FFA7]
     Copy OK
Track  5
     Filename D:\My Rip\05 - Town.wav
     Pre-gap length  0:00:03.90
     Peak level 64.5 %
     Track quality 100.0 %
     Test CRC E655300A
     Copy CRC E655300A
     Cannot be verified as accurate (confidence 1)  [2DC6DC4C], AccurateRip returned [8E6AF0B8]
     Copy OK
Track  6
     Filename D:\My Rip\06 - Trouble In Mind.wav
     Pre-gap length  0:00:03.73
     Peak level 76.0 %
     Track quality 100.0 %
     Test CRC 236267C4
     Copy CRC 236267C4
     Cannot be verified as accurate (confidence 1)  [5A2B2359], AccurateRip returned [54374260]
     Copy OK
Track  7
     Filename D:\My Rip\07 - Lost Mind.wav
     Pre-gap length  0:00:02.84
     Peak level 81.1 %
     Track quality 100.0 %
     Test CRC B1E8A93B
     Copy CRC B1E8A93B
     Cannot be verified as accurate (confidence 1)  [FD68A6AC], AccurateRip returned [2E60E6D0]
     Copy OK
Track  8
     Filename D:\My Rip\08 - I'll Never Be Free.wav
     Pre-gap length  0:00:03.13
     Peak level 72.7 %
     Track quality 99.8 %
     Test CRC 83BAF0FD
     Copy CRC 83BAF0FD
     Cannot be verified as accurate (confidence 1)  [E87053EA], AccurateRip returned [01D2C25D]
     Copy OK
Track  9
     Filename D:\My Rip\09 - Don't Ever Say Goodbye.wav
     Pre-gap length  0:00:02.93
     Peak level 73.8 %
     Track quality 99.7 %
     Test CRC 26F27BC0
     Copy CRC 26F27BC0
     Cannot be verified as accurate (confidence 1)  [477D07F9], AccurateRip returned [7F9A54D2]
     Copy OK
Track 10
     Filename D:\My Rip\10 - Ain't You A Mess.wav
     Pre-gap length  0:00:02.97
     Peak level 75.7 %
     Track quality 100.0 %
     Test CRC 06C145D1
     Copy CRC 06C145D1
     Cannot be verified as accurate (confidence 1)  [7DD4449A], AccurateRip returned [4DA154A4]
     Copy OK
No tracks could be verified as accurate
You may have a different pressing from the one(s) in the database
No errors occurred
End of status report
 
 
Содержание индексной карты (.CUE)
REM GENRE Jazz
REM DATE 1957
REM DISCID 7C087E0A
REM COMMENT "ExactAudioCopy v0.99pb5"
PERFORMER "Mose Allison"
TITLE "Local Color"
FILE "01 - Carnival.flac" WAVE
  TRACK 01 AUDIO
    TITLE "Carnival"
    PERFORMER "Mose Allison"
    INDEX 01 00:00:00
  TRACK 02 AUDIO
    TITLE "Parchman Farm"
    PERFORMER "Mose Allison"
    INDEX 00 02:59:47
FILE "02 - Parchman Farm.flac" WAVE
    INDEX 01 00:00:00
  TRACK 03 AUDIO
    TITLE "Crepuscular Air"
    PERFORMER "Mose Allison"
    INDEX 00 03:17:65
FILE "03 - Crepuscular Air.flac" WAVE
    INDEX 01 00:00:00
  TRACK 04 AUDIO
    TITLE "Mojo Woman"
    PERFORMER "Mose Allison"
    INDEX 00 03:43:30
FILE "04 - Mojo Woman.flac" WAVE
    INDEX 01 00:00:00
  TRACK 05 AUDIO
    TITLE "Town"
    PERFORMER "Mose Allison"
    INDEX 00 04:03:25
FILE "05 - Town.flac" WAVE
    INDEX 01 00:00:00
  TRACK 06 AUDIO
    TITLE "Trouble In Mind"
    PERFORMER "Mose Allison"
    INDEX 00 03:22:57
FILE "06 - Trouble In Mind.flac" WAVE
    INDEX 01 00:00:00
  TRACK 07 AUDIO
    TITLE "Lost Mind"
    PERFORMER "Mose Allison"
    INDEX 00 03:15:40
FILE "07 - Lost Mind.flac" WAVE
    INDEX 01 00:00:00
  TRACK 08 AUDIO
    TITLE "I'll Never Be Free"
    PERFORMER "Mose Allison"
    INDEX 00 03:31:25
FILE "08 - I'll Never Be Free.flac" WAVE
    INDEX 01 00:00:00
  TRACK 09 AUDIO
    TITLE "Don't Ever Say Goodbye"
    PERFORMER "Mose Allison"
    INDEX 00 05:37:25
FILE "09 - Don't Ever Say Goodbye.flac" WAVE
    INDEX 01 00:00:00
  TRACK 10 AUDIO
    TITLE "Ain't You A Mess"
    PERFORMER "Mose Allison"
    INDEX 00 03:12:67
FILE "10 - Ain't You A Mess.flac" WAVE
    INDEX 01 00:00:00
22:42
501
Нет комментариев. Ваш будет первым!