Поиск

(Post-Bop, Straight-Ahead Jazz, Guitar Jazz) Dave Stryker Quintet (with Steve Slagle, Joey Calderazzo, Jay Anderson, Adam Nussbaum) - Passage - 1991, FLAC (tracks+.cue), lossless

(Post-Bop, Straight-Ahead Jazz, Guitar Jazz) Dave Stryker Quintet (with Steve Slagle, Joey Calderazzo, Jay Anderson, Adam Nussbaum) - Passage - 1991, FLAC (tracks+.cue), lossless
DAVE STRYKER QUINTET
PASSAGE Жанр: Post-Bop, Straight-Ahead Jazz, Guitar Jazz
Страна-производитель диска: Denmark
Год издания диска: 1991
Издатель (лейбл): Steeplechase
Номер по каталогу: 31330
Аудиокодек: FLAC (*.flac)
Тип рипа: tracks+.cue
Битрейт аудио: lossless
Продолжительность: 55:21
Наличие сканов в содержимом раздачи: да
Источник (релизер): nnm, thanks mishka1981
Треклист:
1. In the now
2. Kalahari
3. Passage
4. It's you or no one
5. Jungle
6. Violation
7. I fall in love too easily
8. Minor Jones
9. Pursuit
Исполнители:
Dave Stryker••guitar••
Steve Slagle••alto sax, soprano sax••
Joey Calderazzo••piano••
Jay Anderson••bass••
Adam Nussbaum••drums••
 
Лог EAC
Exact Audio Copy V1.0 beta 1 from 15. November 2010
EAC extraction logfile from 4. January 2012, 14:59
Dave Stryker Quintet / Passage
Used drive  : Optiarc DVD RW AD-7710H   Adapter: 1  ID: 0
Read mode               : Secure
Utilize accurate stream : Yes
Defeat audio cache      : Yes
Make use of C2 pointers : No
Read offset correction                      : 48
Overread into Lead-In and Lead-Out          : No
Fill up missing offset samples with silence : Yes
Delete leading and trailing silent blocks   : No
Null samples used in CRC calculations       : Yes
Used interface                              : Native Win32 interface for Win NT & 2000
Gap handling                                : Appended to previous track
Used output format              : User Defined Encoder
Selected bitrate                : 896 kBit/s
Quality                         : High
Add ID3 tag                     : No
Command line compressor         : C:\Program Files\Exact Audio Copy\FLAC\FLAC.EXE
Additional command line options : -8 -V -T "ARTIST=%a" -T "TITLE=%t" -T "ALBUM=%g" -T "DATE=%y" -T "TRACKNUMBER=%n" -T "GENRE=%m" -T "COMMENT=%e" %j--picture="%i"%j %s -o %d
TOC of the extracted CD
     Track |   Start  |  Length  | Start sector | End sector
    ---------------------------------------------------------
        1  |  0:00.32 |  5:27.13 |        32    |    24569
        2  |  5:27.45 |  6:23.42 |     24570    |    53336
        3  | 11:51.12 |  6:48.58 |     53337    |    83994
        4  | 18:39.70 |  7:27.62 |     83995    |   117581
        5  | 26:07.57 |  7:06.65 |    117582    |   149596
        6  | 33:14.47 |  5:16.25 |    149597    |   173321
        7  | 38:30.72 |  3:02.45 |    173322    |   187016
        8  | 41:33.42 |  5:58.30 |    187017    |   213896
        9  | 47:31.72 |  7:49.15 |    213897    |   249086
Track  1
     Filename C:\MY RIPS\01 - In The Now.wav
     Pre-gap length  0:00:02.32
     Peak level 91.7 %
     Extraction speed 2.9 X
     Track quality 100.0 %
     Test CRC BFF41A7A
     Copy CRC BFF41A7A
     Accurately ripped (confidence 1)  [7CD669F0]
     Copy OK
Track  2
     Filename C:\MY RIPS\02 - Kalahari.wav
     Pre-gap length  0:00:02.13
     Peak level 85.2 %
     Extraction speed 3.4 X
     Track quality 100.0 %
     Test CRC FF6ECF48
     Copy CRC FF6ECF48
     Accurately ripped (confidence 1)  [67643325]
     Copy OK
Track  3
     Filename C:\MY RIPS\03 - Passage.wav
     Pre-gap length  0:00:02.37
     Peak level 54.4 %
     Extraction speed 3.4 X
     Track quality 99.9 %
     Test CRC 94FB8D26
     Copy CRC 94FB8D26
     Accurately ripped (confidence 1)  [22C5A28D]
     Copy OK
Track  4
     Filename C:\MY RIPS\04 - It's You Or No One.wav
     Pre-gap length  0:00:00.63
     Peak level 88.8 %
     Extraction speed 4.3 X
     Track quality 100.0 %
     Test CRC 80E702F3
     Copy CRC 80E702F3
     Accurately ripped (confidence 1)  [830843A1]
     Copy OK
Track  5
     Filename C:\MY RIPS\05 - Jungle.wav
     Pre-gap length  0:00:01.12
     Peak level 84.4 %
     Extraction speed 4.7 X
     Track quality 100.0 %
     Test CRC CC7EE265
     Copy CRC CC7EE265
     Accurately ripped (confidence 1)  [E1C02823]
     Copy OK
Track  6
     Filename C:\MY RIPS\06 - Violation.wav
     Pre-gap length  0:00:03.55
     Peak level 94.3 %
     Extraction speed 4.8 X
     Track quality 100.0 %
     Test CRC ABE9C3A0
     Copy CRC ABE9C3A0
     Accurately ripped (confidence 1)  [B89F594B]
     Copy OK
Track  7
     Filename C:\MY RIPS\07 - I Fall In Love Too Easily.wav
     Pre-gap length  0:00:02.65
     Peak level 26.5 %
     Extraction speed 3.7 X
     Track quality 99.9 %
     Test CRC 071E8B15
     Copy CRC 071E8B15
     Cannot be verified as accurate (confidence 1)  [913C1E82], AccurateRip returned [8EFF476D]
     Copy OK
Track  8
     Filename C:\MY RIPS\08 - Minor Jones.wav
     Pre-gap length  0:00:03.10
     Peak level 87.3 %
     Extraction speed 5.3 X
     Track quality 100.0 %
     Test CRC 8284E3EA
     Copy CRC 8284E3EA
     Accurately ripped (confidence 1)  [44515B51]
     Copy OK
Track  9
     Filename C:\MY RIPS\09 - Pursuit.wav
     Pre-gap length  0:00:02.37
     Peak level 98.4 %
     Extraction speed 5.1 X
     Track quality 99.9 %
     Test CRC 135D7E20
     Copy CRC 135D7E20
     Accurately ripped (confidence 1)  [FB46A419]
     Copy OK
 8 track(s) accurately ripped
 1 track(s) could not be verified as accurate
Some tracks could not be verified as accurate
No errors occurred
End of status report
==== Log checksum 9D8744064BCC32022CBE1EC37605965EDCE24D79E87A18E198143F538BBB15B3 ====
 
 
Содержание индексной карты (.CUE)
REM GENRE Jazz
REM DATE 1993
REM DISCID 7C0CF909
REM COMMENT "ExactAudioCopy v1.0b1"
PERFORMER "Dave Stryker Quintet"
TITLE "Passage"
FILE "01 - In The Now.wav" WAVE
  TRACK 01 AUDIO
    TITLE "In The Now"
    PERFORMER "Dave Stryker Quintet"
    PREGAP 00:00:32
    INDEX 01 00:00:00
  TRACK 02 AUDIO
    TITLE "Kalahari"
    PERFORMER "Dave Stryker Quintet"
    INDEX 00 05:25:00
FILE "02 - Kalahari.wav" WAVE
    INDEX 01 00:00:00
  TRACK 03 AUDIO
    TITLE "Passage"
    PERFORMER "Dave Stryker Quintet"
    INDEX 00 06:21:05
FILE "03 - Passage.wav" WAVE
    INDEX 01 00:00:00
  TRACK 04 AUDIO
    TITLE "It's You Or No One"
    PERFORMER "Dave Stryker Quintet"
    INDEX 00 06:47:70
FILE "04 - It's You Or No One.wav" WAVE
    INDEX 01 00:00:00
  TRACK 05 AUDIO
    TITLE "Jungle"
    PERFORMER "Dave Stryker Quintet"
    INDEX 00 07:26:50
FILE "05 - Jungle.wav" WAVE
    INDEX 01 00:00:00
  TRACK 06 AUDIO
    TITLE "Violation"
    PERFORMER "Dave Stryker Quintet"
    INDEX 00 07:03:10
FILE "06 - Violation.wav" WAVE
    INDEX 01 00:00:00
  TRACK 07 AUDIO
    TITLE "I Fall In Love Too Easily"
    PERFORMER "Dave Stryker Quintet"
    INDEX 00 05:13:35
FILE "07 - I Fall In Love Too Easily.wav" WAVE
    INDEX 01 00:00:00
  TRACK 08 AUDIO
    TITLE "Minor Jones"
    PERFORMER "Dave Stryker Quintet"
    INDEX 00 02:59:35
FILE "08 - Minor Jones.wav" WAVE
    INDEX 01 00:00:00
  TRACK 09 AUDIO
    TITLE "Pursuit"
    PERFORMER "Dave Stryker Quintet"
    INDEX 00 05:55:68
FILE "09 - Pursuit.wav" WAVE
    INDEX 01 00:00:00
Дейв Страйкер - американский музыкант и композитор, автор 23 "лидерских" дисков (на данный момент). Известный джазовый критик Gary Giddins Назвал Страйкера "одним из самых заметных и своеобразных гитаристов за последние годы". Дейв вырос в Небраске, откуда переехал в Нью-Йорк в 1980-ом. Там он вошел в состав группы Джека МакДаффа, а с 1986 года и по 2000 (с небольшим перерывом) выступал с саксофонистом Stanley Turrentine. Кроме этого, сотрудничал с Steve Slagle, Marc Copland, Randy Brecker, Scott Colley, Joe Lovano, Ron McClure. Все они записывались на альбомах Страйкера (первый из которых - "First Strike" вышел в 1988 году), а с Slagle они организовали The Stryker / Slagle Band. В 2001 году Дейв Страйкер вошел в Топ 10 гитаристов по итогам голосования журнала "Down Beat", а в 2004-2008 годах назывался "восходящей звездой" в Downbeat Critics Poll.
Скачивание доступно после регистрации!!
Приватный:
Нет (DHT включён)
Размер:
317.21 Мб (332,621,583 байт) » файлов: 16
Участники:
0 раздают, 0 качают (0 участников всего)
Внешние участники:
5 раздают, 1 качают (6 участников всего) [ Обновить ]
19:47
782
Нет комментариев. Ваш будет первым!