Поиск

[SACD-R][OF] Dave Brubeck Quartet - Dave Digs Disney - 1957 (Cool Jazz)

[SACD-R][OF] Dave Brubeck Quartet - Dave Digs Disney - 1957 (Cool Jazz)
Треклист:
Dave Brubeck Quartet
Dave Digs Disney
Формат записи/Источник записи: [SACD-R][OF]
Наличие водяных знаков: Нет
Год издания/переиздания диска: 1957/2000
Жанр: Cool Jazz
Издатель(лейбл): Columbia / Sony Music Japan
Продолжительность: 00:50:17
Наличие сканов в содержимом раздачи: Только обложка альбома
Треклист:
1 Alice In Wonderland (Hillard, Fain) 8:25
2 Give A Little Whistle (Harline, N. Washington) 7:32
3 Heigh-Ho (F. Churchill, Morey) 3:55
4 When You Wish Upon A Star (Harline, N. Washington) 4:50
5 Some Day My Prince Will Come (F. Churchill, Morey) 8:15
6 One Song (F. Churchill, Morey) 4:55
7 Very Good Advice 5:31
8 So This Is Love 5:56
Alto Saxophone – Paul Desmond
Bass – Norman Bates (2)
Drums – Joe Morello
Piano – Dave Brubeck
Producer – George Avakian
Контейнер: ISO (*.iso)
Тип рипа: image
Разрядность: 64(2,8 MHz/1 Bit)
Формат: DSD
Количество каналов: 2.0 MONO
Доп. информация: Catalog: SRGS 4560
Recording type -- Analogue
This SACD rip was created using the following process:
The ISO image is created using sacd-ripper for PS3 version 0.36.
Источник (релизер): Faunts (PS³SACD)
http://sa-cd.net/showtitle/968
 
DR 13
foobar2000 1.3.10 / Замер динамического диапазона (DR) 1.1.1
Дата отчёта: 2016-07-23 13:59:39
--------------------------------------------------------------------------------
Анализ: ? / ?
--------------------------------------------------------------------------------
DR Пики RMS Продолжительность трека
--------------------------------------------------------------------------------
DR13 -6.94 дБ -22.68 дБ 9:25 01-Alice In Wonderland
DR12 -6.51 дБ -21.38 дБ 7:33 02-Give A Little Whistle
DR14 -6.55 дБ -23.48 дБ 3:54 03-Heigh-Ho
DR12 -7.26 дБ -23.14 дБ 4:49 04-When You Wish Upon A Star
DR14 -6.51 дБ -23.58 дБ 8:16 05-Someday My Prince Will Come
DR12 -7.28 дБ -21.78 дБ 4:57 06-One Song
DR14 -6.55 дБ -22.84 дБ 5:32 07-Very Good Advice
DR14 -6.54 дБ -22.13 дБ 5:56 08-So This Is Love
--------------------------------------------------------------------------------
Количество треков: 8
Реальные значения DR: DR13
Частота: 2822400 Гц / Частота PCM: 44100 Гц
Каналов: 2
Разрядность: 24
Битрейт: 5645 кбит/с
Кодек: DSD64
================================================================================
03:21
566
Нет комментариев. Ваш будет первым!