Поиск

(Smooth Jazz) [CD] VA (Kirk Whalum, Paul Jackson, Jr., Boney James, Lalah Hathaway, Mindi Abair, Brian Culbertson, Dave Koz, Ledisi, Richard Elliot, George Benson, Rick Braun) - Forever, For Always, For Luther - 2004, FLAC (tracks), lossless

(Smooth Jazz) [CD] VA (Kirk Whalum, Paul Jackson, Jr., Boney James, Lalah Hathaway, Mindi Abair, Brian Culbertson, Dave Koz, Ledisi, Richard Elliot, George Benson, Rick Braun) - Forever, For Always, For Luther - 2004, FLAC (tracks), lossless
Треклист:
Various Artists / Forever, For Always, For Luther
Жанр: Smooth Jazz
Носитель: CD
Страна-производитель диска: USA
Год издания: 2004
Издатель (лейбл): GRP Records
Номер по каталогу: B0002426-02
Страна исполнителей: USA
Аудиокодек: FLAC (*.flac)
Тип рипа: tracks
Битрейт аудио: lossless
Продолжительность: 00:47:51
Релизер: Regin (ed2k)
Наличие сканов в содержимом раздачи: да (плохого качества)
Треклист:
01. Any Love - Kirk Whalum
02. Never Too Much - Paul Jackson, Jr.
03. Wait For Love - Boney James
04. Forever, For Always, For Love - Lalah Hathaway
05. Stop To Love - Mindi Abair
06. If Only For One Night - Brian Culbertson & Dave Koz
07. My Sensitivity Gets In The Way - Ledisi
08. Your Secret Love - Richard Elliot
09. Take You Out - George Benson
10. Dance With My Father - Rick Braun
 
Состав
Rex Rideout and Brian Culbertson - keyboards
Mindi Abair and Dave Koz - Alto Saxophone
Richard Elliot, Boney James and Kirk Whalum - Tenor Saxophone
Brandon Fields - Saxophone
Rick Braun - Flugelhorn
Nick Lane - Trombone
Lee Thornburg - Trumpet
Sundra Manning - Hammond
George Benson, Ray Fuller, Paul Jackson, Jr., John Pondel, Dwight Sills and Ty Stevens - Guitar
Alex Al - Acoustic and electric Bass
Sekou Bunch - Acoustic Bass
Steve Ferrone and Michael White - Drums
Lenny Castro - Percussion
Lalah Hathaway, Lisa Fischer, Brenda White, Cindy Mizelle, Fonzi Thornton and Ledisi - Vocals
 
Лог создания рипа
EAC extraction logfile from 17. April 2005, 10:39 for CD
Various / Luther Vandross: Forever, For Always, For Luther
Used drive : PIONEER DVD-RW DVR-108 Adapter: 1 ID: 0
Read mode : Secure with NO C2, accurate stream, disable cache
Read offset correction : 48
Overread into Lead-In and Lead-Out : No
Used output format : C:\Codecs\flac.exe (User Defined Encoder)
192 kBit/s
Additional command line options : -V -8 -T "artist=%a" -T "title=%t" -T "album=%g" -T "date=%y" -T "tracknumber=%n" -T "genre=%m" -T "comment=EAC secure - ripped by Regin" %s
Other options :
Fill up missing offset samples with silence : Yes
Delete leading and trailing silent blocks : No
Native Win32 interface for Win NT & 2000
Track 1
Filename D:\Converted Music\Various - 2004 [Luther Vandross- Forever, For Always, For Luther]\Kirk Whalum - Any Love.wav
Peak level 98.2 %
Track quality 100.0 %
Copy CRC 66533065
Copy OK
Track 2
Filename D:\Converted Music\Various - 2004 [Luther Vandross- Forever, For Always, For Luther]\Paul Jackson, Jr. - Never Too Much.wav
Peak level 99.7 %
Track quality 100.0 %
Copy CRC 13FCA69D
Copy OK
Track 3
Filename D:\Converted Music\Various - 2004 [Luther Vandross- Forever, For Always, For Luther]\Boney James - Wait For Love.wav
Peak level 95.2 %
Track quality 100.0 %
Copy CRC 77518CAC
Copy OK
Track 4
Filename D:\Converted Music\Various - 2004 [Luther Vandross- Forever, For Always, For Luther]\Lalah Hathaway - Forever, For Always, For Love.wav
Peak level 99.7 %
Track quality 100.0 %
Copy CRC 2720AB35
Copy OK
Track 5
Filename D:\Converted Music\Various - 2004 [Luther Vandross- Forever, For Always, For Luther]\Mindi Abair - Stop To Love.wav
Peak level 99.7 %
Track quality 100.0 %
Copy CRC 6F613229
Copy OK
Track 6
Filename D:\Converted Music\Various - 2004 [Luther Vandross- Forever, For Always, For Luther]\Dave Koz & Brian Culbertson - If Only For One Night.wav
Peak level 96.6 %
Track quality 100.0 %
Copy CRC 4F6577D4
Copy OK
Track 7
Filename D:\Converted Music\Various - 2004 [Luther Vandross- Forever, For Always, For Luther]\Ledisi - My Sensitivity (Gets In The Way).wav
Peak level 95.0 %
Track quality 99.9 %
Copy CRC 0E343786
Copy OK
Track 8
Filename D:\Converted Music\Various - 2004 [Luther Vandross- Forever, For Always, For Luther]\Richard Elliot - Your Secret Love.wav
Peak level 95.2 %
Track quality 100.0 %
Copy CRC 9D3F5B76
Copy OK
Track 9
Filename D:\Converted Music\Various - 2004 [Luther Vandross- Forever, For Always, For Luther]\George Benson - Take You Out.wav
Peak level 97.4 %
Track quality 100.0 %
Copy CRC 586EF993
Copy OK
Track 10
Filename D:\Converted Music\Various - 2004 [Luther Vandross- Forever, For Always, For Luther]\Rick Braun - Dance With My Father.wav
Peak level 95.5 %
Track quality 100.0 %
Copy CRC 67154E06
Copy OK
No errors occured
End of status report
 
Замер динамического диапазона [DR9]
foobar2000 1.3.15 / Dynamic Range Meter 1.1.1
log date: 2017-06-02 12:58:22
--------------------------------------------------------------------------------
Analyzed: Boney James / Forever, For Always, For Luther (1)
Dave Koz & Brian Culbertson / Forever, For Always, For Luther (2)
George Benson / Forever, For Always, For Luther (3)
Kirk Whalum / Forever, For Always, For Luther (4)
Lalah Hathaway / Forever, For Always, For Luther (5)
Ledisi / Forever, For Always, For Luther (6)
Mindi Abair / Forever, For Always, For Luther (7)
Paul Jackson, Jr. / Forever, For Always, For Luther (8)
Richard Elliot / Forever, For Always, For Luther (9)
Rick Braun / Forever, For Always, For Luther (10)
--------------------------------------------------------------------------------
DR Peak RMS Duration Track
--------------------------------------------------------------------------------
DR10 -0.42 dB -12.02 dB 4:27 03-Wait For Love
DR8 -0.30 dB -11.29 dB 5:16 06-If Only For One Night
DR8 -0.22 dB -10.41 dB 3:55 09-Take You Out
DR10 -0.15 dB -11.62 dB 5:04 01-Any Love
DR9 -0.02 dB -11.64 dB 5:54 04-Forever, For Always, For Love
DR9 -0.44 dB -10.95 dB 4:26 07-My Sensitivity (Gets In The Way)
DR9 -0.02 dB -10.73 dB 4:33 05-Stop To Love
DR10 -0.02 dB -11.04 dB 5:03 02-Never Too Much
DR8 -0.42 dB -10.10 dB 4:23 08-Your Secret Love
DR9 -0.39 dB -12.29 dB 4:50 10-Dance With My Father
--------------------------------------------------------------------------------
Number of tracks: 10
Official DR value: DR9
Samplerate: 44100 Hz
Channels: 2
Bits per sample: 16
Bitrate: 778 kbps
Codec: FLAC
================================================================================
Forever, For Always, For Luther - Volume II [lossless]
Forever, For Always, For Luther - Volume 1 & 2 [mp3]
04:05
767
Нет комментариев. Ваш будет первым!