Поиск

(Smooth Jazz) Chuck Loeb and Andy Laverne - Magic Fingers - 1990, APE (image+.cue) lossless

(Smooth Jazz) Chuck Loeb and Andy Laverne - Magic Fingers - 1990, APE (image+.cue) lossless
Chuck Loeb and Andy Laverne - Magic Fingers
Жанр: Smooth Jazz
Год выпуска диска: 1990
Производитель диска: Digital music product
Аудио кодек: APE
Тип рипа: image+.cue
Продолжительность: 54:19
Трэклист:
01. Book & Beads [0:04:57.15]
02. Circadian Rhythm [0:05:00.27]
03. Groovin' [0:04:43.65]
04. Far [0:05:01.33]
05. Sueсos [0:04:50.05]
06. 23rd & 15th [0:04:35.72]
07. The Mission [0:05:05.10]
08. Europa [0:04:37.53]
09. Magic Fingers [0:04:41.10]
10. Maybe... [0:07:07.17]
11. Chappaqua [0:03:39.18]
 
скрытый текст
Exact Audio Copy V0.99 prebeta 3 from 28. July 2007
Отчёт EAC об извлечении, выполненном 12. июня 2009, 16:24
Chuck Loeb & Andy LaVerne/Magic Fingers
Дисковод: TSSTcorpCD/DVDW SH-S182D Adapter: 1 ID: 0
Режим чтения : Достоверность
Использование точного потока : Да
Отключение кэша аудио : Да
Использование указателей C2 : Нет
Коррекция смещения при чтении : 6
Способность читать области Lead-in и Lead-out : Нет
Заполнение пропущенных сэмплов тишиной : Да
Удаление блоков с тишиной в начале и конце : Нет
При вычислениях CRC использовались нулевые сэмплы : Да
Интерфейс : Установленный внешний ASPI-интерфейс
Выходной формат : Внутренние WAV-операции
Формат сэмплов : 44.100 Гц; 16 бит; стерео
TOC извлечённого CD
Трек | Старт | Длительность | Начальный сектор | Конечный сектор
---------------------------------------------------------------------
1 | 0:00.00 | 4:57.15 | 0 | 22289
2 | 4:57.15 | 5:00.27 | 22290 | 44816
3 | 9:57.42 | 4:43.65 | 44817 | 66106
4 | 14:41.32 | 5:01.33 | 66107 | 88714
5 | 19:42.65 | 4:50.05 | 88715 | 110469
6 | 24:32.70 | 4:35.72 | 110470 | 131166
7 | 29:08.67 | 5:05.10 | 131167 | 154051
8 | 34:14.02 | 4:37.53 | 154052 | 174879
9 | 38:51.55 | 4:41.10 | 174880 | 195964
10 | 43:32.65 | 7:07.17 | 195965 | 228006
11 | 50:40.07 | 3:39.18 | 228007 | 244449
Характеристики диапазона извлечения и сообщения об ошибках
Выбранный диапазон
Имя файла C:\Documents and Settings\Jimi\Рабочий стол\CHUCK LOEB\Chuck Loeb & Andy LaVerne - Magic Fingers.wav
Пиковый уровень 100.0 %
Качество диапазона 100.0 %
CRC копии A07BC020
Копирование... OK
Ошибок не произошло
AccurateRip: сводка
Трек 1 точное извлечение (доверие 6) [F1A2FFDD]
Трек 2 точное извлечение (доверие 6) [56AE7449]
Трек 3 точное извлечение (доверие 6) [A7581FCA]
Трек 4 точное извлечение (доверие 6) [2A412E1E]
Трек 5 точное извлечение (доверие 6) [C56D4FC3]
Трек 6 точное извлечение (доверие 6) [C63252DF]
Трек 7 точное извлечение (доверие 6) [E24C7A6C]
Трек 8 точное извлечение (доверие 6) [B1E57DBA]
Трек 9 точное извлечение (доверие 6) [540253E5]
Трек 10 точное извлечение (доверие 6) [318D0E11]
Трек 11 точное извлечение (доверие 6) [F5AF39E5]
Все треки извлечены точно
Конец отчёта
18:20
726
Нет комментариев. Ваш будет первым!