Поиск

(Smooth Jazz) Dave Koz - Дискография (10 CD, 1990 - 2008), FLAC (image+.cue), lossless

(Smooth Jazz) Dave Koz - Дискография (10 CD, 1990 - 2008), FLAC (image+.cue), lossless
Треклист:
Dave Koz - Дискография (10 CD, 1990 - 2008)
Жанр: Smooth Jazz
Аудио кодек: FLAC
Тип рипа: image+.cue
Битрейт аудио: lossless
Источник: Оригинальные CD
Продолжительность: 9:48:12
Коврики: Сканы 400 dpi
Дата Рождения: 27 Марта, 1963 г
Место рождения: Encino, Claifornia, USA
Инструмент: Soprano/Alto Saxophone
WEB: www.davekoz.com
 
1990 - Dave Koz

Производитель диска: USA (Capitol Records)
Продолжительность: 0:51:53
Billboard Charts:
Top Contemporary Jazz Albums No. 4
The Billboard 200 No. 128

01. So Far From Home 06:10
02. Emily 05:30
03. Give It Up 05:53
04. Nothing But The Radio On 04:31
05. Castle Of Dreams 05:00
06. Endless Summer Nights 05:01
07. Love Of My Life 04:24
08. Art Of Key Noise 00:27
09. Perfect Stranger 04:34
10. If Love Is All We Have 04:27
11. Yesterday's Rain 05:51
 
Персоны:
Alec Milstein - Bass (Electric)
Audrey Koz - Vocals (Background)
Bill Lewis - Cymbals
Bunny Hull - Vocals (Background)
Carl Sturken - Keyboards
Carlos Rios - Guitar
Charles Fearing - Guitar
Claude Gaudette - Keyboards
Cole Basque - Vocals, Performer
Dave Koz - Guitar, Keyboards, Sax (Alto), Sax (Baritone), Sax (Soprano), Sax (Tenor), Vocals (Background), Main Performer, EWI
Elisa Fiorillo - Vocals (Background)
Elliot Wolff - Keyboards
Evan Rogers - Vocals, Vocals (Background)
Gigi Shuttleworth - Vocals (Background)
Howard 'Buzz' Feiten - Guitar
Jeff Koz - Vocals (Background)
Jeff Lorber - Guitar, Keyboards
Jim Lang - Keyboards
Joey Diggs - Vocals, Vocals (Background), Performer
Kevin Cloud - Drums (Snare)
Lenny Castro - Percussion
Mark Schulman - Vocals (Background)
Marva Barnes - Vocals (Background)
Matt Bissonette - Fretless Bass
Paul Jackson, Jr. - Guitar
Paulinho Da Costa - Percussion
Phillip Ingram - Vocals (Background)
Portia Griffin - Vocals (Background)
Randy Jackson - Fretless Bass
Steve Reid - Percussion
Tom Scott - Synthesizer
 
LOG
Exact Audio Copy V0.99 prebeta 3 from 28. July 2007
EAC extraction logfile from 30. March 2009, 13:18
Dave Koz / Dave Koz
Used drive : TSSTcorpCDDVDW SE-S204N Adapter: 6 ID: 4
Read mode : Secure
Utilize accurate stream : Yes
Defeat audio cache : Yes
Make use of C2 pointers : No
Read offset correction : 6
Overread into Lead-In and Lead-Out : No
Fill up missing offset samples with silence : Yes
Delete leading and trailing silent blocks : No
Null samples used in CRC calculations : Yes
Used interface : Installed external ASPI interface
Used output format : User Defined Encoder
Selected bitrate : 768 kBit/s
Quality : High
Add ID3 tag : No
Command line compressor : H:\Program Files\Exact Audio Copy\FLAC\FLAC.EXE
Additional command line options : -6 -V -T "ARTIST=%a" -T "TITLE=%t" -T "ALBUM=%g" -T "DATE=%y" -T "TRACKNUMBER=%n" -T "GENRE=%m" -T "COMMENT=%e" %s -o %d
TOC of the extracted CD
Track | Start | Length | Start sector | End sector
---------------------------------------------------------
1 | 0:00.32 | 6:10.03 | 32 | 27784
2 | 6:10.35 | 5:30.57 | 27785 | 52591
3 | 11:41.17 | 5:53.28 | 52592 | 79094
4 | 17:34.45 | 4:31.02 | 79095 | 99421
5 | 22:05.47 | 5:00.08 | 99422 | 121929
6 | 27:05.55 | 5:01.67 | 121930 | 144571
7 | 32:07.47 | 4:24.38 | 144572 | 164409
8 | 36:32.10 | 0:27.72 | 164410 | 166506
9 | 37:00.07 | 4:34.05 | 166507 | 187061
10 | 41:34.12 | 4:27.33 | 187062 | 207119
11 | 46:01.45 | 5:51.62 | 207120 | 233506
Range status and errors
Selected range
Filename C:\TTT\Dave Koz\1990 - Dave Koz\Dave Koz - Dave Koz.wav
Peak level 100.0 %
Range quality 99.9 %
Test CRC 7148B875
Copy CRC 7148B875
Copy OK
No errors occurred
AccurateRip summary
Track 1 accurately ripped (confidence 5) [78685A14]
Track 2 accurately ripped (confidence 5) [CAB110DD]
Track 3 accurately ripped (confidence 5) [73252223]
Track 4 accurately ripped (confidence 5) [78ECD191]
Track 5 accurately ripped (confidence 5) [04C6A03A]
Track 6 accurately ripped (confidence 5) [148F6A13]
Track 7 accurately ripped (confidence 5) [CD48D06E]
Track 8 accurately ripped (confidence 5) [92CC96D1]
Track 9 accurately ripped (confidence 5) [4460B19B]
Track 10 accurately ripped (confidence 5) [7773ECE6]
Track 11 accurately ripped (confidence 5) [C413D7E9]
All tracks accurately ripped
End of status report
 
1993 - Lucky Man

Производитель диска: USA (Capitol Records)
Продолжительность: 0:59:51
Billboard Charts:
Top Contemporary Jazz Albums No. 2
The Billboard 200 No. 176

01. Shakin' The Shack 06:05
02. You Make Me Smile 04:17
03. Faces of the Heart 03:42
04. Don't Look Any Further - Prelude 00:40
05. Don't Look Any Further 05:19
06. Tender is the Night 05:55
07. Saxman 04:25
08. After Dark 06:22
09. Lucky Man 03:26
10. Silverlining 05:15
11. Wait a Little While 05:39
12. Show Me the Way 05:22
13. Misty 03:19
 
Персоны:
Alec Milstein - Bass, Bass (Electric)
Alex Brown - Choir, Chorus
Bill Payne - Piano
Bob Mann - Guitar (Acoustic)
Booker T. Jones III - Organ
Brad Cole - Piano, Keyboards
Carl Sturken - Guitar (Acoustic), Keyboards
Carlos Rios - Guitar (Electric)
Charles Pettigrew - Vocals
Chester Thompson - Organ
Clarence Clemons - Sax (Tenor), Performer
Claude Gaudette - Bass, Piano, Strings, Keyboards, Synthesizer Bass
Curt Bisquera - Drums
Dave Koz - Guitar (Acoustic), Bass, Guitar (Electric), Keyboards, Sax (Alto), Sax (Baritone), Sax (Soprano), Sax (Tenor), Sound Effects, Vocals (Background), Chant, Main Performer, EWI
Dennis Lambert - Vocals (Background), Chant
Ed Greene - Drums
Edward Olmos - Speech/Speaker/Speaking Part
Evan Rogers - Vocals (Background)
Evelyn 'Champagne' King - Vocals (Background), Chant
Franne Golde - Vocals (Background), Chant
Gigi Worth - Choir, Chorus
Greg Phillinganes - Piano
Howard 'Buzz' Feiten - Guitar
Jean McClain - Vocals (Background), Chant
Jeff Koz - Guitar (Acoustic), Bass, Guitar (Electric), Keyboards
Jeff Lorber - Synthesizer, Keyboards
Jeff Pescetto - Choir, Chorus
Jheryl Lockhart - Vocals (Background), Chant
Jim Gilstrap - Choir, Chorus
Jimmy Haslip - Fretless Bass
John 'J.R.' Robinson - Drums
John Barnes - Piano
John Pena - Bass
Katrina Perkins - Vocals (Background), Choir, Chorus, Chant
Ken Moore - Piano
Kenny Moore - Piano
Lenny Castro - Percussion
Leslie Smith - Choir, Chorus
Maceo Parker - Sax (Alto), Performer
Machito Sanchez - Percussion
Mark Schulman - Drums
Michael Fisher - Percussion
Michael Thompson - Guitar (Electric)
Mona Lisa - Choir, Chorus
Monalisa - Choir, Chorus
Nathan East - Bass, Bass (Electric)
Oliver Leiber - Guitar
Paul Jackson, Jr. - Guitar, Guitar (Rhythm)
Paulinho Da Costa - Percussion
Phil Perry - Vocals
Phillip Ingram - Choir, Chorus
Pino Palladino - Fretless Bass
Ray Griffin - Drums
Ricky Lawson - Drums
Robben Ford - Guitar (Electric), Performer
Robbie Buchanan - Keyboards
Stephen 'Doc' Kupka - Sax (Baritone)
Steve Reid - Percussion
Teddy Castellucci - Guitar (Acoustic), Guitar (Electric)
Terry Young - Choir, Chorus
Yvonne Williams - Choir, Chorus
Zelma Davis - Vocals, Vocals (Background)
 
LOG
Exact Audio Copy V0.99 prebeta 3 from 28. July 2007
EAC extraction logfile from 26. February 2009, 16:11
Dave Koz / Lucky Man
Used drive : TSSTcorpCDDVDW SE-S204N Adapter: 6 ID: 4
Read mode : Secure
Utilize accurate stream : Yes
Defeat audio cache : Yes
Make use of C2 pointers : No
Read offset correction : 6
Overread into Lead-In and Lead-Out : No
Fill up missing offset samples with silence : Yes
Delete leading and trailing silent blocks : No
Null samples used in CRC calculations : Yes
Used interface : Installed external ASPI interface
Used output format : User Defined Encoder
Selected bitrate : 768 kBit/s
Quality : High
Add ID3 tag : No
Command line compressor : H:\Program Files\Exact Audio Copy\FLAC\FLAC.EXE
Additional command line options : -6 -V -T "ARTIST=%a" -T "TITLE=%t" -T "ALBUM=%g" -T "DATE=%y" -T "TRACKNUMBER=%n" -T "GENRE=%m" -T "COMMENT=%e" %s -o %d
TOC of the extracted CD
Track | Start | Length | Start sector | End sector
---------------------------------------------------------
1 | 0:00.00 | 6:05.63 | 0 | 27437
2 | 6:05.63 | 4:17.37 | 27438 | 46749
3 | 10:23.25 | 3:42.03 | 46750 | 63402
4 | 14:05.28 | 0:40.72 | 63403 | 66474
5 | 14:46.25 | 5:19.10 | 66475 | 90409
6 | 20:05.35 | 5:55.53 | 90410 | 117087
7 | 26:01.13 | 4:25.05 | 117088 | 136967
8 | 30:26.18 | 6:22.05 | 136968 | 165622
9 | 36:48.23 | 3:26.27 | 165623 | 181099
10 | 40:14.50 | 5:15.60 | 181100 | 204784
11 | 45:30.35 | 5:39.35 | 204785 | 230244
12 | 51:09.70 | 5:22.05 | 230245 | 254399
13 | 56:32.00 | 3:19.48 | 254400 | 269372
Range status and errors
Selected range
Filename C:\TTT\Dave Koz\1993 - Lucky Man\Dave Koz - Lucky Man.wav
Peak level 100.0 %
Range quality 99.9 %
Test CRC D4D388D3
Copy CRC D4D388D3
Copy OK
No errors occurred
AccurateRip summary
Track 1 cannot be verified as accurate (confidence 8) [E2918E27], AccurateRip returned [4F3193C6]
Track 2 cannot be verified as accurate (confidence 8) [82A636A4], AccurateRip returned [858BF50D]
Track 3 cannot be verified as accurate (confidence 8) [402B6FE7], AccurateRip returned [EEE2A1D5]
Track 4 cannot be verified as accurate (confidence 8) [A0C5E0CC], AccurateRip returned [D4979C90]
Track 5 cannot be verified as accurate (confidence 7) [7116D52D], AccurateRip returned [838279E3]
Track 6 cannot be verified as accurate (confidence 7) [48610179], AccurateRip returned [9BEB2FED]
Track 7 cannot be verified as accurate (confidence 7) [95858FBE], AccurateRip returned [A7E8DEBF]
Track 8 cannot be verified as accurate (confidence 7) [AE886FCA], AccurateRip returned [D5FABEB7]
Track 9 cannot be verified as accurate (confidence 7) [E299ECC1], AccurateRip returned [AEC3F816]
Track 10 cannot be verified as accurate (confidence 7) [A26FA70F], AccurateRip returned [A239F90A]
Track 11 cannot be verified as accurate (confidence 7) [B3138F1F], AccurateRip returned [A6B8514A]
Track 12 cannot be verified as accurate (confidence 7) [E3FC4545], AccurateRip returned [B0D59CF0]
Track 13 cannot be verified as accurate (confidence 6) [0C383E69], AccurateRip returned [2E3DBA76]
No tracks could be verified as accurate
You may have a different pressing from the one(s) in the database
End of status report
 
1996 - Off The Beaten Path

Производитель диска: USA (Capitol Records)
Продолжительность: 0:57:33
Billboard Charts:
Top Contemporary Jazz Albums No. 3
The Billboard 200 No. 182

01. Don't Look Back 04:07
02. I'm Ready 04:37
03. Wake Up Call 04:42
04. Let Me Count The Ways 04:20
05. Follow Me Home 05:44
06. Awakenings 03:34
07. Flat Feet 03:50
08. Lullaby For A Rainy Night 04:56
09. That's The Way I Feel About You 04:41
10. Leave The Light On 04:10
11. Under The Spell Of The Moon 04:49
12. My Back Porch 05:13
13. Remembrance 02:42

]
 
Персоны:
Arnold McCuller - Vocals, Vocals (Background)
Bob Salcedo - Handclapping
Brian Kilgore - Chimes, Drums (Bass), Maracas, Drums (Snare), Vibraphone
Brian Mann - Accordion
Chester Thompson - Organ (Hammond)
Chuck Findley - Trumpet
D.K. - Handclapping
Dave Koz - Guitar (Acoustic), Guitar, Piano, Sax (Alto), Sax (Baritone), Sax (Soprano), Sax (Tenor), Vocals, Handclapping, Main Performer
David Piltch - Percussion, Bass (Electric), Bass (Acoustic)
Deb Tennen - Handclapping
Gary Herbig - Sax (Baritone), Sax (Tenor)
Greg Adams - Trumpet, Horn (Alto)
Greg Leisz - Pedal Steel, E-Bow, Lap Steel Guitar
Gregg Arreguin - Guitar (Acoustic), Guitar (Electric)
Jamie Muhoberac - Keyboards
Jeff Koz - Guitar (Acoustic), Guitar, Guitar (Steel)
Jim Cox - Piano, Organ (Hammond), Wurlitzer
Jim Gilstrap - Vocals, Vocals (Background)
John Pierce - Bass (Electric)
Kenny Aronoff - Bongos, Drums, Djembe, Shaker
Kipp Lennon - Vocals (Background)
Larry Corbett - Cello
Lenny Castro - Percussion, Tambourine, Djembe
Leo Kottke - Guitar (Acoustic)
Mark Lennon - Vocals (Background)
Mark Schulman - Drums
Nick Lane - Trombone
Phil Ayling - Whistle (Instrument), Tin Whistle
RC - Handclapping
Sharon Celani - Vocals (Background)
Sid Page - Fiddle
Sir Harry Bowens - Vocals, Vocals (Background)
Stevie Nicks - Vocals (Background)
Sweet Pea Atkinson - Vocals, Vocals (Background)
Tim Pierce - Guitar (Acoustic), Dobro, Guitar, Mandolin, Guitar (Electric), Guitar (12 String), Slide Guitar
Tollak Ollestad - Harmonica
 
LOG
Exact Audio Copy V0.99 prebeta 3 from 28. July 2007
EAC extraction logfile from 27. February 2009, 14:47
Dave Koz / Off The Beaten Path
Used drive : TSSTcorpCDDVDW SE-S204N Adapter: 6 ID: 4
Read mode : Secure
Utilize accurate stream : Yes
Defeat audio cache : Yes
Make use of C2 pointers : No
Read offset correction : 6
Overread into Lead-In and Lead-Out : No
Fill up missing offset samples with silence : Yes
Delete leading and trailing silent blocks : No
Null samples used in CRC calculations : Yes
Used interface : Installed external ASPI interface
Used output format : User Defined Encoder
Selected bitrate : 768 kBit/s
Quality : High
Add ID3 tag : No
Command line compressor : H:\Program Files\Exact Audio Copy\FLAC\FLAC.EXE
Additional command line options : -6 -V -T "ARTIST=%a" -T "TITLE=%t" -T "ALBUM=%g" -T "DATE=%y" -T "TRACKNUMBER=%n" -T "GENRE=%m" -T "COMMENT=%e" %s -o %d
TOC of the extracted CD
Track | Start | Length | Start sector | End sector
---------------------------------------------------------
1 | 17:03.34 | 4:07.70 | 76759 | 95353
2 | 21:11.29 | 4:37.25 | 95354 | 116153
3 | 25:48.54 | 4:42.65 | 116154 | 137368
4 | 30:31.44 | 4:20.50 | 137369 | 156918
5 | 34:52.19 | 5:44.70 | 156919 | 182788
6 | 40:37.14 | 3:34.60 | 182789 | 198898
7 | 44:11.74 | 3:50.62 | 198899 | 216210
8 | 48:02.61 | 4:56.28 | 216211 | 238438
9 | 52:59.14 | 4:41.45 | 238439 | 259558
10 | 57:40.59 | 4:10.02 | 259559 | 278310
11 | 61:50.61 | 4:49.53 | 278311 | 300038
12 | 66:40.39 | 5:13.70 | 300039 | 323583
13 | 71:54.34 | 2:42.27 | 323584 | 335760
Range status and errors
Selected range
Filename C:\TTT\Dave Koz\1996 - Off The Beaten Path\Dave Koz - Off The Beaten Path.wav
Peak level 100.0 %
Range quality 99.9 %
Test CRC 0B3A188A
Copy CRC 0B3A188A
Copy OK
No errors occurred
AccurateRip summary
Track 1 accurately ripped (confidence 25) [64DC83C4]
Track 2 accurately ripped (confidence 25) [97D19557]
Track 3 accurately ripped (confidence 25) [A832EC05]
Track 4 accurately ripped (confidence 25) [51BB8AC5]
Track 5 accurately ripped (confidence 25) [50FDFD69]
Track 6 accurately ripped (confidence 25) [07153A48]
Track 7 accurately ripped (confidence 25) [EC35F01B]
Track 8 accurately ripped (confidence 25) [06995F1C]
Track 9 accurately ripped (confidence 24) [B3EEC46C]
Track 10 accurately ripped (confidence 24) [0B7F2099]
Track 11 accurately ripped (confidence 24) [16BA2B1D]
Track 12 accurately ripped (confidence 24) [926929E0]
Track 13 accurately ripped (confidence 24) [3E429310]
All tracks accurately ripped
End of status report
 
1997 - December Makes Me Feel This Way

Производитель диска: USA (Capitol Records)
Продолжительность: 0:48:07
Billboard Charts:
Top Contemporary Jazz Albums No. 2

01. Sleighride 03:20
02. Have Yourself A Merry Little Christmas 03:18
03. Winter Wonderland 02:56
04. White Christmas 03:17
05. Santa Claus Is Coming To Town 02:54
06. The Christmas Song 03:01
07. I'll Be Home For Christmas 04:08
08. Little Drummer Boy 03:40
09. December Makes Me Fell This Way 03:22
10. Silverbells 03:50
11. Eight Candles 03:31
12. O Tannenbaum 03:49
13. Auld Lang Syne 06:55
 
Персоны:
Bruce Watson - Guitar (Acoustic), Guitar, Harmonica, Mandolin, Pedal Steel, Guitar (Electric), Slide Guitar, Lap Steel Guitar
Dave Koz - Piano, Keyboards, Sax (Alto), Sax (Baritone), Sax (Soprano), Sax (Tenor), Vocals, Main Performer, Performer
David Piltch - Bass (Acoustic)
Doug Pettibone - Guitar (Acoustic), Guitar, Guitar (Bass), Guitar (Electric)
Jeff Koz - Guitar
Lisa Haley - Fiddle
Phil Parlapiano - Organ, Guitar (Acoustic), Mandolin, Piano, Accordion, Celeste, Keyboards, Organ (Hammond), Mellotron, Wurlitzer
Stephen Theard - Percussion, Drums, Bells, Trash Cans
Victoria Shaw - Vocals (Background), Performer
 
LOG
Exact Audio Copy V0.99 prebeta 3 from 28. July 2007
EAC extraction logfile from 19. March 2009, 12:32
Dave Koz / December Makes Me Feel This Way
Used drive : TSSTcorpCDDVDW SE-S204N Adapter: 6 ID: 4
Read mode : Secure
Utilize accurate stream : Yes
Defeat audio cache : Yes
Make use of C2 pointers : No
Read offset correction : 6
Overread into Lead-In and Lead-Out : No
Fill up missing offset samples with silence : Yes
Delete leading and trailing silent blocks : No
Null samples used in CRC calculations : Yes
Used interface : Installed external ASPI interface
Used output format : User Defined Encoder
Selected bitrate : 768 kBit/s
Quality : High
Add ID3 tag : No
Command line compressor : H:\Program Files\Exact Audio Copy\FLAC\FLAC.EXE
Additional command line options : -6 -V -T "ARTIST=%a" -T "TITLE=%t" -T "ALBUM=%g" -T "DATE=%y" -T "TRACKNUMBER=%n" -T "GENRE=%m" -T "COMMENT=%e" %s -o %d
TOC of the extracted CD
Track | Start | Length | Start sector | End sector
---------------------------------------------------------
1 | 0:00.00 | 3:20.37 | 0 | 15036
2 | 3:20.37 | 3:18.38 | 15037 | 29924
3 | 6:39.00 | 2:56.22 | 29925 | 43146
4 | 9:35.22 | 3:17.20 | 43147 | 57941
5 | 12:52.42 | 2:54.28 | 57942 | 71019
6 | 15:46.70 | 3:01.40 | 71020 | 84634
7 | 18:48.35 | 4:08.05 | 84635 | 103239
8 | 22:56.40 | 3:40.57 | 103240 | 119796
9 | 26:37.22 | 3:22.70 | 119797 | 135016
10 | 30:00.17 | 3:50.18 | 135017 | 152284
11 | 33:50.35 | 3:31.55 | 152285 | 168164
12 | 37:22.15 | 3:49.05 | 168165 | 185344
13 | 41:11.20 | 6:55.67 | 185345 | 216536
Range status and errors
Selected range
Filename C:\TTT\Dave Koz\1997 - December Makes Me Feel This Way\Dave Koz - December Makes Me Feel This Way.wav
Peak level 98.5 %
Range quality 100.0 %
Test CRC C4047FF9
Copy CRC C4047FF9
Copy OK
No errors occurred
AccurateRip summary
Track 1 accurately ripped (confidence 4) [4022758A]
Track 2 accurately ripped (confidence 4) [489E0FA7]
Track 3 accurately ripped (confidence 4) [AEE2752E]
Track 4 accurately ripped (confidence 4) [AECE534F]
Track 5 accurately ripped (confidence 4) [218511C7]
Track 6 accurately ripped (confidence 4) [B2B519CF]
Track 7 accurately ripped (confidence 4) [88568D2D]
Track 8 accurately ripped (confidence 4) [4CD7209D]
Track 9 accurately ripped (confidence 3) [A45488E1]
Track 10 accurately ripped (confidence 4) [468082BB]
Track 11 accurately ripped (confidence 4) [7CA02E4F]
Track 12 accurately ripped (confidence 4) [9697888A]
Track 13 accurately ripped (confidence 3) [7951E5DB]
All tracks accurately ripped
End of status report
 
1999 - The Dance

Производитель диска: USA (Capitol Records)
Продолжительность: 1:00:44
Billboard Charts:
Top Contemporary Jazz Albums No. 2
Top R&B/Hip-Hop Albums No. 67
The Billboard 200 No. 190

01. Together Again 04:15
02. I'm Waiting For You 03:19
03. Can't Let You Go (The Sha la Song) (feat. Luther Vandross) 04:17
04. Careless Whisper (feat. Montell Jordan) 06:10
05. Love Is On The Way (feat. Chris Botti) 04:47
06. Know You By Heart 03:39
07. Surrender 04:42
08. You Are Me, I Am You (feat. Marc Antoine) 04:53
09. The Dance (feat. BeBe Winans) 05:17
10. Cuban Hideaway 02:14
11. The Bright Side (feat. Jonathan Butler) 04:42
12. Don't Give Up (feat. Burt Bacharach) 04:01
13. Right By Your Side 04:06
14. I'll Be There 04:16
 
Персоны:
Al McKay - Guitar (Electric)
Alejandra Vargas - Spoken Word
Alfie Silas - Vocals (Background)
Audrey Wheeler - Vocals (Background)
BeBe Winans - Vocals, Vocals (Background), Performer
Bill 'The Rubberband Man' Sharpe - Bass (Electric)
Bill Sharpe - Bass (Electric)
Brad Cole - Keyboards
Brian Culbertson - Bass, Keyboards
Brian Kigore - Percussion
Brian Kilgore - Percussion
Burt Bacharach - Piano
Carl Sturken - Guitar (Acoustic), Bass, Guitar (Electric), Keyboards
Chris Botti - Trumpet, Trumpet (Muted), Performer
Cindy Mizelle - Vocals (Background)
Dave Koz - Percussion, Keyboards, Saxophone, Sax (Alto), Sax (Baritone), Sax (Soprano), Sax (Tenor), Sound Effects, Multi Instruments, Main Performer, Sax Effects
David Benoit - Piano
David Porter Thomas - Vocals (Background)
Dean Parks - Guitar (Acoustic), Guitar (Electric)
Ethan Farmer - Bass
Evan Rogers - Vocals, Vocals (Background)
Freddie 'Ready Freddie' Washington - Bass
Garron Chang - Sampling
George A. Johnson, Jr. - Drums
Glen Ballard - Piano, Keyboards
Gloria Agustus - Vocals (Background)
Greg Phillinganes - Keyboards
Jackie Simley Stevens - Vocals (Background)
Janet Mims - Vocals (Background)
Jay Williams - Guitar (Acoustic)
Jeff Koz - Guitar (Acoustic), Bass, Keyboards, Special Effects, Vocals (Background), Guitar (Nylon String)
Jeff Lorber - Bass, Keyboards
John 'J.R.' Robinson - Drums
John Pena - Bass, Bass (Electric)
Jonathan Butler - Guitar (Acoustic), Vocals, Performer
Kathy Hazzard - Vocals (Background)
Kevin Owens - Vocals
Kevin Ownes - Vocals
Lenny Castro - Percussion
Luis Conte - Percussion, Latin Percussion
Luther Vandross - Vocals, Performer
Marc Antione - Spanish Guitar
Marc Antoine - Spanish Guitar
Mark Portmann - Keyboards
Matt Chamberlain - Drums
Mervyn Warren - Vocals, Vocals (Background)
Michael Hart Thompson - Guitar (Electric), Guitar (Nylon String)
Michael Landau - Guitar (Acoustic), Guitar (Electric), Guitar (Nylon String)
Michael Thompson - Guitar (Acoustic), Guitar (Electric), Special Effects
Michael Thompson - Guitar (Acoustic), Guitar, Guitar (Electric), Guitar (Nylon String)
Montell Jordan - Vocals, Vocals (Background), Performer
NUA All-Stars - Saxophone
Nathan East - Bass
Neil Stubenhaus - Bass
Nick Lane - Trombone
Paul Jackson, Jr. - Guitar (Electric)
Paulinho Da Costa - Percussion
Randy Kerber - Piano, Fender Rhodes
Rick Nelson - Vocals (Background)
Rick Nelson - Vocals (Background)
Ricky Lawson - Drums
Schappell Crawford - Keyboards, Fender Rhodes
Shae Jones - Vocals (Background)
Shapelle Crawford - Keyboards, Fender Rhodes
Steve Ferrone - Drums
Sue Ann Carwell - Vocals (Background)
Terry Bradford - Vocals (Background)
Timothy Owens - Vocals (Background)
Tony Maiden - Wah Wah Guitar, Wah Wah Bass
Urs Wiesendanger - Percussion, Keyboards
Vinnie Colaiuta - Drums
Wayne Bergeron - Trumpet, Flugelhorn
 
LOG
Exact Audio Copy V0.99 prebeta 3 from 28. July 2007
EAC extraction logfile from 26. February 2009, 15:07
Dave Koz / The Dance
Used drive : TSSTcorpCDDVDW SE-S204N Adapter: 6 ID: 4
Read mode : Secure
Utilize accurate stream : Yes
Defeat audio cache : Yes
Make use of C2 pointers : No
Read offset correction : 6
Overread into Lead-In and Lead-Out : No
Fill up missing offset samples with silence : Yes
Delete leading and trailing silent blocks : No
Null samples used in CRC calculations : Yes
Used interface : Installed external ASPI interface
Used output format : User Defined Encoder
Selected bitrate : 768 kBit/s
Quality : High
Add ID3 tag : No
Command line compressor : H:\Program Files\Exact Audio Copy\FLAC\FLAC.EXE
Additional command line options : -6 -V -T "ARTIST=%a" -T "TITLE=%t" -T "ALBUM=%g" -T "DATE=%y" -T "TRACKNUMBER=%n" -T "GENRE=%m" -T "COMMENT=%e" %s -o %d
TOC of the extracted CD
Track | Start | Length | Start sector | End sector
---------------------------------------------------------
1 | 0:00.00 | 4:15.10 | 0 | 19134
2 | 4:15.10 | 3:19.40 | 19135 | 34099
3 | 7:34.50 | 4:17.60 | 34100 | 53434
4 | 11:52.35 | 6:10.12 | 53435 | 81196
5 | 18:02.47 | 4:47.30 | 81197 | 102751
6 | 22:50.02 | 3:39.43 | 102752 | 119219
7 | 26:29.45 | 4:42.45 | 119220 | 140414
8 | 31:12.15 | 4:53.02 | 140415 | 162391
9 | 36:05.17 | 5:17.53 | 162392 | 186219
10 | 41:22.70 | 2:14.52 | 186220 | 196321
11 | 43:37.47 | 4:42.73 | 196322 | 217544
12 | 48:20.45 | 4:01.20 | 217545 | 235639
13 | 52:21.65 | 4:06.27 | 235640 | 254116
14 | 56:28.17 | 4:16.43 | 254117 | 273359
Range status and errors
Selected range
Filename C:\TTT\Dave Koz\1999 - The Dance\Dave Koz - The Dance.wav
Peak level 99.9 %
Range quality 100.0 %
Test CRC F26E0357
Copy CRC F26E0357
Copy OK
No errors occurred
AccurateRip summary
Track 1 accurately ripped (confidence 6) [C26838F8]
Track 2 accurately ripped (confidence 6) [B2830005]
Track 3 accurately ripped (confidence 6) [1BDEA804]
Track 4 accurately ripped (confidence 6) [F8440065]
Track 5 accurately ripped (confidence 6) [2C0526EC]
Track 6 accurately ripped (confidence 6) [7EF0908C]
Track 7 accurately ripped (confidence 6) [DDDF627A]
Track 8 accurately ripped (confidence 6) [0070972B]
Track 9 accurately ripped (confidence 6) [3C538719]
Track 10 accurately ripped (confidence 6) [5E0DFE6C]
Track 11 accurately ripped (confidence 6) [5BC4D60B]
Track 12 accurately ripped (confidence 6) [E7C59742]
Track 13 accurately ripped (confidence 6) [ECD49AAA]
Track 14 accurately ripped (confidence 5) [592C1FE5]
All tracks accurately ripped
End of status report
 
2001 - A Smooth Jazz Christmas

Производитель диска: USA (Capitol Records)
Продолжительность: 1:00:32
Billboard Charts:
Top Contemporary Jazz Albums No. 1
The Billboard 200 No. 140

01. Dave Koz, Peter White, David Benoit, Rick Braun, Brenda Russell / Smooth Jazz Christmas Overture 08:32
02. Dave Koz, Peter White, David Benoit, Rick Braun, Brenda Russell / The Christmas Song 04:55
03. Dave Koz, Peter White, David Benoit, Rick Braun, Brenda Russell / O'Tannenbaum/Sleigh Ride Medley 04:04
04. Peter White / Silent Night 04:34
05. Dave Koz and David Benoit / Beneath The Moonlit Sky 03:04
06. Rick Braun / Little Drummer Boy 04:27
07. David Benoit / Hark! The Herald Angels Sing 04:09
08. Kenny Loggins / December Makes Me Feel This Way 03:39
09. Brenda Russell / Boogie Woogie Santa Claus 03:19
10. Dave Koz and Peter White / Have Yourself A Merry Little Christmas 03:49
11. Brenda Russell, David Benoit and Dave Koz / White Christmas 03:22
12. Dave Koz / Eight Candles 03:36
13. Brenda Russell / Get Here 04:58
14. Dave Koz, Peter White, David Benoit, Rick Braun, Brenda Russell / 'Twas The Night Before Christmas 03:57
 
Персоны:
Bill Sharpe - Bass
Brenda Russell - Vocals
Brian Kilgore - Percussion
Bridgette Bryant - Vocals (Background)
Dave Koz - Sax (Alto), Sax (Soprano), Sax (Tenor), Handclapping, Main Performer
David Benoit - Piano
Esterlee Nicholson - Vocals (Background)
John Hendrickson - Handclapping
Julian Raymond - Handclapping
Kenny Loggins - Vocals
Nick Lane - Trombone (Bass), Trombone (Tenor)
Paula Salvatore - Handclapping
Peter White - Guitar (Acoustic), Accordion
Rick Braun - Trumpet, Flugelhorn, Handclapping
Sandy Simmons - Vocals (Background)
Stephen Theard - Drums
 
LOG
Exact Audio Copy V0.99 prebeta 3 from 28. July 2007
EAC extraction logfile from 27. February 2009, 15:30
Dave Koz & Friends / A Smooth Jazz Christmas 2001
Used drive : TSSTcorpCDDVDW SE-S204N Adapter: 6 ID: 4
Read mode : Secure
Utilize accurate stream : Yes
Defeat audio cache : Yes
Make use of C2 pointers : No
Read offset correction : 6
Overread into Lead-In and Lead-Out : No
Fill up missing offset samples with silence : Yes
Delete leading and trailing silent blocks : No
Null samples used in CRC calculations : Yes
Used interface : Installed external ASPI interface
Used output format : User Defined Encoder
Selected bitrate : 768 kBit/s
Quality : High
Add ID3 tag : No
Command line compressor : H:\Program Files\Exact Audio Copy\FLAC\FLAC.EXE
Additional command line options : -6 -V -T "ARTIST=%a" -T "TITLE=%t" -T "ALBUM=%g" -T "DATE=%y" -T "TRACKNUMBER=%n" -T "GENRE=%m" -T "COMMENT=%e" %s -o %d
TOC of the extracted CD
Track | Start | Length | Start sector | End sector
---------------------------------------------------------
1 | 0:00.00 | 8:32.45 | 0 | 38444
2 | 8:32.45 | 4:55.62 | 38445 | 60631
3 | 13:28.32 | 4:04.05 | 60632 | 78936
4 | 17:32.37 | 4:34.33 | 78937 | 99519
5 | 22:06.70 | 3:04.60 | 99520 | 113379
6 | 25:11.55 | 4:27.52 | 113380 | 133456
7 | 29:39.32 | 4:09.13 | 133457 | 152144
8 | 33:48.45 | 3:39.37 | 152145 | 168606
9 | 37:28.07 | 3:19.53 | 168607 | 183584
10 | 40:47.60 | 3:49.57 | 183585 | 200816
11 | 44:37.42 | 3:22.13 | 200817 | 215979
12 | 47:59.55 | 3:36.32 | 215980 | 232211
13 | 51:36.12 | 4:58.70 | 232212 | 254631
14 | 56:35.07 | 3:57.05 | 254632 | 272411
Range status and errors
Selected range
Filename C:\TTT\Dave Koz\2001 - A Smooth Jazz Christmas\Dave Koz & Friends - A Smooth Jazz Christmas 2001.wav
Peak level 100.0 %
Range quality 100.0 %
Test CRC 9E664B9D
Copy CRC 9E664B9D
Copy OK
No errors occurred
AccurateRip summary
Track 1 accurately ripped (confidence 20) [32C0DE66]
Track 2 accurately ripped (confidence 20) [DF27DCF5]
Track 3 accurately ripped (confidence 20) [11E56E54]
Track 4 accurately ripped (confidence 19) [C62B8EB3]
Track 5 accurately ripped (confidence 20) [5D1DE847]
Track 6 accurately ripped (confidence 20) [008594EC]
Track 7 accurately ripped (confidence 20) [E2867DF3]
Track 8 accurately ripped (confidence 20) [B389287A]
Track 9 accurately ripped (confidence 20) [37788109]
Track 10 accurately ripped (confidence 20) [29D2F43D]
Track 11 accurately ripped (confidence 20) [37EA1C4F]
Track 12 accurately ripped (confidence 20) [5E5E69D1]
Track 13 accurately ripped (confidence 20) [9BE47D54]
Track 14 accurately ripped (confidence 19) [6BB97952]
All tracks accurately ripped
End of status report
 
2003 - Saxophonic

Производитель диска: USA (Capiltol Records)
Продолжительность: 0:45:52
Billboard Charts:
Top Contemporary Jazz Album No. 2
The Billboard 200 No. 129

01. Honey-Dipped 04:23
02. Love Changes Everything 03:58
03. All I See Is You 04:14
04. Just To Be Next To You 04:54
05. Let It Free 03:48
06. Undeniable 04:13
07. Saxophonic (Come On Up) 05:02
08. Definition Of Beautiful 04:56
09. Sound Of The Underground 04:05
10. Only Tomorrow Knows 05:07
11. I Believe 05:31
12. A View From Above 04:51
13. One Last Thing 03:35
 
Персоны:
Alex Al - Bass (Electric)
Audrey Koz - Handclapping
Bashiri Johnson - African Percussion
Bill Reichenbach Jr. - Trombone
Bobby Caldwell - Vocals (Background)
Brad Cole - Piano
Brian Culbertson - Piano, Trombone, Trumpet, Keyboards, Sound Effects, Synthesizer Bass
Brian McKnight - Piano, Vocals, Vocals (Background)
Carl Sturken - Guitar (Acoustic), Bass, Guitar (Electric), Keyboards
Charles Crawford - Scratching, Turntables
Chris Botti - Trumpet
Dave Koz - Saxophone, Sax (Alto), Sax (Soprano), Sax (Tenor), Handclapping, Sax Effects
Emma Kummrow - Violin
Evan Rogers - Vocals (Background), Whistle (Human)
Gary Morris - Handclapping
Gary Novak - Drums
Gloria Justin - Violin
Hyman Katz - Handclapping
Igor Szwec - Violin
Janice Dela Cruz - Handclapping
Javier - Vocals, Vocals (Background)
Jeff Koz - Bass, Guitar, Keyboards
Jeff Lorber - Guitar (Electric), Keyboards, Clavinet, Handclapping, Clapping, Wurlitzer
Jennie Lorenzo - Cello
Jerry Hey - Trumpet, Flugelhorn
John 'J.R.' Robinson - Drums
John Stoddart - Vocals
Lenny Castro - Percussion
Liz Healy - Handclapping
Lois Gleckman - Handclapping
Marc Antoine - Guitar (Acoustic), Guitar (Nylon String)
Mel Pearlman - Clapping
Michael Hart Thompson - Guitar (Acoustic), Guitar (Electric), Guitar (Steel), E-Bow, Synth Guitar
Mink Tungwarapotwitan - Clapping
Nathan East - Bass, Bass (Electric)
Norman Brown - Guitar
Paul Jackson, Jr. - Guitar (Acoustic), Guitar, Guitar Effects
Peter Nocella - Viola
Tony Maiden - Guitar, Guitar (Electric), Wah Wah Guitar
 
LOG
Exact Audio Copy V0.99 prebeta 3 from 28. July 2007
EAC extraction logfile from 19. March 2009, 13:01
Dave Koz / Saxophonic
Used drive : TSSTcorpCDDVDW SE-S204N Adapter: 6 ID: 4
Read mode : Secure
Utilize accurate stream : Yes
Defeat audio cache : Yes
Make use of C2 pointers : No
Read offset correction : 6
Overread into Lead-In and Lead-Out : No
Fill up missing offset samples with silence : Yes
Delete leading and trailing silent blocks : No
Null samples used in CRC calculations : Yes
Used interface : Installed external ASPI interface
Used output format : User Defined Encoder
Selected bitrate : 768 kBit/s
Quality : High
Add ID3 tag : No
Command line compressor : H:\Program Files\Exact Audio Copy\FLAC\FLAC.EXE
Additional command line options : -6 -V -T "ARTIST=%a" -T "TITLE=%t" -T "ALBUM=%g" -T "DATE=%y" -T "TRACKNUMBER=%n" -T "GENRE=%m" -T "COMMENT=%e" %s -o %d
TOC of the extracted CD
Track | Start | Length | Start sector | End sector
---------------------------------------------------------
1 | 0:00.00 | 4:23.30 | 0 | 19754
2 | 4:23.30 | 3:58.37 | 19755 | 37641
3 | 8:21.67 | 4:14.23 | 37642 | 56714
4 | 12:36.15 | 4:54.30 | 56715 | 78794
5 | 17:30.45 | 3:48.30 | 78795 | 95924
6 | 21:19.00 | 4:13.30 | 95925 | 114929
7 | 25:32.30 | 5:02.42 | 114930 | 137621
8 | 30:34.72 | 4:56.35 | 137622 | 159856
9 | 35:31.32 | 4:05.65 | 159857 | 178296
10 | 39:37.22 | 5:07.30 | 178297 | 201351
11 | 44:44.52 | 5:31.40 | 201352 | 226216
12 | 50:16.17 | 4:51.53 | 226217 | 248094
13 | 55:07.70 | 3:35.47 | 248095 | 264266
Range status and errors
Selected range
Filename C:\TTT\Dave Koz\2003 - Saxophonic\Dave Koz - Saxophonic.wav
Peak level 99.5 %
Range quality 100.0 %
Test CRC 8C55F6FD
Copy CRC 8C55F6FD
Copy OK
No errors occurred
AccurateRip summary
Track 1 accurately ripped (confidence 31) [157AACEE]
Track 2 accurately ripped (confidence 30) [6D83165E]
Track 3 accurately ripped (confidence 31) [73871735]
Track 4 accurately ripped (confidence 29) [000749CA]
Track 5 accurately ripped (confidence 30) [9B22CDF7]
Track 6 accurately ripped (confidence 30) [27DBDB5D]
Track 7 accurately ripped (confidence 31) [E0D6770B]
Track 8 accurately ripped (confidence 31) [FB932607]
Track 9 accurately ripped (confidence 30) [581B9C03]
Track 10 accurately ripped (confidence 30) [B9CB1038]
Track 11 accurately ripped (confidence 30) [AB239381]
Track 12 accurately ripped (confidence 29) [CC5D37FE]
Track 13 accurately ripped (confidence 27) [3C99807A]
All tracks accurately ripped
End of status report
 
2007 - At The Movies

Производитель диска: USA (Capitol Records)
Продолжительность: 1:00:17
Billboard Charts:
Top Contemporary Jazz Albums No. 1
The Billboard 200 No. 86

01. Over The Rainbow (with Judy Garland) 04:02
02. Moon River (feat. Barry Manilow) 03:47
03. As Time Goes By (with Ingrid Bergman) 04:02
04. Somewhere (feat. Anita Baker) 04:32
05. The Shadow Of Your Smile (feat. Johnny Mathis and Chris Botti) 05:22
06. The Pink Panther 03:38
07. The Way We Were (feat. Vanessa Williams) 04:31
08. The Summer Knows 04:55
09. It Might Be You (feat. India.Arie) 04:23
10. Cinema Paradiso Suite 04:16
11. A Whole New World (feat. Donna Summer) 03:46
12. Schindler's List 04:17
13. It Might Be You (feat. Peter White) (Instrumental) 04:00
14. The Shadow Of Your Smile (feat. Chris Botti and Norman Brown) (Instrumental) 04:38
 
Персоны:
Abe Appleman - Violin
Adrian Benjamin - Viola
Andy Snitzer - Sax (Tenor)
Anita Baker - Vocals
Ann Leathers - Violin
Anne Lehmann - Violin
Avril Brown - Violin
Barry Eastmond - Piano
Barry Manilow - Vocals
Bill Meredith - Horn (English)
Birch Johnson - Trombone (Tenor)
Cenovia Cummins - Violin
Charles Pillow - Clarinet, Flute, Sax (Tenor)
Chris Botti - Trumpet
Chris Hall - Tuba
Craig Mumm - Viola
Crystal Garner - Viola
Dave Koz - Sax (Alto), Sax (Soprano), Sax (Tenor)
David Andrew Mann - Clarinet, Flute
David Chan - Violin
David Finck - Bass
Dean Parks - Guitar (Acoustic)
Diane Barere - Cello
Diane Lesser - Horn (English), Oboe
Donna Summer - Vocals
Ellen Westerman - Cello
Eugene J. Moye - Cello
Gail Druvand - Bass
George Flynn - Trombone (Bass)
Gregg Field - Drums
India.Arie - Vocals
Ingrid Bergman - Spoken Word
Jan Mullen - Violin
Jean Ingraham - Violin
Jeanne LeBlanc - Cello
Jeff Mironov - Guitar
Jim Cox - Keyboards
Jim Hynes - Trumpet
Jim Saporito - Percussion
Joe Anderer - French Horn
Joe Passaro - Tympani [Timpani]
Johnny Mathis - Vocals
Jonathan Dinklage - Violin
Judy Garland - Vocals
Judy Witmer - Viola
Julie Landsman - French Horn
Katherine Fong - Violin
Kenneth Hitchcock - Sax (Alto)
Kevin Axt - Bass
Larry Farrell - Trombone (Tenor)
Laura McGinnis - Violin
Lawrence Glazener - Bass
Marc Goldberg - Bassoon
Marti Sweet - Violin
Maxine Roach - Viola
Michael Hart Thompson - Guitar (Electric)
Norman Brown - Guitar (Electric)
Pamela Sklar - Flute
Patrick Milando - French Horn
Peter White - Guitar (Acoustic)
Philippe Saisse - Keyboards
Randy Waldman - Piano, Fender Rhodes
Richard Locker - Cello
Rob Mathes - Piano
Rob Mounsey - Piano
Rodney Jones - Guitar
Roger Rosenberg - Sax (Baritone)
Ron Jannelli - Bassoon
Shawn Pelton - Drums
Stacy Shames - Harp
Stewart Rose - French Horn
Tony Kadleck - Trumpet
Vanessa Williams - Vocals
Vince Lionti - Viola
 
LOG
Exact Audio Copy V0.99 prebeta 3 from 28. July 2007
EAC extraction logfile from 6. March 2009, 13:39
Dave Koz / At The Movies
Used drive : TSSTcorpCDDVDW SE-S204N Adapter: 6 ID: 4
Read mode : Secure
Utilize accurate stream : Yes
Defeat audio cache : Yes
Make use of C2 pointers : No
Read offset correction : 6
Overread into Lead-In and Lead-Out : No
Fill up missing offset samples with silence : Yes
Delete leading and trailing silent blocks : No
Null samples used in CRC calculations : Yes
Used interface : Installed external ASPI interface
Used output format : User Defined Encoder
Selected bitrate : 768 kBit/s
Quality : High
Add ID3 tag : No
Command line compressor : H:\Program Files\Exact Audio Copy\FLAC\FLAC.EXE
Additional command line options : -6 -V -T "ARTIST=%a" -T "TITLE=%t" -T "ALBUM=%g" -T "DATE=%y" -T "TRACKNUMBER=%n" -T "GENRE=%m" -T "COMMENT=%e" %s -o %d
TOC of the extracted CD
Track | Start | Length | Start sector | End sector
---------------------------------------------------------
1 | 0:00.00 | 4:02.72 | 0 | 18221
2 | 4:02.72 | 3:47.40 | 18222 | 35286
3 | 7:50.37 | 4:02.46 | 35287 | 53482
4 | 11:53.08 | 4:32.63 | 53483 | 73945
5 | 16:25.71 | 5:22.55 | 73946 | 98150
6 | 21:48.51 | 3:38.13 | 98151 | 114513
7 | 25:26.64 | 4:31.13 | 114514 | 134851
8 | 29:58.02 | 4:55.65 | 134852 | 157041
9 | 34:53.67 | 4:23.32 | 157042 | 176798
10 | 39:17.24 | 4:16.45 | 176799 | 196043
11 | 43:33.69 | 3:46.37 | 196044 | 213030
12 | 47:20.31 | 4:17.49 | 213031 | 232354
13 | 51:38.05 | 4:00.41 | 232355 | 250395
14 | 55:38.46 | 4:38.48 | 250396 | 271293
Range status and errors
Selected range
Filename C:\TTT\Dave Koz\2007 - At The Movies\Dave Koz - At The Movies.wav
Peak level 99.7 %
Range quality 100.0 %
Test CRC E4BBD068
Copy CRC E4BBD068
Copy OK
No errors occurred
AccurateRip summary
Track 1 accurately ripped (confidence 19) [173C4EBB]
Track 2 accurately ripped (confidence 19) [F3DA2258]
Track 3 accurately ripped (confidence 19) [7E4EFBB8]
Track 4 accurately ripped (confidence 19) [E7A7904B]
Track 5 accurately ripped (confidence 19) [53BC8DA3]
Track 6 accurately ripped (confidence 19) [6E5A4D1B]
Track 7 accurately ripped (confidence 19) [F137849B]
Track 8 accurately ripped (confidence 19) [C976514F]
Track 9 accurately ripped (confidence 19) [2C6BD8E0]
Track 10 accurately ripped (confidence 19) [BF9F08C0]
Track 11 accurately ripped (confidence 19) [0E2FD657]
Track 12 accurately ripped (confidence 18) [C56CDB94]
Track 13 accurately ripped (confidence 18) [EE269BEA]
Track 14 accurately ripped (confidence 18) [E0FEA1EC]
All tracks accurately ripped
End of status report
 
2007 - Memories of a Winter's Night

Производитель диска: USA (Capitol Records)
Продолжительность: 0:45:17
Billboard Charts:
Top Contemporary Jazz Albums No. 1

01. Deck the Halls 03:41
02. Santa Claus is Coming to Town 02:54
03. Have Yourself a Merry Little Christmas 04:19
04. White Christmas 03:17
05. Winter Wonderland 04:29
06. Hark! The Herald Angels Sing 03:52
07. Please Come Home For Christmas 03:45
08. Memories of a Winter's Night (A Song for Hanukkah) 03:31
09. Little Drummer Boy 04:23
10. Silver Bells 03:52
11. Boogie Woogie Santa Claus 03:19
12. O Tannenbaum 03:49
 
Персоны:
Alex Al - Bass
Brenda Russell - Vocals
Brian Culbertson - Percussion, Piano, Trombone, Keyboards
Brian Kilgore - Percussion
Bridgette Bryant - Vocals (Background)
Bruce Watson - Guitar (Acoustic), Guitar, Guitar (Electric)
Dave Koz - Piano, Sax (Alto), Sax (Baritone), Sax (Tenor)
David Benoit - Vocals
David Piltch - Bass (Acoustic)
Donn Wyatt - Piano, Keyboards
Doug Pettibone - Guitar (Acoustic), Guitar (Electric)
Ester Nicholson - Vocals (Background)
Fernando Perdomo - Bass
Gerry 'The Gov' Brown - Drums
Gigi Worth - Vocals
Jeff Koz - Guitar (Nylon String)
Jim Culbertson - Trumpet
Kelly Sweet - Vocals, Vocals (Background)
Kimberley Locke - Vocals, Vocals (Background)
Michael Thompson - Guitar
Nick Lane - Trombone
Paul Jackson, Jr. - Guitar (Electric)
Phil Parlapiano - Guitar (Acoustic), Keyboards
Ray Parker, Jr. - Guitar
Rick Braun - Trumpet
Sandy Simmons - Vocals (Background)
Tony Maiden - Guitar (Electric), Vocals
 
LOG
Exact Audio Copy V0.99 prebeta 3 from 28. July 2007
EAC extraction logfile from 6. March 2009, 12:44
Dave Koz / Memories of a Winter's Night
Used drive : TSSTcorpCDDVDW SE-S204N Adapter: 6 ID: 4
Read mode : Secure
Utilize accurate stream : Yes
Defeat audio cache : Yes
Make use of C2 pointers : No
Read offset correction : 6
Overread into Lead-In and Lead-Out : No
Fill up missing offset samples with silence : Yes
Delete leading and trailing silent blocks : No
Null samples used in CRC calculations : Yes
Used interface : Installed external ASPI interface
Used output format : User Defined Encoder
Selected bitrate : 768 kBit/s
Quality : High
Add ID3 tag : No
Command line compressor : H:\Program Files\Exact Audio Copy\FLAC\FLAC.EXE
Additional command line options : -6 -V -T "ARTIST=%a" -T "TITLE=%t" -T "ALBUM=%g" -T "DATE=%y" -T "TRACKNUMBER=%n" -T "GENRE=%m" -T "COMMENT=%e" %s -o %d
TOC of the extracted CD
Track | Start | Length | Start sector | End sector
---------------------------------------------------------
1 | 0:00.00 | 3:41.13 | 0 | 16587
2 | 3:41.13 | 2:54.56 | 16588 | 29693
3 | 6:35.69 | 4:19.65 | 29694 | 49183
4 | 10:55.59 | 3:17.46 | 49184 | 64004
5 | 14:13.30 | 4:29.51 | 64005 | 84230
6 | 18:43.06 | 3:52.66 | 84231 | 101696
7 | 22:35.72 | 3:45.56 | 101697 | 118627
8 | 26:21.53 | 3:31.33 | 118628 | 134485
9 | 29:53.11 | 4:23.03 | 134486 | 154213
10 | 34:16.14 | 3:52.06 | 154214 | 171619
11 | 38:08.20 | 3:19.55 | 171620 | 186599
12 | 41:28.00 | 3:49.24 | 186600 | 203798
Range status and errors
Selected range
Filename C:\TTT\Dave Koz\2007 - Memories of a Winter's Night\Dave Koz - Memories of a Winter's Night.wav
Peak level 99.9 %
Range quality 100.0 %
Test CRC 618096CF
Copy CRC 618096CF
Copy OK
No errors occurred
AccurateRip summary
Track 1 not present in database
Track 2 not present in database
Track 3 not present in database
Track 4 not present in database
Track 5 not present in database
Track 6 not present in database
Track 7 not present in database
Track 8 not present in database
Track 9 not present in database
Track 10 not present in database
Track 11 not present in database
Track 12 not present in database
None of the tracks are present in the AccurateRip database
End of status report
 
2008 - Greatest Hits

Производитель диска: USA (Capitol Records)
Продолжительность: 1:08:08
Billboard Charts:
Top Contemporary Jazz Albums No. 1

01. You Make Me Smile 04:17
02. All I See Is You 03:54
03. Can't Let You Go (ft. Luther Vandross) 04:16
04. Faces Of The Heart 03:42
05. Together Again 04:13
06. Honey Dipped (ft. Norman Brown) 04:24
07. Emily 05:06
08. Life In The Fast Lane 04:09
09. Love Is On The Way (ft. Chris Botti) 04:46
10. I Can (ft. BeBe Winans) 05:12
11. Lullaby For A Rainy Night 04:56
12. Bada Bing (ft.Jeff Golub) 04:47
13. Love Changes Everything (ft. Brian McKnight) 04:01
14. And Then I Knew 05:19
15. Castle Of Dreams 04:59
 
Персоны:
Alex Al - Bass
BeBe Winans - Vocals
Darren Rahn - Keyboards, Saxophone
Dave Koz - Sax (Alto), Sax (Soprano), Sax (Tenor), Handclapping
Dorian Crozier - Drums
Erica Blue - Handclapping
Frank Selman - Guitar (Electric)
Jamie Muhoberac - Keyboards
Jason Rahn - Trumpet, Flugelhorn
Jeff Golub - Guitar
Luis Conte - Percussion
Mel Brown - Bass
Nate Phillips - Bass
Philippe Saisse - Keyboards
Randy Jacobs - Guitar (Electric)
Rick Braun - Horn, Handclapping
Ricky Lawson - Drums
Rob Cavallo - Guitar
Tim Pierce - Guitar
Vinnie Colaiuta - Drums
Walter Afanasieff - Synthesizer, Bass, Piano
 
LOG
Exact Audio Copy V0.99 prebeta 3 from 28. July 2007
EAC extraction logfile from 19. March 2009, 13:26
Dave Koz / Greatest Hits
Used drive : TSSTcorpCDDVDW SE-S204N Adapter: 6 ID: 4
Read mode : Secure
Utilize accurate stream : Yes
Defeat audio cache : Yes
Make use of C2 pointers : No
Read offset correction : 6
Overread into Lead-In and Lead-Out : No
Fill up missing offset samples with silence : Yes
Delete leading and trailing silent blocks : No
Null samples used in CRC calculations : Yes
Used interface : Installed external ASPI interface
Used output format : User Defined Encoder
Selected bitrate : 768 kBit/s
Quality : High
Add ID3 tag : No
Command line compressor : H:\Program Files\Exact Audio Copy\FLAC\FLAC.EXE
Additional command line options : -6 -V -T "ARTIST=%a" -T "TITLE=%t" -T "ALBUM=%g" -T "DATE=%y" -T "TRACKNUMBER=%n" -T "GENRE=%m" -T "COMMENT=%e" %s -o %d
TOC of the extracted CD
Track | Start | Length | Start sector | End sector
---------------------------------------------------------
1 | 0:00.00 | 4:17.45 | 0 | 19319
2 | 4:17.45 | 3:54.45 | 19320 | 36914
3 | 8:12.15 | 4:16.50 | 36915 | 56164
4 | 12:28.65 | 3:42.10 | 56165 | 72824
5 | 16:11.00 | 4:13.26 | 72825 | 91825
6 | 20:24.26 | 4:24.22 | 91826 | 111647
7 | 24:48.48 | 5:06.71 | 111648 | 134668
8 | 29:55.44 | 4:09.63 | 134669 | 153406
9 | 34:05.32 | 4:46.53 | 153407 | 174909
10 | 38:52.10 | 5:12.24 | 174910 | 198333
11 | 44:04.34 | 4:56.04 | 198334 | 220537
12 | 49:00.38 | 4:47.35 | 220538 | 242097
13 | 53:47.73 | 4:01.44 | 242098 | 260216
14 | 57:49.42 | 5:19.30 | 260217 | 284171
15 | 63:08.72 | 4:59.33 | 284172 | 306629
Range status and errors
Selected range
Filename C:\TTT\Dave Koz\2008 - Greatest Hits\Dave Koz - Greatest Hits.wav
Peak level 100.0 %
Range quality 100.0 %
Test CRC 070DEB6F
Copy CRC 070DEB6F
Copy OK
No errors occurred
AccurateRip summary
Track 1 not present in database
Track 2 not present in database
Track 3 not present in database
Track 4 not present in database
Track 5 not present in database
Track 6 not present in database
Track 7 not present in database
Track 8 not present in database
Track 9 not present in database
Track 10 not present in database
Track 11 not present in database
Track 12 not present in database
Track 13 not present in database
Track 14 not present in database
Track 15 not present in database
None of the tracks are present in the AccurateRip database
End of status report
17:37
1222
Нет комментариев. Ваш будет первым!