Поиск

(Smooth Jazz) Dave Koz - Hello Tomorrow - 2010, FLAC (tracks+.cue) lossless

Треклист:
Dave Koz / Hello Tomorrow
Жанр: Smooth Jazz
Год издания диска: 2010
Аудио кодек: FLAC (*.flac)
Тип рипа: tracks+.cue
Битрейт аудио: lossless
Продолжительность: 59 min
Источник (релизер): waffles (elyscape)
Наличие сканов в содержимом раздачи: нет
Треклист:
1. Put the Top Down (5:00)
2. When Will I Know For Sure (4:53)
3. It's Always Been You (3:57)
4. Getaway (4:45)
5. This Guy's in Love With You (4:56)
6. Anything's Possible (4:04)
7. There's a Better Way (4:34)
8. Start All Over Again (4:30)
9. Think Big (4:59)
10. The Journey (5:54)
11. Remember Where You Come From (4:37)
12. Whisper in Your Ear (4:47)
13. What You Leave Behind (1:57)
 
Лог создания рипа
Exact Audio Copy V0.99 prebeta 5 from 4. May 2009
EAC extraction logfile from 24. October 2010, 15:00
Dave Koz / Hello Tomorrow
Used drive : ATAPI iHAS324 Y Adapter: 12 ID: 0
Read mode : Secure
Utilize accurate stream : Yes
Defeat audio cache : Yes
Make use of C2 pointers : No
Read offset correction : 48
Overread into Lead-In and Lead-Out : No
Fill up missing offset samples with silence : Yes
Delete leading and trailing silent blocks : No
Null samples used in CRC calculations : Yes
Used interface : Native Win32 interface for Win NT & 2000
Gap handling : Appended to previous track
Used output format : User Defined Encoder
Selected bitrate : 128 kBit/s
Quality : High
Add ID3 tag : No
Command line compressor : C:\REACT\REACT.exe
Additional command line options : REACT %o %s %d "%a" "%g" "%t" "%n" "%x" "%y" "%m" "%e" "%f" "%b" %r
TOC of the extracted CD
Track | Start | Length | Start sector | End sector
---------------------------------------------------------
1 | 0:00.00 | 5:00.73 | 0 | 22572
2 | 5:00.73 | 4:53.21 | 22573 | 44568
3 | 9:54.19 | 3:57.23 | 44569 | 62366
4 | 13:51.42 | 4:45.62 | 62367 | 83803
5 | 18:37.29 | 4:56.01 | 83804 | 106004
6 | 23:33.30 | 4:04.41 | 106005 | 124345
7 | 27:37.71 | 4:34.03 | 124346 | 144898
8 | 32:11.74 | 4:30.70 | 144899 | 165218
9 | 36:42.69 | 4:59.46 | 165219 | 187689
10 | 41:42.40 | 5:54.62 | 187690 | 214301
11 | 47:37.27 | 4:37.70 | 214302 | 235146
12 | 52:15.22 | 4:47.61 | 235147 | 256732
13 | 57:03.08 | 1:57.36 | 256733 | 265543
Track 1
Filename C:\EAC\01 - Put the Top Down.wav
Pre-gap length 0:00:02.00
Peak level 99.7 %
Track quality 100.0 %
Test CRC E2A4DE30
Copy CRC E2A4DE30
Track not present in AccurateRip database
Copy OK
Track 2
Filename C:\EAC\02 - When Will I Know For Sure.wav
Pre-gap length 0:00:01.31
Peak level 99.7 %
Track quality 100.0 %
Test CRC 3DFF25F2
Copy CRC 3DFF25F2
Track not present in AccurateRip database
Copy OK
Track 3
Filename C:\EAC\03 - It's Always Been You.wav
Pre-gap length 0:00:01.67
Peak level 99.7 %
Track quality 100.0 %
Test CRC 2CD52A57
Copy CRC 2CD52A57
Track not present in AccurateRip database
Copy OK
Track 4
Filename C:\EAC\04 - Getaway.wav
Pre-gap length 0:00:01.59
Peak level 99.7 %
Track quality 100.0 %
Test CRC 79442CE0
Copy CRC 79442CE0
Track not present in AccurateRip database
Copy OK
Track 5
Filename C:\EAC\05 - This Guy's in Love With You.wav
Peak level 99.7 %
Track quality 100.0 %
Test CRC 5B0DE8E8
Copy CRC 5B0DE8E8
Track not present in AccurateRip database
Copy OK
Track 6
Filename C:\EAC\06 - Anything's Possible.wav
Pre-gap length 0:00:02.69
Peak level 99.7 %
Track quality 100.0 %
Test CRC 3FCFD166
Copy CRC 3FCFD166
Track not present in AccurateRip database
Copy OK
Track 7
Filename C:\EAC\07 - There's a Better Way.wav
Peak level 99.7 %
Track quality 100.0 %
Test CRC C1303CA3
Copy CRC C1303CA3
Track not present in AccurateRip database
Copy OK
Track 8
Filename C:\EAC\08 - Start All Over Again.wav
Pre-gap length 0:00:02.30
Peak level 99.7 %
Track quality 100.0 %
Test CRC 5CE74AAF
Copy CRC 5CE74AAF
Track not present in AccurateRip database
Copy OK
Track 9
Filename C:\EAC\09 - Think Big.wav
Pre-gap length 0:00:01.03
Peak level 99.7 %
Track quality 100.0 %
Test CRC 186CD808
Copy CRC 186CD808
Track not present in AccurateRip database
Copy OK
Track 10
Filename C:\EAC\10 - The Journey.wav
Peak level 99.7 %
Track quality 100.0 %
Test CRC E5A770C6
Copy CRC E5A770C6
Track not present in AccurateRip database
Copy OK
Track 11
Filename C:\EAC\11 - Remember Where You Come From.wav
Peak level 99.7 %
Track quality 99.9 %
Test CRC DC567408
Copy CRC DC567408
Track not present in AccurateRip database
Copy OK
Track 12
Filename C:\EAC\12 - Whisper in Your Ear.wav
Pre-gap length 0:00:03.11
Peak level 99.7 %
Track quality 100.0 %
Test CRC 74AD35E4
Copy CRC 74AD35E4
Track not present in AccurateRip database
Copy OK
Track 13
Filename C:\EAC\13 - What You Leave Behind.wav
Peak level 93.7 %
Track quality 100.0 %
Test CRC 544A7A87
Copy CRC 544A7A87
Track not present in AccurateRip database
Copy OK
None of the tracks are present in the AccurateRip database
No errors occurred
End of status report
 
Содержание индексной карты (.CUE)
REM DISCNUMBER 1
REM TOTALDISCS 1
REM GENRE Jazz
REM DATE 2010
REM DISCID AC0DD40D
REM COMMENT "ExactAudioCopy v0.99pb5"
CATALOG 0888072317536
PERFORMER "Dave Koz"
TITLE "Hello Tomorrow"
FILE "01 - Put the Top Down.wav" WAVE
TRACK 01 AUDIO
TITLE "Put the Top Down"
PERFORMER "Dave Koz"
ISRC USC4R1022981
INDEX 01 00:00:00
TRACK 02 AUDIO
TITLE "When Will I Know For Sure"
PERFORMER "Dave Koz"
ISRC USC4R1022982
INDEX 00 04:59:42
FILE "02 - When Will I Know For Sure.wav" WAVE
INDEX 01 00:00:00
TRACK 03 AUDIO
TITLE "It's Always Been You"
PERFORMER "Dave Koz"
ISRC USC4R1022983
INDEX 00 04:51:29
FILE "03 - It's Always Been You.wav" WAVE
INDEX 01 00:00:00
TRACK 04 AUDIO
TITLE "Getaway"
PERFORMER "Dave Koz"
ISRC USC4R1022984
INDEX 00 03:55:39
FILE "04 - Getaway.wav" WAVE
INDEX 01 00:00:00
FILE "05 - This Guy's in Love With You.wav" WAVE
TRACK 05 AUDIO
TITLE "This Guy's in Love With You"
PERFORMER "Dave Koz"
ISRC USC4R1022985
INDEX 01 00:00:00
TRACK 06 AUDIO
TITLE "Anything's Possible"
PERFORMER "Dave Koz"
ISRC USC4R1022986
INDEX 00 04:53:07
FILE "06 - Anything's Possible.wav" WAVE
INDEX 01 00:00:00
FILE "07 - There's a Better Way.wav" WAVE
TRACK 07 AUDIO
TITLE "There's a Better Way"
PERFORMER "Dave Koz"
ISRC USC4R1022987
INDEX 01 00:00:00
TRACK 08 AUDIO
TITLE "Start All Over Again"
PERFORMER "Dave Koz"
ISRC USC4R1022988
INDEX 00 04:31:48
FILE "08 - Start All Over Again.wav" WAVE
INDEX 01 00:00:00
TRACK 09 AUDIO
TITLE "Think Big"
PERFORMER "Dave Koz"
ISRC USC4R1022989
INDEX 00 04:29:67
FILE "09 - Think Big.wav" WAVE
INDEX 01 00:00:00
FILE "10 - The Journey.wav" WAVE
TRACK 10 AUDIO
TITLE "The Journey"
PERFORMER "Dave Koz"
ISRC USC4R1022990
INDEX 01 00:00:00
FILE "11 - Remember Where You Come From.wav" WAVE
TRACK 11 AUDIO
TITLE "Remember Where You Come From"
PERFORMER "Dave Koz"
ISRC USC4R1022991
INDEX 01 00:00:00
TRACK 12 AUDIO
TITLE "Whisper in Your Ear"
PERFORMER "Dave Koz"
ISRC USC4R1022992
INDEX 00 04:34:59
FILE "12 - Whisper in Your Ear.wav" WAVE
INDEX 01 00:00:00
FILE "13 - What You Leave Behind.wav" WAVE
TRACK 13 AUDIO
TITLE "What You Leave Behind"
PERFORMER "Dave Koz"
ISRC USC4R1022993
INDEX 01 00:00:00
22:53
692
Нет комментариев. Ваш будет первым!