Поиск

(Smooth Jazz, Easy Listening) [CD] Earl Klugh - Ballads (1976-1983) - 1993, FLAC (tracks+.cue), lossless

(Smooth Jazz, Easy Listening) [CD] Earl Klugh - Ballads (1976-1983) - 1993, FLAC (tracks+.cue), lossless
Треклист:
Earl Klugh - Ballads
Жанр: Smooth Jazz, Easy Listening
Носитель: CD
Страна-производитель диска (релиза): Нидерланды
Год издания: 1993
Издатель (лейбл): Manhattan Records
Номер по каталогу: CDP 7243 8 27326 2 4
Страна исполнителя (группы): США
Аудиокодек: FLAC (*.flac)
Тип рипа: tracks+.cue
Битрейт аудио: lossless
Продолжительность: 47:28
Источник (релизер): catfish27
Наличие сканов в содержимом раздачи: нет
Треклист:
01. This Time (Klugh) - 3:41
02. Waltz for Debby (Evans-Lees) - 4:58
03. If You're Still in Love with Me (Bacharach-David) - 2:41
04. The April Fools (Klugh) - 3:45
05. Rayna (Klugh) - 5:13
06. Natural Thing (Klugh) - 2:59
07. Waiting for Cathy (Klugh) - 2:50
08. Julie (Klugh) - 4:34
09. Nature Boy (Abez) - 3:50
10. Dream Come True (Klugh) - 3:36
11. The Shadow of Your Smile (Mandel-Webster) - 5:10
12. Christina (Klugh) - 4:11
 
Лог создания рипа
X Lossless Decoder version 20170729 (150.3)
XLD extraction logfile from 2017-12-26 13:25:51 -0500
Earl Klugh / Ballads
Used drive : TSSTcorp BDDVDW SE-506BB (revision TS00)
Media type : Pressed CD
Ripper mode : XLD Secure Ripper
Disable audio cache : OK for the drive with a cache less than 1375KiB
Make use of C2 pointers : NO
Read offset correction : 6
Max retry count : 100
Gap status : Analyzed, Appended (except HTOA)
TOC of the extracted CD
Track | Start | Length | Start sector | End sector
---------------------------------------------------------
1 | 00:00:00 | 03:41:07 | 0 | 16581
2 | 03:41:07 | 04:58:33 | 16582 | 38964
3 | 08:39:40 | 02:40:62 | 38965 | 51026
4 | 11:20:27 | 03:44:73 | 51027 | 67899
5 | 15:05:25 | 05:13:35 | 67900 | 91409
6 | 20:18:60 | 02:59:02 | 91410 | 104836
7 | 23:17:62 | 02:49:63 | 104837 | 117574
8 | 26:07:50 | 04:34:15 | 117575 | 138139
9 | 30:41:65 | 03:49:72 | 138140 | 155386
10 | 34:31:62 | 03:36:33 | 155387 | 171619
11 | 38:08:20 | 05:09:42 | 171620 | 194836
12 | 43:17:62 | 04:10:38 | 194837 | 213624
AccurateRip Summary (DiscID: 0014c7f1-00c20aa2-a30b200c)
Track 01 : OK (v1+v2, confidence 26/26)
Track 02 : OK (v1+v2, confidence 26/26)
Track 03 : OK (v1+v2, confidence 25/25)
Track 04 : OK (v1+v2, confidence 26/26)
Track 05 : OK (v1+v2, confidence 26/26)
Track 06 : OK (v1+v2, confidence 25/25)
Track 07 : OK (v1+v2, confidence 26/26)
Track 08 : OK (v1+v2, confidence 26/26)
Track 09 : OK (v1+v2, confidence 25/25)
Track 10 : OK (v1+v2, confidence 24/24)
Track 11 : OK (v1+v2, confidence 25/25)
Track 12 : OK (v1+v2, confidence 25/25)
->All tracks accurately ripped.
All Tracks
Album gain : -5.40 dB
Peak : 1.000000
Statistics
Read error : 0
Jitter error (maybe fixed) : 1
Retry sector count : 46
Damaged sector count : 0
Track 01
Filename : /Users/diridonstation/Rips/Earl Klugh - Ballads (1993) [FLAC]/01 This Time.flac
Pre-gap length : 00:02:00
Track gain : -4.81 dB
Peak : 0.998688
CRC32 hash (test run) : 654D6D51
CRC32 hash : 654D6D51
CRC32 hash (skip zero) : 952F8D40
AccurateRip v1 signature : 44242C64
AccurateRip v2 signature : 9050E3E7
->Accurately ripped (v1+v2, confidence 8+18/26)
Statistics
Read error : 0
Jitter error (maybe fixed) : 0
Retry sector count : 0
Damaged sector count : 0
Track 02
Filename : /Users/diridonstation/Rips/Earl Klugh - Ballads (1993) [FLAC]/02 Waltz for Debby.flac
Pre-gap length : 00:01:07
Track gain : -4.69 dB
Peak : 0.929810
CRC32 hash (test run) : F9E8C05C
CRC32 hash : F9E8C05C
CRC32 hash (skip zero) : 98A2E237
AccurateRip v1 signature : 71D73B9D
AccurateRip v2 signature : A920B79F
->Accurately ripped (v1+v2, confidence 9+17/26)
Statistics
Read error : 0
Jitter error (maybe fixed) : 0
Retry sector count : 0
Damaged sector count : 0
Track 03
Filename : /Users/diridonstation/Rips/Earl Klugh - Ballads (1993) [FLAC]/03 If You're Still in Love With Me.flac
Pre-gap length : 00:01:60
Track gain : -6.61 dB
Peak : 0.951660
CRC32 hash (test run) : B9695F4C
CRC32 hash : B9695F4C
CRC32 hash (skip zero) : 30AB29F4
AccurateRip v1 signature : 7C3BA57D
AccurateRip v2 signature : 80929D51
->Accurately ripped (v1+v2, confidence 8+17/25)
Statistics
Read error : 0
Jitter error (maybe fixed) : 0
Retry sector count : 0
Damaged sector count : 0
Track 04
Filename : /Users/diridonstation/Rips/Earl Klugh - Ballads (1993) [FLAC]/04 The April Fools.flac
Pre-gap length : 00:02:00
Track gain : -4.32 dB
Peak : 0.934784
CRC32 hash (test run) : 0E0FF3C4
CRC32 hash : 0E0FF3C4
CRC32 hash (skip zero) : 0422E78C
AccurateRip v1 signature : BA31BAD1
AccurateRip v2 signature : 6D715651
->Accurately ripped (v1+v2, confidence 8+18/26)
Statistics
Read error : 0
Jitter error (maybe fixed) : 0
Retry sector count : 0
Damaged sector count : 0
Track 05
Filename : /Users/diridonstation/Rips/Earl Klugh - Ballads (1993) [FLAC]/05 Rayna.flac
Pre-gap length : 00:01:15
Track gain : -6.35 dB
Peak : 1.000000
CRC32 hash (test run) : 5A711EEE
CRC32 hash : 5A711EEE
CRC32 hash (skip zero) : E9961806
AccurateRip v1 signature : 199E29BB
AccurateRip v2 signature : EBDAA94D
->Accurately ripped (v1+v2, confidence 8+18/26)
Statistics
Read error : 0
Jitter error (maybe fixed) : 0
Retry sector count : 46
Damaged sector count : 0
Track 06
Filename : /Users/diridonstation/Rips/Earl Klugh - Ballads (1993) [FLAC]/06 Natural Thing.flac
Pre-gap length : 00:00:05
Track gain : -4.67 dB
Peak : 0.937714
CRC32 hash (test run) : E621EAA3
CRC32 hash : E621EAA3
CRC32 hash (skip zero) : 0328F636
AccurateRip v1 signature : DFCD8A8E
AccurateRip v2 signature : A59FCE2F
->Accurately ripped (v1+v2, confidence 8+17/25)
Statistics
Read error : 0
Jitter error (maybe fixed) : 0
Retry sector count : 0
Damaged sector count : 0
Track 07
Filename : /Users/diridonstation/Rips/Earl Klugh - Ballads (1993) [FLAC]/07 Waiting for Cathy.flac
Pre-gap length : 00:01:60
Track gain : -5.04 dB
Peak : 0.964417
CRC32 hash (test run) : EF5FC418
CRC32 hash : EF5FC418
CRC32 hash (skip zero) : 76F4F619
AccurateRip v1 signature : 2035FBB9
AccurateRip v2 signature : C23E397D
->Accurately ripped (v1+v2, confidence 8+18/26)
Statistics
Read error : 0
Jitter error (maybe fixed) : 1
Retry sector count : 0
Damaged sector count : 0
Track 08
Filename : /Users/diridonstation/Rips/Earl Klugh - Ballads (1993) [FLAC]/08 Julie.flac
Pre-gap length : 00:00:60
Track gain : -4.43 dB
Peak : 0.955292
CRC32 hash (test run) : C04F8D18
CRC32 hash : C04F8D18
CRC32 hash (skip zero) : 42559347
AccurateRip v1 signature : 95D058A6
AccurateRip v2 signature : AA031E2D
->Accurately ripped (v1+v2, confidence 8+18/26)
Statistics
Read error : 0
Jitter error (maybe fixed) : 0
Retry sector count : 0
Damaged sector count : 0
Track 09
Filename : /Users/diridonstation/Rips/Earl Klugh - Ballads (1993) [FLAC]/09 Nature Boy.flac
Pre-gap length : 00:01:58
Track gain : -3.86 dB
Peak : 0.949707
CRC32 hash (test run) : E066E6A4
CRC32 hash : E066E6A4
CRC32 hash (skip zero) : 29A07939
AccurateRip v1 signature : E902A443
AccurateRip v2 signature : 415F8E26
->Accurately ripped (v1+v2, confidence 8+17/25)
Statistics
Read error : 0
Jitter error (maybe fixed) : 0
Retry sector count : 0
Damaged sector count : 0
Track 10
Filename : /Users/diridonstation/Rips/Earl Klugh - Ballads (1993) [FLAC]/10 Dream Come True.flac
Pre-gap length : 00:01:20
Track gain : -5.22 dB
Peak : 1.000000
CRC32 hash (test run) : 396E8888
CRC32 hash : 396E8888
CRC32 hash (skip zero) : DB5889F7
AccurateRip v1 signature : 665D8FF0
AccurateRip v2 signature : F3E0B387
->Accurately ripped (v1+v2, confidence 7+17/24)
Statistics
Read error : 0
Jitter error (maybe fixed) : 0
Retry sector count : 0
Damaged sector count : 0
Track 11
Filename : /Users/diridonstation/Rips/Earl Klugh - Ballads (1993) [FLAC]/11 The Shadow of Your Smile.flac
Pre-gap length : 00:01:25
Track gain : -5.98 dB
Peak : 0.984344
CRC32 hash (test run) : 64FB249A
CRC32 hash : 64FB249A
CRC32 hash (skip zero) : FF4C161E
AccurateRip v1 signature : 8367F009
AccurateRip v2 signature : 36599E18
->Accurately ripped (v1+v2, confidence 8+17/25)
Statistics
Read error : 0
Jitter error (maybe fixed) : 0
Retry sector count : 0
Damaged sector count : 0
Track 12
Filename : /Users/diridonstation/Rips/Earl Klugh - Ballads (1993) [FLAC]/12 Christina.flac
Pre-gap length : 00:01:22
Track gain : -5.65 dB
Peak : 0.963348
CRC32 hash (test run) : D44779F5
CRC32 hash : D44779F5
CRC32 hash (skip zero) : BBE4F1EE
AccurateRip v1 signature : 08D6211A
AccurateRip v2 signature : 41B5A024
->Accurately ripped (v1+v2, confidence 8+17/25)
Statistics
Read error : 0
Jitter error (maybe fixed) : 0
Retry sector count : 0
Damaged sector count : 0
No errors occurred
End of status report
-----BEGIN XLD SIGNATURE-----
n_Jfsozln9s7vyBDzUcpQxISsZe6xtA5si3q6oVPBn1zUiOGeSy4XN7DbhdYaBgxdD7Af5uIVeiztS5mppMX5q_kwR5Mavm64Hc4Ce4
-----END XLD SIGNATURE-----
 
Содержание индексной карты (.CUE)
TITLE "Ballads"
PERFORMER "Earl Klugh"
REM GENRE "Jazz"
REM DATE "1993"
REM DISCID A30B200C
REM REPLAYGAIN_ALBUM_GAIN -5.40 dB
REM REPLAYGAIN_ALBUM_PEAK 1.000000
FILE "01 - This Time.flac" WAVE
TRACK 01 AUDIO
TITLE "This Time"
REM REPLAYGAIN_TRACK_GAIN -4.81 dB
REM REPLAYGAIN_TRACK_PEAK 0.998688
INDEX 01 00:00:00
TRACK 02 AUDIO
TITLE "Waltz for Debby"
REM REPLAYGAIN_TRACK_GAIN -4.69 dB
REM REPLAYGAIN_TRACK_PEAK 0.929810
INDEX 00 03:40:00
FILE "02 - Waltz for Debby.flac" WAVE
INDEX 01 00:00:00
TRACK 03 AUDIO
TITLE "If You're Still in Love with Me"
REM REPLAYGAIN_TRACK_GAIN -6.61 dB
REM REPLAYGAIN_TRACK_PEAK 0.951660
INDEX 00 04:56:48
FILE "03 - If You're Still in Love with Me.flac" WAVE
INDEX 01 00:00:00
TRACK 04 AUDIO
TITLE "The April Fools"
REM REPLAYGAIN_TRACK_GAIN -4.32 dB
REM REPLAYGAIN_TRACK_PEAK 0.934784
INDEX 00 02:38:62
FILE "04 - The April Fools.flac" WAVE
INDEX 01 00:00:00
TRACK 05 AUDIO
TITLE "Rayna"
REM REPLAYGAIN_TRACK_GAIN -6.35 dB
REM REPLAYGAIN_TRACK_PEAK 1.000000
INDEX 00 03:43:58
FILE "05 - Rayna.flac" WAVE
INDEX 01 00:00:00
TRACK 06 AUDIO
TITLE "Natural Thing"
REM REPLAYGAIN_TRACK_GAIN -4.67 dB
REM REPLAYGAIN_TRACK_PEAK 0.937714
INDEX 00 05:13:30
FILE "06 - Natural Thing.flac" WAVE
INDEX 01 00:00:00
TRACK 07 AUDIO
TITLE "Waiting for Cathy"
REM REPLAYGAIN_TRACK_GAIN -5.04 dB
REM REPLAYGAIN_TRACK_PEAK 0.964417
INDEX 00 02:57:17
FILE "07 - Waiting for Cathy.flac" WAVE
INDEX 01 00:00:00
TRACK 08 AUDIO
TITLE "Julie"
REM REPLAYGAIN_TRACK_GAIN -4.43 dB
REM REPLAYGAIN_TRACK_PEAK 0.955292
INDEX 00 02:49:03
FILE "08 - Julie.flac" WAVE
INDEX 01 00:00:00
TRACK 09 AUDIO
TITLE "Nature Boy"
REM REPLAYGAIN_TRACK_GAIN -3.86 dB
REM REPLAYGAIN_TRACK_PEAK 0.949707
INDEX 00 04:32:32
FILE "09 - Nature Boy.flac" WAVE
INDEX 01 00:00:00
TRACK 10 AUDIO
TITLE "Dream Come True"
REM REPLAYGAIN_TRACK_GAIN -5.22 dB
REM REPLAYGAIN_TRACK_PEAK 1.000000
INDEX 00 03:48:52
FILE "10 - Dream Come True.flac" WAVE
INDEX 01 00:00:00
TRACK 11 AUDIO
TITLE "The Shadow of Your Smile"
REM REPLAYGAIN_TRACK_GAIN -5.98 dB
REM REPLAYGAIN_TRACK_PEAK 0.984344
INDEX 00 03:35:08
FILE "11 - The Shadow of Your Smile.flac" WAVE
INDEX 01 00:00:00
TRACK 12 AUDIO
TITLE "Christina"
REM REPLAYGAIN_TRACK_GAIN -5.65 dB
REM REPLAYGAIN_TRACK_PEAK 0.963348
INDEX 00 05:08:20
FILE "12 - Christina.flac" WAVE
INDEX 01 00:00:00
 
Отчет CUETools
[CUETools log; Date: 13.02.2018 1:26:42; Version: 2.1.5]
[CTDB TOCID: HSjCVJ6b12nOnFF5W6fCL9bXuxI-] found.
Track | CTDB Status
1 | (25/25) Accurately ripped
2 | (25/25) Accurately ripped
3 | (25/25) Accurately ripped
4 | (25/25) Accurately ripped
5 | (25/25) Accurately ripped
6 | (25/25) Accurately ripped
7 | (25/25) Accurately ripped
8 | (25/25) Accurately ripped
9 | (25/25) Accurately ripped
10 | (25/25) Accurately ripped
11 | (25/25) Accurately ripped
12 | (25/25) Accurately ripped
[AccurateRip ID: 0014c7f1-00c20aa2-a30b200c] found.
Track [ CRC | V2 ] Status
01 [44242c64|9050e3e7] (08+18/26) Accurately ripped
02 [71d73b9d|a920b79f] (09+17/26) Accurately ripped
03 [7c3ba57d|80929d51] (08+17/25) Accurately ripped
04 [ba31bad1|6d715651] (08+18/26) Accurately ripped
05 [199e29bb|ebdaa94d] (08+18/26) Accurately ripped
06 [dfcd8a8e|a59fce2f] (08+17/25) Accurately ripped
07 [2035fbb9|c23e397d] (08+18/26) Accurately ripped
08 [95d058a6|aa031e2d] (08+18/26) Accurately ripped
09 [e902a443|415f8e26] (08+17/25) Accurately ripped
10 [665d8ff0|f3e0b387] (07+17/24) Accurately ripped
11 [8367f009|36599e18] (08+17/25) Accurately ripped
12 [08d6211a|41b5a024] (08+17/25) Accurately ripped
Track Peak [ CRC32 ] [W/O NULL]
-- 100,0 [1950D63F] [41DB3386]
01 99,8 [654D6D51] [952F8D40]
02 92,9 [F9E8C05C] [98A2E237]
03 95,1 [B9695F4C] [30AB29F4]
04 93,4 [0E0FF3C4] [0422E78C]
05 100,0 [5A711EEE] [E9961806]
06 93,7 [E621EAA3] [0328F636]
07 96,4 [EF5FC418] [76F4F619]
08 95,5 [C04F8D18] [42559347]
09 94,9 [E066E6A4] [29A07939]
10 100,0 [396E8888] [DB5889F7]
11 98,4 [64FB249A] [FF4C161E]
12 96,3 [D44779F5] [BBE4F1EE]
 
AllMusic Review by Ron Wynn
While this collection of ballads from past Klugh releases has many pleasant moments, it's so pastoral and calming that each song fades into another one without making much impression. As background music, they're effective. Klugh's solos are well constructed, marvelously articulated, and his lines and phrasing sublime. The material covers an impressive range of genres, from jazz to pop, originals and standards. Those who enjoy untaxing material should find this another delightful Klugh collection; others seeking visceral fare should look elsewhere.
На замену http://rutracker.org/forum/viewtopic.php?t=2892138
13:58
596
Нет комментариев. Ваш будет первым!