Поиск

(Smooth, Jazz-Pop) Dave Koz And Friends - Summer Horns - 2013, FLAC (tracks+.cue), lossless

(Smooth, Jazz-Pop) Dave Koz And Friends - Summer Horns - 2013, FLAC (tracks+.cue), lossless
Треклист:
♦ Dave Koz And Friends - Summer Horns ♦
Жанр: Smooth, Jazz-Pop
Страна-производитель диска: USA
Год издания: 2013
Издатель (лейбл): Concord Music Group
Номер по каталогу: CRE-34172-02
Аудиокодек: FLAC (*.flac)
Тип рипа: tracks+.cue
Битрейт аудио: lossless
Продолжительность: 00:55:45
Источник (релизер): albundy
Наличие сканов в содержимом раздачи: да
Треклист:
01. Always There [04:05]
02. Got To Get You Into My Life [05:38]
03. Rise [05:08]
04. So Very Hard To Go [04:38]
05. Hot Fun In The Summertime [04:27]
06. Take Five [04:12]
07. 25 Or 6 To 4 [04:47]
08. Reasons [04:46]
09. I Got You (I Feel Good) [04:17]
10. You Haven't Done Nothin' [03:46]
11. God Bless The Child [05:58]
12. Summer Horns [03:57]
 
Лог создания рипа
Exact Audio Copy V1.0 beta 1 from 15. November 2010
EAC extraction logfile from 28. June 2013, 18:56
Dave Koz And Friends / Summer Horns
Used drive : ATAPI iHAS424 Y Adapter: 0 ID: 3
Read mode : Secure
Utilize accurate stream : Yes
Defeat audio cache : Yes
Make use of C2 pointers : No
Read offset correction : 48
Overread into Lead-In and Lead-Out : No
Fill up missing offset samples with silence : Yes
Delete leading and trailing silent blocks : No
Null samples used in CRC calculations : Yes
Used interface : Native Win32 interface for Win NT & 2000
Gap handling : Appended to previous track
Used output format : User Defined Encoder
Selected bitrate : 768 kBit/s
Quality : High
Add ID3 tag : No
Command line compressor : C:\Program Files\Exact Audio Copy\Flac\flac.exe
Additional command line options : -8 -V -T "ARTIST=%a" -T "TITLE=%t" -T "ALBUM=%g" -T "DATE=%y" -T "TRACKNUMBER=%n" -T "TOTALTRACKS=%x" -T "GENRE=%m" -T "ALBUMARTIST=%v" -T "ALBUM ARTIST=%v" -T "COMMENT=EAC Secure Mode, Test & Copy, AccurateRip, FLAC -8" %s
TOC of the extracted CD
Track | Start | Length | Start sector | End sector
---------------------------------------------------------
1 | 0:00.00 | 4:05.49 | 0 | 18423
2 | 4:05.49 | 5:38.12 | 18424 | 43785
3 | 9:43.61 | 5:08.64 | 43786 | 66949
4 | 14:52.50 | 4:38.44 | 66950 | 87843
5 | 19:31.19 | 4:27.44 | 87844 | 107912
6 | 23:58.63 | 4:12.71 | 107913 | 126883
7 | 28:11.59 | 4:47.56 | 126884 | 148464
8 | 32:59.40 | 4:46.01 | 148465 | 169915
9 | 37:45.41 | 4:17.11 | 169916 | 189201
10 | 42:02.52 | 3:46.67 | 189202 | 206218
11 | 45:49.44 | 5:58.22 | 206219 | 233090
12 | 51:47.66 | 3:57.53 | 233091 | 250918
Track 1
Filename D:\Uploads\Dave Koz And Friends - Summer Horns (2013) [FLAC]\01 - Always There.wav
Pre-gap length 0:00:02.00
Peak level 100.0 %
Extraction speed 2.5 X
Track quality 100.0 %
Test CRC 63B6CF80
Copy CRC 63B6CF80
Track not present in AccurateRip database
Copy OK
Track 2
Filename D:\Uploads\Dave Koz And Friends - Summer Horns (2013) [FLAC]\02 - Got To Get You Into My Life.wav
Pre-gap length 0:00:02.00
Peak level 100.0 %
Extraction speed 3.0 X
Track quality 100.0 %
Test CRC E0D638C5
Copy CRC E0D638C5
Track not present in AccurateRip database
Copy OK
Track 3
Filename D:\Uploads\Dave Koz And Friends - Summer Horns (2013) [FLAC]\03 - Rise.wav
Pre-gap length 0:00:01.00
Peak level 100.0 %
Extraction speed 3.2 X
Track quality 100.0 %
Test CRC 0921FCE0
Copy CRC 0921FCE0
Track not present in AccurateRip database
Copy OK
Track 4
Filename D:\Uploads\Dave Koz And Friends - Summer Horns (2013) [FLAC]\04 - So Very Hard To Go.wav
Pre-gap length 0:00:01.00
Peak level 100.0 %
Extraction speed 3.1 X
Track quality 99.9 %
Test CRC 96646CBC
Copy CRC 96646CBC
Track not present in AccurateRip database
Copy OK
Track 5
Filename D:\Uploads\Dave Koz And Friends - Summer Horns (2013) [FLAC]\05 - Hot Fun In The Summertime.wav
Pre-gap length 0:00:01.00
Peak level 100.0 %
Extraction speed 3.6 X
Track quality 100.0 %
Test CRC 79504099
Copy CRC 79504099
Track not present in AccurateRip database
Copy OK
Track 6
Filename D:\Uploads\Dave Koz And Friends - Summer Horns (2013) [FLAC]\06 - Take Five.wav
Pre-gap length 0:00:01.00
Peak level 84.0 %
Extraction speed 3.7 X
Track quality 100.0 %
Test CRC 7BB5A105
Copy CRC 7BB5A105
Track not present in AccurateRip database
Copy OK
Track 7
Filename D:\Uploads\Dave Koz And Friends - Summer Horns (2013) [FLAC]\07 - 25 Or 6 To 4.wav
Pre-gap length 0:00:01.00
Peak level 100.0 %
Extraction speed 4.0 X
Track quality 100.0 %
Test CRC C6F2091D
Copy CRC C6F2091D
Track not present in AccurateRip database
Copy OK
Track 8
Filename D:\Uploads\Dave Koz And Friends - Summer Horns (2013) [FLAC]\08 - Reasons.wav
Pre-gap length 0:00:01.00
Peak level 100.0 %
Extraction speed 4.2 X
Track quality 100.0 %
Test CRC 24B50B5F
Copy CRC 24B50B5F
Track not present in AccurateRip database
Copy OK
Track 9
Filename D:\Uploads\Dave Koz And Friends - Summer Horns (2013) [FLAC]\09 - I Got You (I Feel Good).wav
Pre-gap length 0:00:01.00
Peak level 100.0 %
Extraction speed 4.4 X
Track quality 100.0 %
Test CRC 74E06BE8
Copy CRC 74E06BE8
Track not present in AccurateRip database
Copy OK
Track 10
Filename D:\Uploads\Dave Koz And Friends - Summer Horns (2013) [FLAC]\10 - You Haven't Done Nothin'.wav
Pre-gap length 0:00:01.00
Peak level 100.0 %
Extraction speed 4.4 X
Track quality 100.0 %
Test CRC C88E4430
Copy CRC C88E4430
Track not present in AccurateRip database
Copy OK
Track 11
Filename D:\Uploads\Dave Koz And Friends - Summer Horns (2013) [FLAC]\11 - God Bless The Child.wav
Pre-gap length 0:00:00.37
Peak level 100.0 %
Extraction speed 4.3 X
Track quality 99.9 %
Test CRC 27C0AC9C
Copy CRC 27C0AC9C
Track not present in AccurateRip database
Copy OK
Track 12
Filename D:\Uploads\Dave Koz And Friends - Summer Horns (2013) [FLAC]\12 - Summer Horns.wav
Pre-gap length 0:00:15.00
Peak level 100.0 %
Extraction speed 4.6 X
Track quality 100.0 %
Test CRC 9D1CB491
Copy CRC 9D1CB491
Track not present in AccurateRip database
Copy OK
None of the tracks are present in the AccurateRip database
No errors occurred
End of status report
==== Log checksum 5DB2251993BC302568F0E99E26C256BB85EABF6ACDD68E8F010F0AC0C860AC14 ====
 
Содержание индексной карты (.CUE)
REM GENRE Jazz
REM DATE 2013
REM DISCID AB0D110C
REM COMMENT "ExactAudioCopy v1.0b1"
PERFORMER "Dave Koz And Friends"
TITLE "Summer Horns"
FILE "01 - Always There.wav" WAVE
TRACK 01 AUDIO
TITLE "Always There"
PERFORMER "Dave Koz And Friends"
INDEX 01 00:00:00
TRACK 02 AUDIO
TITLE "Got To Get You Into My Life"
PERFORMER "Dave Koz And Friends"
INDEX 00 04:03:49
FILE "02 - Got To Get You Into My Life.wav" WAVE
INDEX 01 00:00:00
TRACK 03 AUDIO
TITLE "Rise"
PERFORMER "Dave Koz And Friends"
INDEX 00 05:37:12
FILE "03 - Rise.wav" WAVE
INDEX 01 00:00:00
TRACK 04 AUDIO
TITLE "So Very Hard To Go"
PERFORMER "Dave Koz And Friends"
INDEX 00 05:07:64
FILE "04 - So Very Hard To Go.wav" WAVE
INDEX 01 00:00:00
TRACK 05 AUDIO
TITLE "Hot Fun In The Summertime"
PERFORMER "Dave Koz And Friends"
INDEX 00 04:37:44
FILE "05 - Hot Fun In The Summertime.wav" WAVE
INDEX 01 00:00:00
TRACK 06 AUDIO
TITLE "Take Five"
PERFORMER "Dave Koz And Friends"
INDEX 00 04:26:44
FILE "06 - Take Five.wav" WAVE
INDEX 01 00:00:00
TRACK 07 AUDIO
TITLE "25 Or 6 To 4"
PERFORMER "Dave Koz And Friends"
INDEX 00 04:11:71
FILE "07 - 25 Or 6 To 4.wav" WAVE
INDEX 01 00:00:00
TRACK 08 AUDIO
TITLE "Reasons"
PERFORMER "Dave Koz And Friends"
INDEX 00 04:46:56
FILE "08 - Reasons.wav" WAVE
INDEX 01 00:00:00
TRACK 09 AUDIO
TITLE "I Got You (I Feel Good)"
PERFORMER "Dave Koz And Friends"
INDEX 00 04:45:01
FILE "09 - I Got You (I Feel Good).wav" WAVE
INDEX 01 00:00:00
TRACK 10 AUDIO
TITLE "You Haven't Done Nothin'"
PERFORMER "Dave Koz And Friends"
INDEX 00 04:16:11
FILE "10 - You Haven't Done Nothin'.wav" WAVE
INDEX 01 00:00:00
TRACK 11 AUDIO
TITLE "God Bless The Child"
PERFORMER "Dave Koz And Friends"
INDEX 00 03:46:30
FILE "11 - God Bless The Child.wav" WAVE
INDEX 01 00:00:00
TRACK 12 AUDIO
TITLE "Summer Horns"
PERFORMER "Dave Koz And Friends"
INDEX 00 05:43:22
FILE "12 - Summer Horns.wav" WAVE
INDEX 01 00:00:00
 
Состав
Dave Koz - alto , tenor, baritone and soprano saxes, flute
Mindi Abair - alto sax
Richard Elliot - tenor sax
Gerald Albright - tenor, alto saxes
Paul Brown - guitar
Ricky Lawson - drums
Brian Culbertson - trombone
Rick Braun - flugelhorn, trumpet
Jeffrey Osborne - vocals on tracks 5, 11
Jonathan Butler- vocals on track 5
Michael McDonald - lead vocal on track 4
Greg Adams - flugelhorn, trumpet
Lenny Castro - percussion
Marco Basci - keyboards, drum programming, organ
Jeff Carruthers - keyboards, drum programming, guitar
Lee Thornberg - flugelhorn, trombone
Jay Gore - guitar
Tracy Carter - Wurlitzer, Hammond B3
Roberto Vally - bass, acoustic bass
Sean Billimgs - trumpet
Nick Lane - trombone
Frank Selman - guitar
Mel Brown - bass
Jon Woodhead - guitar
Randy Jacobs - guitar
Khalid Woods - keyboards, synth bass
Billy Mondragon - background vocals
Eric Mondragon - background vocals
Damon Reel - background vocals
05:45
540
Нет комментариев. Ваш будет первым!