Поиск

(Smooth, Jazz-Pop) Earl Klugh - Sounds And Visions Vol. 2 [9 45158-2] USA. Warner Bros (1993) - 1993, FLAC (image+.cue), lossless

(Smooth, Jazz-Pop) Earl Klugh - Sounds And Visions Vol. 2 [9 45158-2] USA. Warner Bros (1993) - 1993, FLAC (image+.cue), lossless
Треклист:
Earl Klugh - Sounds And Visions Vol. 2 [9 45158-2] USA. Warner Bros (1993)
Жанр: Smooth, Jazz-Pop
Страна-производитель диска: USA
Год издания: 1993
Аудиокодек: FLAC
Тип рипа: image+.cue
Битрейт аудио: lossless
Продолжительность: 54:59
Источник (релизер): Собственный рип из личной коллекции
Наличие сканов в содержимом раздачи: (Сканы родные)
Треклист:
01. Prelude (0:38)
02. Goldfinger (4:55)
03. Orchestra Intro (1:13)
04. Maybe September (From The Motion Picture "The Oscar") (3:22)
05. Orchestra Intro (1:11)
06. Theme From "The Cincinnati Kid" (4:55)
07. Orchestra Intro (0:49)
08. Secret Love (From The Motion Picture "Calamity Jane") (6:58)
09. Jo Ann`s Song (From The Motion Picture "Tequila Sunrise") (5:27)
10. Now We`re One (From The Motion Picture "Truck Turner") 5:19
11. Interlude In E (0:41)
12. Barefoot In The Park (3:36)
13. Orchestra Intro (0:29)
14. His Eyes, Her Eyes (From The Motion Picture "The Thomas Crown Affair") (4:36)
15. Love Theme From "The Carpet Baggers" (5:14)
16. Interlude In F (0:34)
17. Theme From "The Deadly Affair" (3:49)
18. Postlude (1:07) Все мои раздачи!!!
 
Лог создания рипа
Exact Audio Copy V0.99 prebeta 5 from 4. May 2009
Отчёт EAC об извлечении, выполненном 2. сентября 2012, 18:21
Earl Klugh / Sounds And Visions Vol. 2
Дисковод: PLEXTOR CD-R PX-W4824A Adapter: 6 ID: 0
Режим чтения : Достоверность
Использование точного потока : Да
Отключение кэша аудио : Да
Использование указателей C2 : Нет
Коррекция смещения при чтении : 98
Способность читать области Lead-in и Lead-out : Нет
Заполнение пропущенных сэмплов тишиной : Да
Удаление блоков с тишиной в начале и конце : Нет
При вычислениях CRC использовались нулевые сэмплы : Да
Интерфейс : Установленный внешний ASPI-интерфейс
Выходной формат : Пользовательский кодировщик
Выбранный битрейт : 1024 kBit/s
Качество : Высокий
Добавление ID3-тэга : Да
Утилита сжатия : C:\Program Files\Exact Audio Copy\Flac\flac.exe
Дополнительные параметры : -6 -V -T "ARTIST=%a" -T "TITLE=%t" -T "ALBUM=%g" -T "DATE=%y" -T "TRACKNUMBER=%n" -T "GENRE=%m" -T "COMMENT=%e" %s -o %d
TOC извлечённого CD
Трек | Старт | Длительность | Начальный сектор | Конечный сектор
---------------------------------------------------------------------
1 | 0:00.32 | 0:38.35 | 32 | 2916
2 | 0:38.67 | 4:55.00 | 2917 | 25041
3 | 5:33.67 | 1:12.70 | 25042 | 30511
4 | 6:46.62 | 3:22.65 | 30512 | 45726
5 | 10:09.52 | 1:10.18 | 45727 | 50994
6 | 11:19.70 | 4:54.35 | 50995 | 73079
7 | 16:14.30 | 0:48.42 | 73080 | 76721
8 | 17:02.72 | 6:57.68 | 76722 | 108064
9 | 24:00.65 | 5:28.12 | 108065 | 132676
10 | 29:29.02 | 5:20.70 | 132677 | 156746
11 | 34:49.72 | 0:41.05 | 156747 | 159826
12 | 35:31.02 | 3:36.53 | 159827 | 176079
13 | 39:07.55 | 0:28.45 | 176080 | 178224
14 | 39:36.25 | 4:36.05 | 178225 | 198929
15 | 44:12.30 | 5:15.20 | 198930 | 222574
16 | 49:27.50 | 0:32.50 | 222575 | 225024
17 | 50:00.25 | 3:49.05 | 225025 | 242204
18 | 53:49.30 | 1:07.52 | 242205 | 247281
Характеристики диапазона извлечения и сообщения об ошибках
Выбранный диапазон
Имя файла C:\Earl Klugh - Sounds And Visions Vol. 2 [9 45158-2] USA. Warner Bros (1993)\Earl Klugh - Sounds And Visions Vol. 2.wav
Пиковый уровень 97.3 %
Качество диапазона 99.9 %
CRC теста 37084CEA
CRC копии 37084CEA
Копирование... OK
Ошибок не произошло
AccurateRip: сводка
Трек 1 точное извлечение (доверие 19) [9F84222A]
Трек 2 точное извлечение (доверие 18) [95030280]
Трек 3 точное извлечение (доверие 19) [FE419C9E]
Трек 4 точное извлечение (доверие 19) [0DEEAE21]
Трек 5 точное извлечение (доверие 19) [8F612881]
Трек 6 точное извлечение (доверие 19) [8BB76CE5]
Трек 7 точное извлечение (доверие 19) [52781A2D]
Трек 8 точное извлечение (доверие 19) [CE708112]
Трек 9 точное извлечение (доверие 19) [AAD198A8]
Трек 10 точное извлечение (доверие 19) [194F56EE]
Трек 11 точное извлечение (доверие 19) [938F2D12]
Трек 12 точное извлечение (доверие 19) [212BD0D1]
Трек 13 точное извлечение (доверие 19) [D494034C]
Трек 14 точное извлечение (доверие 19) [19E979BB]
Трек 15 точное извлечение (доверие 19) [DAFAD09E]
Трек 16 точное извлечение (доверие 19) [7E72F78A]
Трек 17 точное извлечение (доверие 19) [299096A5]
Трек 18 точное извлечение (доверие 19) [2580D2F1]
Все треки извлечены точно
Конец отчёта
 
Содержание индексной карты (.CUE)
REM GENRE Jazz
REM DATE 1993
REM DISCID E00CE112
REM COMMENT "ExactAudioCopy v0.99pb5"
PERFORMER "Earl Klugh"
TITLE "Sounds And Visions Vol. 2"
FILE "Earl Klugh - Sounds And Visions Vol. 2.flac" WAVE
TRACK 01 AUDIO
TITLE "Prelude"
PERFORMER "Earl Klugh"
INDEX 00 00:00:00
INDEX 01 00:00:32
TRACK 02 AUDIO
TITLE "Goldfinger"
PERFORMER "Earl Klugh"
INDEX 00 00:38:64
INDEX 01 00:38:67
TRACK 03 AUDIO
TITLE "Orchestra Intro"
PERFORMER "Earl Klugh"
INDEX 00 05:33:62
INDEX 01 05:33:67
TRACK 04 AUDIO
TITLE "Maybe September"
PERFORMER "Earl Klugh"
INDEX 00 06:46:59
INDEX 01 06:46:62
TRACK 05 AUDIO
TITLE "Orchestra Intro"
PERFORMER "Earl Klugh"
INDEX 00 10:09:12
INDEX 01 10:09:52
TRACK 06 AUDIO
TITLE "Theme from 'The Cincinnati Kid'"
PERFORMER "Earl Klugh"
INDEX 00 11:19:67
INDEX 01 11:19:70
TRACK 07 AUDIO
TITLE "Orchestra Intro"
PERFORMER "Earl Klugh"
INDEX 00 16:14:27
INDEX 01 16:14:30
TRACK 08 AUDIO
TITLE "Secret Love"
PERFORMER "Earl Klugh"
INDEX 00 17:02:69
INDEX 01 17:02:72
TRACK 09 AUDIO
TITLE "Jo Ann's Song"
PERFORMER "Earl Klugh"
INDEX 00 24:00:62
INDEX 01 24:00:65
TRACK 10 AUDIO
TITLE "Now We're One"
PERFORMER "Earl Klugh"
INDEX 00 29:27:52
INDEX 01 29:29:02
TRACK 11 AUDIO
TITLE "Interlude in E"
PERFORMER "Earl Klugh"
INDEX 00 34:48:52
INDEX 01 34:49:72
TRACK 12 AUDIO
TITLE "Barefoot in the Park"
PERFORMER "Earl Klugh"
INDEX 00 35:30:74
INDEX 01 35:31:02
TRACK 13 AUDIO
TITLE "Orchestra Intro"
PERFORMER "Earl Klugh"
INDEX 00 39:07:02
INDEX 01 39:07:55
TRACK 14 AUDIO
TITLE "His Eyes, Her Eyes"
PERFORMER "Earl Klugh"
INDEX 00 39:36:22
INDEX 01 39:36:25
TRACK 15 AUDIO
TITLE "Love Theme from 'The Carpet Baggers'"
PERFORMER "Earl Klugh"
INDEX 00 44:12:04
INDEX 01 44:12:30
TRACK 16 AUDIO
TITLE "Interlude in F"
PERFORMER "Earl Klugh"
INDEX 00 49:27:47
INDEX 01 49:27:50
TRACK 17 AUDIO
TITLE "Theme from 'The Deadly Affair'"
PERFORMER "Earl Klugh"
INDEX 00 50:00:22
INDEX 01 50:00:25
TRACK 18 AUDIO
TITLE "Postlude"
PERFORMER "Earl Klugh"
INDEX 00 53:49:27
INDEX 01 53:49:30
Сканы обложек и диска (600dpi, PNG) ПРИЛАГАЮТСЯ!!!
04:00
627
Нет комментариев. Ваш будет первым!