Поиск

(Smooth Jazz, R&B, Christmas) Dave Koz & Friends - The 25th Of December - 2014, FLAC (tracks+.cue), lossless

(Smooth Jazz, R&B, Christmas) Dave Koz & Friends - The 25th Of December - 2014, FLAC (tracks+.cue), lossless
Треклист:
Dave Koz & Friends - The 25th Of December
Жанр: Smooth Jazz, R&B, Christmas
Год издания: 2014
Издатель (лейбл): Concord Records
Номер по каталогу:
Аудиокодек: FLAC (*.flac)
Тип рипа: tracks+.cue
Битрейт аудио: lossless
Продолжительность: 50:03
Источник (релизер): скачано из сети
Наличие сканов в содержимом раздачи: да
Треклист:
01. The First Noel (03:44)
02. It's The Most Wonderful Time Of The Year [feat. Johnny Mathis] (03:24)
03. This Christmas [feat. Eric Benet] (04:35)
04. Do You Hear What I Hear? [feat. Gloria Estefan] (04:12)
05. My Grown Up Christmas List [feat. Heather Headley] (04:50)
06. Another Silent Night [feat. Richard Marx] (03:25)
07. Let It Snow! Let It Snow! Let It Snow! [feat. Kenny G] (03:27)
08. The 25th Of December [feat. BeBe Winans] (04:20)
09. I've Got My Love To Keep Me Warm [feat. Trombone Shorty] (03:13)
10. O Holy Night [feat. Jonathan Butler] (05:09)
11. Medley: O Come All Ye Faithful / Angels We Have Heard On High / Hark! The Herald Angels Sing [feat. Fantasia] (04:15)
12. All You Need Is Love [feat. Stevie Wonder, Gloria Estefan, BeBe Winans, Maysa, Jonathan Butler, Richard Marx, Johnny Mathis, Eric Benet & Heather Headley] (05:42)
 
LOG EAC
Exact Audio Copy V1.0 beta 3 from 29. August 2011
EAC extraction logfile from 19. December 2014, 16:44
Dave Koz & Friends / The 25th Of December
Used drive : HL-DT-STDVDRAM GH20NS10 Adapter: 2 ID: 1
Read mode : Secure
Utilize accurate stream : Yes
Defeat audio cache : Yes
Make use of C2 pointers : No
Read offset correction : 667
Overread into Lead-In and Lead-Out : No
Fill up missing offset samples with silence : Yes
Delete leading and trailing silent blocks : No
Null samples used in CRC calculations : Yes
Used interface : Native Win32 interface for Win NT & 2000
Gap handling : Appended to previous track
Used output format : User Defined Encoder
Selected bitrate : 1024 kBit/s
Quality : High
Add ID3 tag : No
Command line compressor : C:\Program Files\Exact Audio Copy\Flac\flac.exe
Additional command line options : -8 -V -T "ARTIST=%artist%" -T "TITLE=%title%" -T "ALBUM=%albumtitle%" -T "DATE=%year%" -T "TRACKNUMBER=%tracknr%" -T "TOTALTRACKS=%numtracks%" -T "GENRE=%genre%" -T "ALBUMARTIST=%albumartist%" -T "ALBUM ARTIST=%albumartist%" -T "COMMENT=EAC Secure Mode, Test & Copy, AccurateRip, FLAC -8" %source%
TOC of the extracted CD
Track | Start | Length | Start sector | End sector
---------------------------------------------------------
1 | 0:00.00 | 3:43.35 | 0 | 16759
2 | 3:43.35 | 3:23.57 | 16760 | 32041
3 | 7:07.17 | 4:34.26 | 32042 | 52617
4 | 11:41.43 | 4:12.17 | 52618 | 71534
5 | 15:53.60 | 4:49.23 | 71535 | 93232
6 | 20:43.08 | 3:24.57 | 93233 | 108589
7 | 24:07.65 | 3:26.30 | 108590 | 124069
8 | 27:34.20 | 4:19.30 | 124070 | 143524
9 | 31:53.50 | 3:12.55 | 143525 | 157979
10 | 35:06.30 | 5:08.47 | 157980 | 181126
11 | 40:15.02 | 4:14.55 | 181127 | 200231
12 | 44:29.57 | 5:41.38 | 200232 | 225844
Track 1
Filename D:\Dave Koz & Friends - The 25th Of December (2014) [FLAC]\01 - The First Noel.wav
Pre-gap length 0:00:02.00
Peak level 98.8 %
Extraction speed 2.8 X
Track quality 100.0 %
Test CRC 04022466
Copy CRC 04022466
Track not present in AccurateRip database
Copy OK
Track 2
Filename D:\Dave Koz & Friends - The 25th Of December (2014) [FLAC]\02 - It's The Most Wonderful Time Of The Year.wav
Pre-gap length 0:00:00.34
Peak level 98.8 %
Extraction speed 3.0 X
Track quality 100.0 %
Test CRC 71AE8729
Copy CRC 71AE8729
Track not present in AccurateRip database
Copy OK
Track 3
Filename D:\Dave Koz & Friends - The 25th Of December (2014) [FLAC]\03 - This Christmas.wav
Peak level 98.8 %
Extraction speed 3.5 X
Track quality 100.0 %
Test CRC FB9AB7A3
Copy CRC FB9AB7A3
Track not present in AccurateRip database
Copy OK
Track 4
Filename D:\Dave Koz & Friends - The 25th Of December (2014) [FLAC]\04 - Do You Hear What I Hear.wav
Peak level 98.8 %
Extraction speed 3.7 X
Track quality 100.0 %
Test CRC B9416369
Copy CRC B9416369
Track not present in AccurateRip database
Copy OK
Track 5
Filename D:\Dave Koz & Friends - The 25th Of December (2014) [FLAC]\05 - My Grown Up Christmas List.wav
Pre-gap length 0:00:00.68
Peak level 98.8 %
Extraction speed 4.1 X
Track quality 100.0 %
Test CRC 6466235C
Copy CRC 6466235C
Track not present in AccurateRip database
Copy OK
Track 6
Filename D:\Dave Koz & Friends - The 25th Of December (2014) [FLAC]\06 - Another Silent Night.wav
Pre-gap length 0:00:00.43
Peak level 98.8 %
Extraction speed 4.0 X
Track quality 100.0 %
Test CRC A50D465B
Copy CRC A50D465B
Track not present in AccurateRip database
Copy OK
Track 7
Filename D:\Dave Koz & Friends - The 25th Of December (2014) [FLAC]\07 - Let It Snow! Let It Snow! Let It Snow!.wav
Pre-gap length 0:00:01.06
Peak level 98.8 %
Extraction speed 4.2 X
Track quality 100.0 %
Test CRC 7F879246
Copy CRC 7F879246
Track not present in AccurateRip database
Copy OK
Track 8
Filename D:\Dave Koz & Friends - The 25th Of December (2014) [FLAC]\08 - The 25th Of December.wav
Pre-gap length 0:00:00.49
Peak level 98.8 %
Extraction speed 4.6 X
Track quality 100.0 %
Test CRC D9909CD1
Copy CRC D9909CD1
Track not present in AccurateRip database
Copy OK
Track 9
Filename D:\Dave Koz & Friends - The 25th Of December (2014) [FLAC]\09 - I've Got My Love To Keep Me Warm.wav
Pre-gap length 0:00:00.25
Peak level 98.8 %
Extraction speed 4.6 X
Track quality 100.0 %
Test CRC ACD3E673
Copy CRC ACD3E673
Track not present in AccurateRip database
Copy OK
Track 10
Filename D:\Dave Koz & Friends - The 25th Of December (2014) [FLAC]\10 - O Holy Night.wav
Pre-gap length 0:00:01.16
Peak level 98.8 %
Extraction speed 4.9 X
Track quality 100.0 %
Test CRC 49464AD9
Copy CRC 49464AD9
Track not present in AccurateRip database
Copy OK
Track 11
Filename D:\Dave Koz & Friends - The 25th Of December (2014) [FLAC]\11 - Medley.wav
Pre-gap length 0:00:00.24
Peak level 98.8 %
Extraction speed 5.1 X
Track quality 100.0 %
Test CRC 476D5850
Copy CRC 476D5850
Track not present in AccurateRip database
Copy OK
Track 12
Filename D:\Dave Koz & Friends - The 25th Of December (2014) [FLAC]\12 - All You Need Is Love.wav
Pre-gap length 0:00:01.08
Peak level 98.8 %
Extraction speed 5.5 X
Track quality 100.0 %
Test CRC C56597C7
Copy CRC C56597C7
Track not present in AccurateRip database
Copy OK
None of the tracks are present in the AccurateRip database
No errors occurred
End of status report
==== Log checksum 23F84676F9A9634F76DA825E0E30960CED449355BBCBC6E47556122E501E6AA8 ====
 
Содержание индексной карты (.CUE)
REM GENRE Jazz
REM DATE 2014
REM DISCID A00BC30C
REM COMMENT "ExactAudioCopy v1.0b3"
PERFORMER "Dave Koz & Friends"
TITLE "The 25th Of December"
FILE "01 - The First Noel.wav" WAVE
TRACK 01 AUDIO
TITLE "The First Noel"
PERFORMER "Dave Koz & Friends"
INDEX 01 00:00:00
TRACK 02 AUDIO
TITLE "It's The Most Wonderful Time Of The Year"
PERFORMER "Dave Koz & Friends"
INDEX 00 03:43:01
FILE "02 - It's The Most Wonderful Time Of The Year.wav" WAVE
INDEX 01 00:00:00
FILE "03 - This Christmas.wav" WAVE
TRACK 03 AUDIO
TITLE "This Christmas"
PERFORMER "Dave Koz & Friends"
INDEX 01 00:00:00
FILE "04 - Do You Hear What I Hear.wav" WAVE
TRACK 04 AUDIO
TITLE "Do You Hear What I Hear?"
PERFORMER "Dave Koz & Friends"
INDEX 01 00:00:00
TRACK 05 AUDIO
TITLE "My Grown Up Christmas List"
PERFORMER "Dave Koz & Friends"
INDEX 00 04:11:24
FILE "05 - My Grown Up Christmas List.wav" WAVE
INDEX 01 00:00:00
TRACK 06 AUDIO
TITLE "Another Silent Night"
PERFORMER "Dave Koz & Friends"
INDEX 00 04:48:55
FILE "06 - Another Silent Night.wav" WAVE
INDEX 01 00:00:00
TRACK 07 AUDIO
TITLE "Let It Snow! Let It Snow! Let It Snow!"
PERFORMER "Dave Koz & Friends"
INDEX 00 03:23:51
FILE "07 - Let It Snow! Let It Snow! Let It Snow!.wav" WAVE
INDEX 01 00:00:00
TRACK 08 AUDIO
TITLE "The 25th Of December"
PERFORMER "Dave Koz & Friends"
INDEX 00 03:25:56
FILE "08 - The 25th Of December.wav" WAVE
INDEX 01 00:00:00
TRACK 09 AUDIO
TITLE "I've Got My Love To Keep Me Warm"
PERFORMER "Dave Koz & Friends"
INDEX 00 04:19:05
FILE "09 - I've Got My Love To Keep Me Warm.wav" WAVE
INDEX 01 00:00:00
TRACK 10 AUDIO
TITLE "O Holy Night"
PERFORMER "Dave Koz & Friends"
INDEX 00 03:11:39
FILE "10 - O Holy Night.wav" WAVE
INDEX 01 00:00:00
TRACK 11 AUDIO
TITLE "Medley"
PERFORMER "Dave Koz & Friends"
INDEX 00 05:08:23
FILE "11 - Medley.wav" WAVE
INDEX 01 00:00:00
TRACK 12 AUDIO
TITLE "All You Need Is Love"
PERFORMER "Dave Koz & Friends"
INDEX 00 04:13:47
FILE "12 - All You Need Is Love.wav" WAVE
INDEX 01 00:00:00
mp3
08:44
810
Нет комментариев. Ваш будет первым!