Поиск

(Smooth, Pop-Jazz) Earl Klugh - Crazy For You - 1995, FLAC (tracks+.cue), lossless

(Smooth, Pop-Jazz) Earl Klugh - Crazy For You - 1995, FLAC (tracks+.cue), lossless
•Earl Klugh - Crazy For You•
Жанр: Smooth, Pop-Jazz
Страна-производитель диска: USA
Год издания диска: 1995
Издатель (лейбл): Blue Note
Номер по каталогу: BN 48387
Аудиокодек: FLAC (*.flac)
Тип рипа: tracks+.cue
Битрейт аудио: lossless
Продолжительность: 00:35:32
Источник (релизер): tiburon
Наличие сканов в содержимом раздачи: да
Треклист:
01. I'm Ready For Your Love
02. Soft Stuff
03. Twinkle
04. Broadway Ramble
05. Calypso Getaway
06. The Rainmaker
07. Balladina
08. Crazy For You
 
Лог создания рипа
Exact Audio Copy V0.99 prebeta 4 from 23. January 2008
EAC extraction logfile from 18. April 2009, 18:02
Earl Klugh / Crazy For You
Used drive : PLEXTOR CD-R PREMIUM2 Adapter: 1 ID: 1
Read mode : Secure
Utilize accurate stream : Yes
Defeat audio cache : Yes
Make use of C2 pointers : No
Read offset correction : 30
Overread into Lead-In and Lead-Out : Yes
Fill up missing offset samples with silence : Yes
Delete leading and trailing silent blocks : No
Null samples used in CRC calculations : Yes
Used interface : Installed external ASPI interface
Gap handling : Appended to previous track
Used output format : User Defined Encoder
Selected bitrate : 32 kBit/s
Quality : High
Add ID3 tag : No
Command line compressor : C:\Programmi\FLAC\flac.exe
Additional command line options : -8 -V -T "ARTIST=%a" -T "TITLE=%t" -T "ALBUM=%g" -T "DATE=%y" -T "TRACKNUMBER=%n" -T "GENRE=%m" -T "COMMENT=EAC FLAC -8" %s
TOC of the extracted CD
Track | Start | Length | Start sector | End sector
---------------------------------------------------------
1 | 0:00.32 | 3:21.38 | 32 | 15144
2 | 3:21.70 | 5:12.25 | 15145 | 38569
3 | 8:34.20 | 5:25.30 | 38570 | 62974
4 | 13:59.50 | 4:31.45 | 62975 | 83344
5 | 18:31.20 | 3:17.17 | 83345 | 98136
6 | 21:48.37 | 5:16.05 | 98137 | 121841
7 | 27:04.42 | 4:23.35 | 121842 | 141601
8 | 31:28.02 | 4:04.38 | 141602 | 159939
Track 1
Filename D:\My Rip\01 - I'm Ready For Your Love.wav
Pre-gap length 0:00:02.42
Peak level 96.5 %
Track quality 100.0 %
Test CRC 7D63549F
Copy CRC 7D63549F
Cannot be verified as accurate (confidence 1) [62BC98D7], AccurateRip returned [1143739A]
Copy OK
Track 2
Filename D:\My Rip\02 - Soft Stuff.wav
Pre-gap length 0:00:00.04
Peak level 85.8 %
Track quality 100.0 %
Test CRC D0487220
Copy CRC D0487220
Cannot be verified as accurate (confidence 1) [49637C7A], AccurateRip returned [203F8224]
Copy OK
Track 3
Filename D:\My Rip\03 - Twinkle.wav
Pre-gap length 0:00:02.40
Peak level 90.1 %
Track quality 99.9 %
Test CRC FA733C06
Copy CRC FA733C06
Cannot be verified as accurate (confidence 1) [50FB27F5], AccurateRip returned [DAB2F717]
Copy OK
Track 4
Filename D:\My Rip\04 - Broadway Ramble.wav
Pre-gap length 0:00:03.20
Peak level 63.4 %
Track quality 100.0 %
Test CRC 5D6D96C3
Copy CRC 5D6D96C3
Cannot be verified as accurate (confidence 1) [9958909C], AccurateRip returned [741890D2]
Copy OK
Track 5
Filename D:\My Rip\05 - Calypso Getaway.wav
Pre-gap length 0:00:01.90
Peak level 72.9 %
Track quality 99.9 %
Test CRC FFCC9893
Copy CRC FFCC9893
Cannot be verified as accurate (confidence 1) [9A537984], AccurateRip returned [C1F63199]
Copy OK
Track 6
Filename D:\My Rip\06 - The Rainmaker.wav
Pre-gap length 0:00:02.42
Peak level 79.7 %
Track quality 100.0 %
Test CRC 8F041BC9
Copy CRC 8F041BC9
Cannot be verified as accurate (confidence 1) [BB687EC5], AccurateRip returned [BC06800F]
Copy OK
Track 7
Filename D:\My Rip\07 - Balladina.wav
Pre-gap length 0:00:00.02
Peak level 56.7 %
Track quality 100.0 %
Test CRC 23883457
Copy CRC 23883457
Cannot be verified as accurate (confidence 1) [EC80F5A1], AccurateRip returned [E4276D70]
Copy OK
Track 8
Filename D:\My Rip\08 - Crazy For You.wav
Pre-gap length 0:00:02.76
Peak level 75.9 %
Track quality 100.0 %
Test CRC AAD99A13
Copy CRC AAD99A13
Cannot be verified as accurate (confidence 1) [537FA988], AccurateRip returned [ECC0193C]
Copy OK
No tracks could be verified as accurate
You may have a different pressing from the one(s) in the database
No errors occurred
End of status report
 
Содержание индексной карты (.CUE)
REM GENRE "Smooth Jazz"
REM DATE 1981
REM DISCID 4C085408
REM COMMENT "ExactAudioCopy v0.99pb4"
PERFORMER "Earl Klugh"
TITLE "Crazy For You"
FILE "01 - I'm Ready For Your Love.flac" WAVE
TRACK 01 AUDIO
TITLE "I'm Ready For Your Love"
PERFORMER "Earl Klugh"
PREGAP 00:00:32
INDEX 01 00:00:00
TRACK 02 AUDIO
TITLE "Soft Stuff"
PERFORMER "Earl Klugh"
INDEX 00 03:21:35
FILE "02 - Soft Stuff.flac" WAVE
INDEX 01 00:00:00
TRACK 03 AUDIO
TITLE "Twinkle"
PERFORMER "Earl Klugh"
INDEX 00 05:09:70
FILE "03 - Twinkle.flac" WAVE
INDEX 01 00:00:00
TRACK 04 AUDIO
TITLE "Broadway Ramble"
PERFORMER "Earl Klugh"
INDEX 00 05:22:15
FILE "04 - Broadway Ramble.flac" WAVE
INDEX 01 00:00:00
TRACK 05 AUDIO
TITLE "Calypso Getaway"
PERFORMER "Earl Klugh"
INDEX 00 04:29:52
FILE "05 - Calypso Getaway.flac" WAVE
INDEX 01 00:00:00
TRACK 06 AUDIO
TITLE "The Rainmaker"
PERFORMER "Earl Klugh"
INDEX 00 03:14:60
FILE "06 - The Rainmaker.flac" WAVE
INDEX 01 00:00:00
TRACK 07 AUDIO
TITLE "Balladina"
PERFORMER "Earl Klugh"
INDEX 00 05:16:03
FILE "07 - Balladina.flac" WAVE
INDEX 01 00:00:00
TRACK 08 AUDIO
TITLE "Crazy For You"
PERFORMER "Earl Klugh"
INDEX 00 04:20:53
FILE "08 - Crazy For You.flac" WAVE
INDEX 01 00:00:00
 
Состав
Earl Klugh - acoustic and electric guitars,12 string guitar,rhythm arrangements
Lew Soloff - trumpet
George Young - tenor sax
Onaje Allan Gumbs - piano
Phil Upchurch - electric guitar,rhythm arrangements
Johnny Mandel - conductor,string arrangements
Charles Meeks- electric bass
Ray Parker, Jr. - electric guitar,bass,drums,arranger
Greg Phillinganes - piano,synthesizer,arranger
Raymond Lee Pounds - drums
Jim Pugh - trombone
Sylvester Rivers - piano
Gerald Vinci - concert master
Roland Wilson - producer,rhythm arrangements,mixing
Hubie Crawford - harmonica
Mickie Roaquemore - synthesizer
Joe Shepelym - trumpet
Patrick Williams - conductor,string arrangements
David Taylor - trombone
David Nadien - concert master
Jack Ashford - tambourine
James Bradley, Jr. - drums
Brian Brake - drums
Sam Burtis - trombone
Paulinho Da Costa - percussion
Gene Dunlap - drums
Daryl Dybka - arp
Nathan East - electric bass
Sammy Figueroa - percussion
Clare Fischer - conductor,string arrangements
John Gatchell - trumpet
Donald Griffin - electric guitar
Louis Johnson - electric bass
Gary King - electric bass
Ricky Lawson - drums
Hiram Bullock - electric guitar
Jon Faddis - trumpet
Ronnie Foster - piano, vocoder, rhythm arrangements
Скачивание доступно после регистрации!!
Приватный:
Нет (DHT включён)
Размер:
200.75 Мб (210,502,130 байт) » файлов: 21
Участники:
0 раздают, 1 качают (1 участников всего)
Внешние участники:
5 раздают, 1 качают (6 участников всего) [ Обновить ]
Скорость:
198.62 Кб/c 0/c
02:33
721
Нет комментариев. Ваш будет первым!