Поиск

(Smooth, Pop-Jazz) Walter Beasley - Ready For Love - 2007, FLAC (image+.cue), lossless

(Smooth, Pop-Jazz) Walter Beasley - Ready For Love - 2007, FLAC (image+.cue), lossless
•Walter Beasley - Ready For Love•
Жанр: Smooth, Pop-Jazz
Год издания диска: 2007
Издатель (лейбл): Heads Up
Номер по каталогу: HUCD 3116
Аудиокодек: FLAC (*.flac)
Тип рипа: image+.cue
Битрейт аудио: lossless
Продолжительность: 00:47:30
Источник (релизер): indeep1
Наличие сканов в содержимом раздачи: да
Треклист:
01.Free
02.La Nina
03.Be Thankful For What You've Got
04.Ready For Love
05.Rhea's Song
06.She Moves Me
07.Miss You
08.Land Of The Sun
09.Sugar Puddin'
10.Why Not You
11.Willa Mae's Place
 
Лог создания рипа
EAC extraction logfile from 19. May 2007, 11:51 for CD
Walter Beasley / Ready For Love
Used drive : HL-DT-STDVDRAM GSA-H10A Adapter: 4 ID: 0
Read mode : Secure with NO C2, accurate stream, disable cache
Read offset correction : 667
Overread into Lead-In and Lead-Out : No
Used output format : Internal WAV Routines
44.100 Hz; 16 Bit; Stereo
Other options :
Fill up missing offset samples with silence : Yes
Delete leading and trailing silent blocks : No
Installed external ASPI interface
Range status and errors
Selected range
Filename D:\Rip\Walter Beasley - Ready For Love\CDImage.wav
Peak level 87.0 %
Range quality 100.0 %
CRC 261856AC
Copy finished
No errors occured
End of status report
 
Содержание индексной карты (.CUE)
REM GENRE "Smooth Jazz"
REM DATE 2007
PERFORMER "Walter Beasley"
TITLE "Ready For Love"
FILE "Walter Beasley - Ready For Love.flac" WAVE
TRACK 01 AUDIO
TITLE "Free"
REM REPLAYGAIN_TRACK_GAIN -5.89 dB
REM REPLAYGAIN_TRACK_PEAK 0.869995
FLAGS DCP
INDEX 01 00:00:00
TRACK 02 AUDIO
TITLE "La Nina"
REM REPLAYGAIN_TRACK_GAIN -6.27 dB
REM REPLAYGAIN_TRACK_PEAK 0.869934
FLAGS DCP
INDEX 00 04:42:26
INDEX 01 04:42:38
TRACK 03 AUDIO
TITLE "Be Thankful For What You've Got"
REM REPLAYGAIN_TRACK_GAIN -6.35 dB
REM REPLAYGAIN_TRACK_PEAK 0.869965
FLAGS DCP
INDEX 00 09:36:20
INDEX 01 09:37:51
TRACK 04 AUDIO
TITLE "Ready For Love"
REM REPLAYGAIN_TRACK_GAIN -7.21 dB
REM REPLAYGAIN_TRACK_PEAK 0.869904
FLAGS DCP
INDEX 00 13:13:33
INDEX 01 13:14:00
TRACK 05 AUDIO
TITLE "Rhea's Song"
REM REPLAYGAIN_TRACK_GAIN -6.12 dB
REM REPLAYGAIN_TRACK_PEAK 0.870026
FLAGS DCP
INDEX 00 17:47:27
INDEX 01 17:47:69
TRACK 06 AUDIO
TITLE "She Moves Me"
REM REPLAYGAIN_TRACK_GAIN -5.60 dB
REM REPLAYGAIN_TRACK_PEAK 0.869934
FLAGS DCP
INDEX 00 22:22:64
INDEX 01 22:23:05
TRACK 07 AUDIO
TITLE "Miss You"
REM REPLAYGAIN_TRACK_GAIN -7.02 dB
REM REPLAYGAIN_TRACK_PEAK 0.869934
FLAGS DCP
INDEX 00 25:53:01
INDEX 01 25:54:18
TRACK 08 AUDIO
TITLE "Land Of The Sun"
REM REPLAYGAIN_TRACK_GAIN -5.99 dB
REM REPLAYGAIN_TRACK_PEAK 0.869873
FLAGS DCP
INDEX 00 30:04:28
INDEX 01 30:05:25
TRACK 09 AUDIO
TITLE "Sugar Puddin'"
REM REPLAYGAIN_TRACK_GAIN -5.93 dB
REM REPLAYGAIN_TRACK_PEAK 0.869873
FLAGS DCP
INDEX 00 33:47:42
INDEX 01 33:47:50
TRACK 10 AUDIO
TITLE "Why Not You"
REM REPLAYGAIN_TRACK_GAIN -7.10 dB
REM REPLAYGAIN_TRACK_PEAK 0.869904
FLAGS DCP
INDEX 00 38:11:30
INDEX 01 38:11:69
TRACK 11 AUDIO
TITLE "Willa Mae's Place"
REM REPLAYGAIN_TRACK_GAIN -6.73 dB
REM REPLAYGAIN_TRACK_PEAK 0.869873
FLAGS DCP
INDEX 00 42:34:63
INDEX 01 42:35:68
 
Состав
Walter Beasley (vocals, soprano saxophone, alto saxophone, keyboards, background vocals); Tony Cothran, Wayne Jones, Rick Walford (guitar); Eddie Baccus, Jr. (saxophone); James K. Lloyd (piano, keyboards, programming); Quim Quer, James Lloyd (keyboards, programming); Randy Choice, Dow Brain, Orville Wright (keyboards); Joe Powell (bass guitar); Anthony Nelson Steele (drums); Ricardo Monzon (percussion); David "Pookie" Cole (programming); Lil' John Roberts (vocals, drums, drum programming); Tiffany Davis (vocals); Jeff Lockhart (guitar); Phil Davis (keyboards, keyboard programming).
Скачивание доступно после регистрации!!
Приватный:
Нет (DHT включён)
Размер:
324.71 Мб (340,487,104 байт) » файлов: 8
Участники:
0 раздают, 0 качают (0 участников всего)
Внешние участники:
2 раздают, 1 качают (3 участников всего) [ Обновить ]
02:27
670
Нет комментариев. Ваш будет первым!