Поиск

(Stride, Piano Jazz) [CD] Art Tatum - More Of The Greatest Piano Of Them All + Still More Of The Greatest Piano Of Them All - 2015, FLAC (tracks+.cue), lossless

(Stride, Piano Jazz) [CD] Art Tatum - More Of The Greatest Piano Of Them All + Still More Of The Greatest Piano Of Them All - 2015, FLAC (tracks+.cue), lossless
Треклист:
Art Tatum - More Of The Greatest Piano Of Them All + Still More Of The Greatest Piano Of Them All Жанр: Stride, Piano Jazz
Носитель: CD
Год издания: 2015
Издатель (лейбл): Verve/Poll Winners Records
Номер по каталогу: PWR 27333
Аудиокодек: FLAC (*.flac)
Тип рипа: tracks+.cue
Битрейт аудио: lossless
Продолжительность: 77:05
Источник (релизер): ruskaval
Наличие сканов в содержимом раздачи: да
Треклист:
01. Sweet Lorraine (4:23)
02. Crazy Rhythm (2:58)
03. Isn't It Romantic? (4:35)
04. Indiana (3:05)
05. Happy Feet (2:38)
06. Mean To Me (2:58)
07. Boulevard Of Broken Dreams (5:22)
08. Moonlight On The Ganges (2:17)
09. Moon Song (4:41)
10. S'posin' (3:24)
11. I Won't Dance (2:59)
12. I Can't Give You Anything But Love (3:37)
13. Lullaby In Rhythm (3:11)
14. Out Of Nowhere (3:47)
15. So Beats My Heart For You (5:19)
16. Moonglow (2:57)
17. I Gotta Right To Sing The Blues (3:54)
18. It's Only A Paper Moon (2:40)
19. On The Sunny Side Of The Street (3:07)
20. Do Nothin' Till You Hear From Me (4:56)
21. Prisoner Of Love (Bonus Track) (4:17)
 
 
Об альбоме
The complete original LP More of the Greatest Piano of Them All (Verve MGV-8347), showcasing the brilliant pianist unaccompanied. This album, which includes original liner notes by André Previn, was part of the marathon sessions jazz producer Norman Granz planned for Tatum, who at that time was seriously ill and neglected by record companies due to stylistic changes in the music industry. He would die on November 5, 1956 at the age of 47. As a bonus, we have added the complete album Still More of the Greatest Piano of Them All (Verve MGV-8360), which includes original liner notes by Teddy Wilson, plus one extra track, all recorded during the same sessions.
 
 
Лог создания рипа
Exact Audio Copy V1.1 from 23. June 2015
EAC extraction logfile from 21. August 2016, 23:38
Art Tatum / More Of The Greatest Piano Of Them All + Still More Of The Greatest Piano Of Them All
Used drive : TSSTcorpCDDVDW SE-208DB Adapter: 1 ID: 2
Read mode : Secure
Utilize accurate stream : Yes
Defeat audio cache : Yes
Make use of C2 pointers : No
Read offset correction : 6
Overread into Lead-In and Lead-Out : No
Fill up missing offset samples with silence : Yes
Delete leading and trailing silent blocks : No
Null samples used in CRC calculations : Yes
Used interface : Native Win32 interface for Win NT & 2000
Gap handling : Appended to previous track
Used output format : User Defined Encoder
Selected bitrate : 1024 kBit/s
Quality : High
Add ID3 tag : No
Command line compressor : C:\Program Files (x86)\FLAC Frontend\tools\flac.exe
Additional command line options : -8 -V -T "ARTIST=%artist%" -T "TITLE=%title%" -T "ALBUM=%albumtitle%" -T "DATE=%year%" -T "TRACKNUMBER=%tracknr%" -T "TOTALTRACKS=%numtracks%" -T "GENRE=%genre%" -T "ALBUMARTIST=%albumartist%" -T "ALBUM ARTIST=%albumartist%" -T "COMMENT=EAC Secure Mode, Test & Copy, AccurateRip, FLAC -8" %source%
TOC of the extracted CD
Track | Start | Length | Start sector | End sector
---------------------------------------------------------
1 | 0:00.00 | 4:23.15 | 0 | 19739
2 | 4:23.15 | 2:58.28 | 19740 | 33117
3 | 7:21.43 | 4:35.22 | 33118 | 53764
4 | 11:56.65 | 3:05.30 | 53765 | 67669
5 | 15:02.20 | 2:38.18 | 67670 | 79537
6 | 17:40.38 | 2:58.00 | 79538 | 92887
7 | 20:38.38 | 5:21.55 | 92888 | 117017
8 | 26:00.18 | 2:16.40 | 117018 | 127257
9 | 28:16.58 | 4:40.62 | 127258 | 148319
10 | 32:57.45 | 3:23.42 | 148320 | 163586
11 | 36:21.12 | 2:59.25 | 163587 | 177036
12 | 39:20.37 | 3:37.13 | 177037 | 193324
13 | 42:57.50 | 3:10.57 | 193325 | 207631
14 | 46:08.32 | 3:46.38 | 207632 | 224619
15 | 49:54.70 | 5:18.68 | 224620 | 248537
16 | 55:13.63 | 2:56.47 | 248538 | 261784
17 | 58:10.35 | 3:54.32 | 261785 | 279366
18 | 62:04.67 | 2:40.23 | 279367 | 291389
19 | 64:45.15 | 3:06.60 | 291390 | 305399
20 | 67:52.00 | 4:56.10 | 305400 | 327609
21 | 72:48.10 | 4:17.00 | 327610 | 346884
Track 1
Filename D:\_EAC\Art Tatum - More Of The Greatest Piano Of Them All (2015) [FLAC] {Poll Winners Records PWR 27333 rec 1955}\01 - Sweet Lorraine.wav
Pre-gap length 0:00:02.00
Peak level 80.7 %
Extraction speed 1.3 X
Track quality 100.0 %
Test CRC E608B21F
Copy CRC E608B21F
Accurately ripped (confidence 1) [7D54EF29] (AR v2)
Copy OK
Track 2
Filename D:\_EAC\Art Tatum - More Of The Greatest Piano Of Them All (2015) [FLAC] {Poll Winners Records PWR 27333 rec 1955}\02 - Crazy Rhythm.wav
Peak level 78.7 %
Extraction speed 1.3 X
Track quality 100.0 %
Test CRC EFCE6B90
Copy CRC EFCE6B90
Accurately ripped (confidence 1) [422F9221] (AR v2)
Copy OK
Track 3
Filename D:\_EAC\Art Tatum - More Of The Greatest Piano Of Them All (2015) [FLAC] {Poll Winners Records PWR 27333 rec 1955}\03 - Isn't It Romantic_.wav
Peak level 69.0 %
Extraction speed 1.5 X
Track quality 100.0 %
Test CRC E3E4AFFA
Copy CRC E3E4AFFA
Accurately ripped (confidence 1) [8FEBA18A] (AR v2)
Copy OK
Track 4
Filename D:\_EAC\Art Tatum - More Of The Greatest Piano Of Them All (2015) [FLAC] {Poll Winners Records PWR 27333 rec 1955}\04 - Indiana.wav
Peak level 76.8 %
Extraction speed 1.5 X
Track quality 100.0 %
Test CRC D90511B3
Copy CRC D90511B3
Accurately ripped (confidence 1) [31F0D946] (AR v2)
Copy OK
Track 5
Filename D:\_EAC\Art Tatum - More Of The Greatest Piano Of Them All (2015) [FLAC] {Poll Winners Records PWR 27333 rec 1955}\05 - Happy Feet.wav
Pre-gap length 0:00:00.01
Peak level 86.6 %
Extraction speed 1.5 X
Track quality 100.0 %
Test CRC FFC41B86
Copy CRC FFC41B86
Accurately ripped (confidence 1) [5520B139] (AR v2)
Copy OK
Track 6
Filename D:\_EAC\Art Tatum - More Of The Greatest Piano Of Them All (2015) [FLAC] {Poll Winners Records PWR 27333 rec 1955}\06 - Mean To Me.wav
Peak level 65.1 %
Extraction speed 1.6 X
Track quality 100.0 %
Test CRC A8D6424D
Copy CRC A8D6424D
Accurately ripped (confidence 1) [399E8DC6] (AR v2)
Copy OK
Track 7
Filename D:\_EAC\Art Tatum - More Of The Greatest Piano Of Them All (2015) [FLAC] {Poll Winners Records PWR 27333 rec 1955}\07 - Boulevard Of Broken Dreams.wav
Peak level 92.5 %
Extraction speed 1.9 X
Track quality 100.0 %
Test CRC F65FFDB5
Copy CRC F65FFDB5
Accurately ripped (confidence 1) [EC689D9C] (AR v2)
Copy OK
Track 8
Filename D:\_EAC\Art Tatum - More Of The Greatest Piano Of Them All (2015) [FLAC] {Poll Winners Records PWR 27333 rec 1955}\08 - Moonlight On The Ganges.wav
Peak level 72.5 %
Extraction speed 1.7 X
Track quality 100.0 %
Test CRC FE8FB8BA
Copy CRC FE8FB8BA
Accurately ripped (confidence 1) [AF895FC6] (AR v2)
Copy OK
Track 9
Filename D:\_EAC\Art Tatum - More Of The Greatest Piano Of Them All (2015) [FLAC] {Poll Winners Records PWR 27333 rec 1955}\09 - Moon Song.wav
Peak level 63.0 %
Extraction speed 1.8 X
Track quality 99.9 %
Test CRC 2505E157
Copy CRC 2505E157
Accurately ripped (confidence 1) [3F0839E7] (AR v2)
Copy OK
Track 10
Filename D:\_EAC\Art Tatum - More Of The Greatest Piano Of Them All (2015) [FLAC] {Poll Winners Records PWR 27333 rec 1955}\10 - S'posin'.wav
Peak level 68.3 %
Extraction speed 2.0 X
Track quality 100.0 %
Test CRC 27673630
Copy CRC 27673630
Accurately ripped (confidence 1) [B1E5F641] (AR v2)
Copy OK
Track 11
Filename D:\_EAC\Art Tatum - More Of The Greatest Piano Of Them All (2015) [FLAC] {Poll Winners Records PWR 27333 rec 1955}\11 - I Won't Dance.wav
Peak level 65.1 %
Extraction speed 2.0 X
Track quality 100.0 %
Test CRC 2290EFA6
Copy CRC 2290EFA6
Accurately ripped (confidence 1) [FC94B11E] (AR v2)
Copy OK
Track 12
Filename D:\_EAC\Art Tatum - More Of The Greatest Piano Of Them All (2015) [FLAC] {Poll Winners Records PWR 27333 rec 1955}\12 - I Can't Give You Anything But Love.wav
Peak level 63.0 %
Extraction speed 2.1 X
Track quality 100.0 %
Test CRC D6D170F6
Copy CRC D6D170F6
Accurately ripped (confidence 1) [0386B4DE] (AR v2)
Copy OK
Track 13
Filename D:\_EAC\Art Tatum - More Of The Greatest Piano Of Them All (2015) [FLAC] {Poll Winners Records PWR 27333 rec 1955}\13 - Lullaby In Rhythm.wav
Peak level 57.0 %
Extraction speed 2.1 X
Track quality 100.0 %
Test CRC 63C64FDE
Copy CRC 63C64FDE
Accurately ripped (confidence 1) [6066E166] (AR v2)
Copy OK
Track 14
Filename D:\_EAC\Art Tatum - More Of The Greatest Piano Of Them All (2015) [FLAC] {Poll Winners Records PWR 27333 rec 1955}\14 - Out Of Nowhere.wav
Peak level 68.4 %
Extraction speed 2.2 X
Track quality 100.0 %
Test CRC 9BF6B1CD
Copy CRC 9BF6B1CD
Accurately ripped (confidence 1) [7B87A568] (AR v2)
Copy OK
Track 15
Filename D:\_EAC\Art Tatum - More Of The Greatest Piano Of Them All (2015) [FLAC] {Poll Winners Records PWR 27333 rec 1955}\15 - So Beats My Heart For You.wav
Peak level 76.0 %
Extraction speed 2.4 X
Track quality 100.0 %
Test CRC B42A2729
Copy CRC B42A2729
Accurately ripped (confidence 1) [0203BCA0] (AR v2)
Copy OK
Track 16
Filename D:\_EAC\Art Tatum - More Of The Greatest Piano Of Them All (2015) [FLAC] {Poll Winners Records PWR 27333 rec 1955}\16 - Moonglow.wav
Peak level 83.8 %
Extraction speed 1.9 X
Track quality 99.9 %
Test CRC 88458C81
Copy CRC 88458C81
Cannot be verified as accurate (confidence 1) [591A5413], AccurateRip returned [6C246EAB] (AR v2)
Copy OK
Track 17
Filename D:\_EAC\Art Tatum - More Of The Greatest Piano Of Them All (2015) [FLAC] {Poll Winners Records PWR 27333 rec 1955}\17 - I Gotta Right To Sing The Blues.wav
Peak level 56.0 %
Extraction speed 2.4 X
Track quality 100.0 %
Test CRC F836B79F
Copy CRC F836B79F
Cannot be verified as accurate (confidence 1) [DD05D172], AccurateRip returned [7833310D] (AR v2)
Copy OK
Track 18
Filename D:\_EAC\Art Tatum - More Of The Greatest Piano Of Them All (2015) [FLAC] {Poll Winners Records PWR 27333 rec 1955}\18 - It's Only A Paper Moon.wav
Peak level 91.5 %
Extraction speed 1.9 X
Track quality 99.9 %
Test CRC E3982DE8
Copy CRC E3982DE8
Accurately ripped (confidence 1) [8EC74723] (AR v2)
Copy OK
Track 19
Filename D:\_EAC\Art Tatum - More Of The Greatest Piano Of Them All (2015) [FLAC] {Poll Winners Records PWR 27333 rec 1955}\19 - On The Sunny Side Of The Street.wav
Peak level 82.1 %
Extraction speed 2.4 X
Track quality 100.0 %
Test CRC 046FDC1E
Copy CRC 046FDC1E
Accurately ripped (confidence 1) [4FB88132] (AR v2)
Copy OK
Track 20
Filename D:\_EAC\Art Tatum - More Of The Greatest Piano Of Them All (2015) [FLAC] {Poll Winners Records PWR 27333 rec 1955}\20 - Do Nothin' Till You Hear From Me.wav
Peak level 87.3 %
Extraction speed 2.4 X
Track quality 99.9 %
Test CRC FBE9E777
Copy CRC FBE9E777
Accurately ripped (confidence 1) [667BD280] (AR v2)
Copy OK
Track 21
Filename D:\_EAC\Art Tatum - More Of The Greatest Piano Of Them All (2015) [FLAC] {Poll Winners Records PWR 27333 rec 1955}\21 - Prisoner Of Love (Bonus Track).wav
Peak level 99.9 %
Extraction speed 2.3 X
Track quality 99.9 %
Test CRC BE9048AB
Copy CRC BE9048AB
Accurately ripped (confidence 1) [737FC25F] (AR v2)
Copy OK
19 track(s) accurately ripped
2 track(s) could not be verified as accurate
Some tracks could not be verified as accurate
No errors occurred
End of status report
==== Log checksum 37ADE071965C9392BDB294A1B1B1C524A18B5C57805682FE1F97F7663ACAA02B ====
 
Содержание индексной карты (.CUE)
REM GENRE Jazz
REM DATE 1955
REM DISCID 4B121115
REM COMMENT "ExactAudioCopy v1.1"
PERFORMER "Art Tatum"
TITLE "More Of The Greatest Piano Of Them All + Still More Of The Greatest Piano Of Them All"
FILE "01 - Sweet Lorraine.wav" WAVE
TRACK 01 AUDIO
TITLE "Sweet Lorraine"
PERFORMER "Art Tatum"
INDEX 01 00:00:00
FILE "02 - Crazy Rhythm.wav" WAVE
TRACK 02 AUDIO
TITLE "Crazy Rhythm"
PERFORMER "Art Tatum"
INDEX 01 00:00:00
FILE "03 - Isn't It Romantic_.wav" WAVE
TRACK 03 AUDIO
TITLE "Isn't It Romantic?"
PERFORMER "Art Tatum"
INDEX 01 00:00:00
FILE "04 - Indiana.wav" WAVE
TRACK 04 AUDIO
TITLE "Indiana"
PERFORMER "Art Tatum"
INDEX 01 00:00:00
TRACK 05 AUDIO
TITLE "Happy Feet"
PERFORMER "Art Tatum"
INDEX 00 03:05:29
FILE "05 - Happy Feet.wav" WAVE
INDEX 01 00:00:00
FILE "06 - Mean To Me.wav" WAVE
TRACK 06 AUDIO
TITLE "Mean To Me"
PERFORMER "Art Tatum"
INDEX 01 00:00:00
FILE "07 - Boulevard Of Broken Dreams.wav" WAVE
TRACK 07 AUDIO
TITLE "Boulevard Of Broken Dreams"
PERFORMER "Art Tatum"
INDEX 01 00:00:00
FILE "08 - Moonlight On The Ganges.wav" WAVE
TRACK 08 AUDIO
TITLE "Moonlight On The Ganges"
PERFORMER "Art Tatum"
INDEX 01 00:00:00
FILE "09 - Moon Song.wav" WAVE
TRACK 09 AUDIO
TITLE "Moon Song"
PERFORMER "Art Tatum"
INDEX 01 00:00:00
FILE "10 - S'posin'.wav" WAVE
TRACK 10 AUDIO
TITLE "S'posin'"
PERFORMER "Art Tatum"
INDEX 01 00:00:00
FILE "11 - I Won't Dance.wav" WAVE
TRACK 11 AUDIO
TITLE "I Won't Dance"
PERFORMER "Art Tatum"
INDEX 01 00:00:00
FILE "12 - I Can't Give You Anything But Love.wav" WAVE
TRACK 12 AUDIO
TITLE "I Can't Give You Anything But Love"
PERFORMER "Art Tatum"
INDEX 01 00:00:00
FILE "13 - Lullaby In Rhythm.wav" WAVE
TRACK 13 AUDIO
TITLE "Lullaby In Rhythm"
PERFORMER "Art Tatum"
INDEX 01 00:00:00
FILE "14 - Out Of Nowhere.wav" WAVE
TRACK 14 AUDIO
TITLE "Out Of Nowhere"
PERFORMER "Art Tatum"
INDEX 01 00:00:00
FILE "15 - So Beats My Heart For You.wav" WAVE
TRACK 15 AUDIO
TITLE "So Beats My Heart For You"
PERFORMER "Art Tatum"
INDEX 01 00:00:00
FILE "16 - Moonglow.wav" WAVE
TRACK 16 AUDIO
TITLE "Moonglow"
PERFORMER "Art Tatum"
INDEX 01 00:00:00
FILE "17 - I Gotta Right To Sing The Blues.wav" WAVE
TRACK 17 AUDIO
TITLE "I Gotta Right To Sing The Blues"
PERFORMER "Art Tatum"
INDEX 01 00:00:00
FILE "18 - It's Only A Paper Moon.wav" WAVE
TRACK 18 AUDIO
TITLE "It's Only A Paper Moon"
PERFORMER "Art Tatum"
INDEX 01 00:00:00
FILE "19 - On The Sunny Side Of The Street.wav" WAVE
TRACK 19 AUDIO
TITLE "On The Sunny Side Of The Street"
PERFORMER "Art Tatum"
INDEX 01 00:00:00
FILE "20 - Do Nothin' Till You Hear From Me.wav" WAVE
TRACK 20 AUDIO
TITLE "Do Nothin' Till You Hear From Me"
PERFORMER "Art Tatum"
INDEX 01 00:00:00
FILE "21 - Prisoner Of Love (Bonus Track).wav" WAVE
TRACK 21 AUDIO
TITLE "Prisoner Of Love (Bonus Track)"
PERFORMER "Art Tatum"
INDEX 01 00:00:00
19:45
553
Нет комментариев. Ваш будет первым!