Поиск

(Stride, Swing) Art Tatum — Tea For Two (1945) — 1994, FLAC (tracks+.cue), lossless

Треклист:
Art Tatum — Tea For Two (1945)
Жанр: Stride, Swing
Год выпуска диска: 1994
Label: Black Lion BLCD760192
Аудио кодек: FLAC
Тип рипа: tracks+.cue
Битрейт аудио: lossless
Продолжительность: 58:02
Треклист:
01. Tea For Two (2:14)
02. Poor Butterfly (2:36)
03. I've Got A Right To Sing The Blues (2:02)
04. Tabu (2:28)
05. Ain't Misbehavin' (4:36)
06. Royal Garden Blues (2:50)
07. I Got Rhythm (2:35)
08. Hallelujah (2:48)
09. Hallelujah (3:12)
10. Poor Butterfly (3:09)
11. Song Of The Vagabonds (3:03)
12. Lover (3:09)
13. Memories Of You (3:11)
14. Running Wild (2:57)
15. Yesterdays (3:17)
16. Kerry Dance (2:30)
17. Crystal Clear (3:13)
18. Gang O'Notes (2:54)
19. Between Midnight And Dawn (2:53)
20. Apollo Boogie (2:27)
Сканы: 300 dpi
   Источник:
 
Audiochecker.log
AUDIOCHECKER v2.0 beta (build 457) - by Dester - opdester@freemail.hu
~~~~~~~~~~~~~~~~~~~~~~~~~~~~~~~~~~
Started at: среда, 18. 11. 2009. - 1:04.29
20 files found
01 -===- N:\Art TATUM\1945. Art Tatum - Tea for Two {1994}\01. Tea For Two.flac
Extracted successfully
Conclusion: this track is CDDA with probability 100%
Tempfile successfully deleted.
02 -===- N:\Art TATUM\1945. Art Tatum - Tea for Two {1994}\02. Poor Butterfly.flac
Extracted successfully
Conclusion: this track is CDDA with probability 100%
Tempfile successfully deleted.
03 -===- N:\Art TATUM\1945. Art Tatum - Tea for Two {1994}\03. I've Got A Right To Sing The Blues.flac
Extracted successfully
Conclusion: this track is CDDA with probability 100%
Tempfile successfully deleted.
04 -===- N:\Art TATUM\1945. Art Tatum - Tea for Two {1994}\04. Tabu.flac
Extracted successfully
Conclusion: this track is CDDA with probability 100%
Tempfile successfully deleted.
05 -===- N:\Art TATUM\1945. Art Tatum - Tea for Two {1994}\05. Ain't Misbehavin'.flac
Extracted successfully
Conclusion: this track is CDDA with probability 94%
Tempfile successfully deleted.
06 -===- N:\Art TATUM\1945. Art Tatum - Tea for Two {1994}\06. Royal Garden Blues.flac
Extracted successfully
Conclusion: this track is CDDA with probability 100%
Tempfile successfully deleted.
07 -===- N:\Art TATUM\1945. Art Tatum - Tea for Two {1994}\07. I Got Rhythm.flac
Extracted successfully
Conclusion: this track is CDDA with probability 100%
Tempfile successfully deleted.
08 -===- N:\Art TATUM\1945. Art Tatum - Tea for Two {1994}\08. Hallelujah.flac
Extracted successfully
Conclusion: this track is CDDA with probability 99%
Tempfile successfully deleted.
09 -===- N:\Art TATUM\1945. Art Tatum - Tea for Two {1994}\09. Hallelujah.flac
Extracted successfully
Conclusion: this track is CDDA with probability 100%
Tempfile successfully deleted.
10 -===- N:\Art TATUM\1945. Art Tatum - Tea for Two {1994}\10. Poor Butterfly.flac
Extracted successfully
Conclusion: this track is CDDA with probability 100%
Tempfile successfully deleted.
11 -===- N:\Art TATUM\1945. Art Tatum - Tea for Two {1994}\11. Song Of The Vagabonds.flac
Extracted successfully
Conclusion: this track is CDDA with probability 100%
Tempfile successfully deleted.
12 -===- N:\Art TATUM\1945. Art Tatum - Tea for Two {1994}\12. Lover.flac
Extracted successfully
Conclusion: this track is CDDA with probability 100%
Tempfile successfully deleted.
13 -===- N:\Art TATUM\1945. Art Tatum - Tea for Two {1994}\13. Memories Of You.flac
Extracted successfully
Conclusion: this track is CDDA with probability 100%
Tempfile successfully deleted.
14 -===- N:\Art TATUM\1945. Art Tatum - Tea for Two {1994}\14. Running Wild.flac
Extracted successfully
Conclusion: this track is CDDA with probability 100%
Tempfile successfully deleted.
15 -===- N:\Art TATUM\1945. Art Tatum - Tea for Two {1994}\15. Yesterdays.flac
Extracted successfully
Conclusion: this track is CDDA with probability 100%
Tempfile successfully deleted.
16 -===- N:\Art TATUM\1945. Art Tatum - Tea for Two {1994}\16. Kerry Dance.flac
Extracted successfully
Conclusion: this track is CDDA with probability 100%
Tempfile successfully deleted.
17 -===- N:\Art TATUM\1945. Art Tatum - Tea for Two {1994}\17. Crystal Clear.flac
Extracted successfully
Conclusion: this track is CDDA with probability 100%
Tempfile successfully deleted.
18 -===- N:\Art TATUM\1945. Art Tatum - Tea for Two {1994}\18. Gang O'Notes.flac
Extracted successfully
Conclusion: this track is CDDA with probability 92%
Tempfile successfully deleted.
19 -===- N:\Art TATUM\1945. Art Tatum - Tea for Two {1994}\19. Between Midnight And Dawn.flac
Extracted successfully
Conclusion: this track is CDDA with probability 87%
Tempfile successfully deleted.
20 -===- N:\Art TATUM\1945. Art Tatum - Tea for Two {1994}\20. Apollo Boogie.flac
Extracted successfully
Conclusion: this track is CDDA with probability 100%
Tempfile successfully deleted.
Finished at: среда, 18. 11. 2009. - 1:09.24 (operation time: 0:04.55)
 
Отчет ЕАС
Exact Audio Copy V0.99 prebeta 4 from 23. January 2008
EAC extraction logfile from 26. April 2009, 23:30
Art Tatum / Tea For Two
Used drive : TSSTcorpCDDVDW SH-S223Q Adapter: 2 ID: 1
Read mode : Secure
Utilize accurate stream : Yes
Defeat audio cache : Yes
Make use of C2 pointers : No
Read offset correction : 6
Overread into Lead-In and Lead-Out : No
Fill up missing offset samples with silence : Yes
Delete leading and trailing silent blocks : No
Null samples used in CRC calculations : Yes
Used interface : Installed external ASPI interface
Gap handling : Appended to previous track
Used output format : User Defined Encoder
Selected bitrate : 320 kBit/s
Quality : High
Add ID3 tag : No
Command line compressor : C:\Program Files (x86)\Exact Audio Copy\flac.exe
Additional command line options : -8 -V -T "ARTIST=%a" -T "TITLE=%t" -T "ALBUM=%g" -T "DATE=%y" -T "TRACKNUMBER=%n" -T "GENRE=%m" -T "COMMENT=EAC FLAC -8" %s
TOC of the extracted CD
Track | Start | Length | Start sector | End sector
---------------------------------------------------------
1 | 0:00.00 | 2:13.67 | 0 | 10041
2 | 2:13.67 | 2:35.40 | 10042 | 21706
3 | 4:49.32 | 2:02.25 | 21707 | 30881
4 | 6:51.57 | 2:27.73 | 30882 | 41979
5 | 9:19.55 | 4:35.40 | 41980 | 62644
6 | 13:55.20 | 2:50.30 | 62645 | 75424
7 | 16:45.50 | 2:34.62 | 75425 | 87036
8 | 19:20.37 | 2:48.13 | 87037 | 99649
9 | 22:08.50 | 3:11.47 | 99650 | 114021
10 | 25:20.22 | 3:09.20 | 114022 | 128216
11 | 28:29.42 | 3:02.38 | 128217 | 141904
12 | 31:32.05 | 3:08.65 | 141905 | 156069
13 | 34:40.70 | 3:11.22 | 156070 | 170416
14 | 37:52.17 | 2:57.33 | 170417 | 183724
15 | 40:49.50 | 3:16.50 | 183725 | 198474
16 | 44:06.25 | 2:30.30 | 198475 | 209754
17 | 46:36.55 | 3:12.52 | 209755 | 224206
18 | 49:49.32 | 2:53.48 | 224207 | 237229
19 | 52:43.05 | 2:52.45 | 237230 | 250174
20 | 55:35.50 | 2:26.55 | 250175 | 261179
Track 1
Filename C:\Audio\Art Tatum - Tea for Two (1945) [FLAC] {1994}\01 - Tea For Two.wav
Pre-gap length 0:00:02.00
Peak level 85.4 %
Track quality 100.0 %
Test CRC 3BA6087B
Copy CRC 3BA6087B
Track not present in AccurateRip database
Copy OK
Track 2
Filename C:\Audio\Art Tatum - Tea for Two (1945) [FLAC] {1994}\02 - Poor Butterfly.wav
Pre-gap length 0:00:06.02
Peak level 83.8 %
Track quality 100.0 %
Test CRC DB9F4014
Copy CRC DB9F4014
Track not present in AccurateRip database
Copy OK
Track 3
Filename C:\Audio\Art Tatum - Tea for Two (1945) [FLAC] {1994}\03 - I've Got A Right To Sing The Blues.wav
Pre-gap length 0:00:04.33
Peak level 79.3 %
Track quality 100.0 %
Test CRC 55241978
Copy CRC 55241978
Track not present in AccurateRip database
Copy OK
Track 4
Filename C:\Audio\Art Tatum - Tea for Two (1945) [FLAC] {1994}\04 - Tabu.wav
Pre-gap length 0:00:05.16
Peak level 97.6 %
Track quality 100.0 %
Test CRC 2F7F7CB3
Copy CRC 2F7F7CB3
Track not present in AccurateRip database
Copy OK
Track 5
Filename C:\Audio\Art Tatum - Tea for Two (1945) [FLAC] {1994}\05 - Ain't Misbehavin'.wav
Peak level 81.6 %
Track quality 100.0 %
Test CRC 9E077B47
Copy CRC 9E077B47
Track not present in AccurateRip database
Copy OK
Track 6
Filename C:\Audio\Art Tatum - Tea for Two (1945) [FLAC] {1994}\06 - Royal Garden Blues.wav
Pre-gap length 0:00:03.10
Peak level 87.4 %
Track quality 100.0 %
Test CRC 7BEA04AD
Copy CRC 7BEA04AD
Track not present in AccurateRip database
Copy OK
Track 7
Filename C:\Audio\Art Tatum - Tea for Two (1945) [FLAC] {1994}\07 - I Got Rhythm.wav
Pre-gap length 0:00:05.50
Peak level 87.3 %
Track quality 100.0 %
Test CRC 86025DA5
Copy CRC 86025DA5
Track not present in AccurateRip database
Copy OK
Track 8
Filename C:\Audio\Art Tatum - Tea for Two (1945) [FLAC] {1994}\08 - Hallelujah.wav
Pre-gap length 0:00:05.33
Peak level 80.4 %
Track quality 100.0 %
Test CRC 4489DEC3
Copy CRC 4489DEC3
Track not present in AccurateRip database
Copy OK
Track 9
Filename C:\Audio\Art Tatum - Tea for Two (1945) [FLAC] {1994}\09 - Hallelujah.wav
Pre-gap length 0:00:07.00
Peak level 82.6 %
Track quality 100.0 %
Test CRC 81674C40
Copy CRC 81674C40
Track not present in AccurateRip database
Copy OK
Track 10
Filename C:\Audio\Art Tatum - Tea for Two (1945) [FLAC] {1994}\10 - Poor Butterfly.wav
Pre-gap length 0:00:06.66
Peak level 81.3 %
Track quality 99.9 %
Test CRC B8C721C5
Copy CRC B8C721C5
Track not present in AccurateRip database
Copy OK
Track 11
Filename C:\Audio\Art Tatum - Tea for Two (1945) [FLAC] {1994}\11 - Song Of The Vagabonds.wav
Pre-gap length 0:00:03.73
Peak level 78.9 %
Track quality 100.0 %
Test CRC E233C6FC
Copy CRC E233C6FC
Track not present in AccurateRip database
Copy OK
Track 12
Filename C:\Audio\Art Tatum - Tea for Two (1945) [FLAC] {1994}\12 - Lover.wav
Pre-gap length 0:00:06.33
Peak level 100.0 %
Track quality 100.0 %
Test CRC A6D75A38
Copy CRC A6D75A38
Track not present in AccurateRip database
Copy OK
Track 13
Filename C:\Audio\Art Tatum - Tea for Two (1945) [FLAC] {1994}\13 - Memories Of You.wav
Pre-gap length 0:00:07.37
Peak level 71.5 %
Track quality 100.0 %
Test CRC 625FD09C
Copy CRC 625FD09C
Track not present in AccurateRip database
Copy OK
Track 14
Filename C:\Audio\Art Tatum - Tea for Two (1945) [FLAC] {1994}\14 - Running Wild.wav
Pre-gap length 0:00:04.89
Peak level 74.9 %
Track quality 100.0 %
Test CRC AA0FF782
Copy CRC AA0FF782
Track not present in AccurateRip database
Copy OK
Track 15
Filename C:\Audio\Art Tatum - Tea for Two (1945) [FLAC] {1994}\15 - Yesterdays.wav
Pre-gap length 0:00:05.26
Peak level 70.5 %
Track quality 100.0 %
Test CRC 18A6D9BA
Copy CRC 18A6D9BA
Track not present in AccurateRip database
Copy OK
Track 16
Filename C:\Audio\Art Tatum - Tea for Two (1945) [FLAC] {1994}\16 - Kerry Dance.wav
Pre-gap length 0:00:06.64
Peak level 75.5 %
Track quality 99.9 %
Test CRC 46FDF1F6
Copy CRC 46FDF1F6
Track not present in AccurateRip database
Copy OK
Track 17
Filename C:\Audio\Art Tatum - Tea for Two (1945) [FLAC] {1994}\17 - Crystal Clear.wav
Pre-gap length 0:00:05.73
Peak level 63.4 %
Track quality 100.0 %
Test CRC 50AB83FE
Copy CRC 50AB83FE
Track not present in AccurateRip database
Copy OK
Track 18
Filename C:\Audio\Art Tatum - Tea for Two (1945) [FLAC] {1994}\18 - Gang O'Notes.wav
Pre-gap length 0:00:07.16
Peak level 90.0 %
Track quality 100.0 %
Test CRC 4CAFA5E5
Copy CRC 4CAFA5E5
Track not present in AccurateRip database
Copy OK
Track 19
Filename C:\Audio\Art Tatum - Tea for Two (1945) [FLAC] {1994}\19 - Between Midnight And Dawn.wav
Pre-gap length 0:00:08.37
Peak level 81.6 %
Track quality 100.0 %
Test CRC 50E8D284
Copy CRC 50E8D284
Track not present in AccurateRip database
Copy OK
Track 20
Filename C:\Audio\Art Tatum - Tea for Two (1945) [FLAC] {1994}\20 - Apollo Boogie.wav
Peak level 82.3 %
Track quality 100.0 %
Test CRC F85AE71D
Copy CRC F85AE71D
Track not present in AccurateRip database
Copy OK
None of the tracks are present in the AccurateRip database
No errors occurred
End of status report
   Мои раздачи на трекере
16:06
538
Нет комментариев. Ваш будет первым!