Поиск

(Stride, Swing, Piano Jazz) Art Tatum — The Art Tatum Solo Masterpieces (8 CD) — 1992, FLAC (image+.cue), lossless

(Stride, Swing, Piano Jazz) Art Tatum — The Art Tatum Solo Masterpieces (8 CD) — 1992, FLAC (image+.cue), lossless
Треклист:
Art Tatum — The Art Tatum Solo Masterpieces (8 CD)

Жанр: Stride, Swing, Piano Jazz
Год издания: 1992
Лейбл: Pablo Records
Аудиокодек: FLAC (*.flac)
Тип рипа: image+.cue
Битрейт аудио: lossless
Риппер: Mazeppa
Наличие сканов в содержимом раздачи: да 
 
 
 
 
Volume One
Номер по каталогу: PACD-2405-432-2
Продолжительность: 65:02
Треклист:
01. Moonglow (2:57)
02. Love For Sale (4:41)
03. Body And Soul (5:51)
04. Just A-Sittin' And A-Rockin' (3:59)
05. It's Only A Paper Moon (2:41)
06. Have You Met Miss Jones (4:51)
07. Stay As Sweet As You Are (5:10)
08. My Last Affair (2:54)
09. Willow Weep For Me (4:33)
10. Too Marvelous For Words (3:01)
11. You Took Advantage Of Me (3:18)
12. Sophisticated Lady (3:38)
13. I'm In The Mood For Love (4:28)
14. Everything I Have Is Yours (5:47)
15. Blue Lou (2:45)
16. Embraceable You (4:28)
 
Лог создания рипа
EAC extraction logfile from 24. January 2007, 12:09 for CD
Art Tatum / The Art Tatum Solo Masterpieces Volume One
Used drive : LITE-ON CD-ROM LTN-527T Adapter: 1 ID: 1
Read mode : Secure with NO C2, accurate stream, disable cache
Read offset correction : 12
Overread into Lead-In and Lead-Out : Yes
Used output format : C:\Program Files\Monkey's Audio\MAC.exe (Monkey's Audio Lossless Encoder)
High Lossless Compression
Other options :
Fill up missing offset samples with silence : Yes
Delete leading and trailing silent blocks : No
Installed external ASPI interface
Range status and errors
Selected range
Filename F:\Downloads\Art Tatum Solo Masterpieces v1 (1953-55 Pablo)[APE Full Scans]\Art Tatum - The Art Tatum Solo Masterpieces Volume One.wav.wav
Peak level 94.3 %
Range quality 99.9 %
CRC AD014A66
Copy OK
No errors occured
End of status report
 
Содержание индексной карты (.CUE)
REM DATE 1992
REM GENRE Jazz
REM DISCID CF0F3E10
REM COMMENT "ExactAudioCopy v0.95b4"
PERFORMER "Art Tatum"
TITLE "The Art Tatum Solo Masterpieces, Volume One"
FILE "Art Tatum - The Art Tatum Solo Masterpieces, Vol. 1.flac" WAVE
TRACK 01 AUDIO
TITLE "Moonglow"
PERFORMER "Art Tatum"
INDEX 01 00:00:00
TRACK 02 AUDIO
TITLE "Love For Sale"
PERFORMER "Art Tatum"
INDEX 00 02:54:65
INDEX 01 02:57:17
TRACK 03 AUDIO
TITLE "Body And Soul"
PERFORMER "Art Tatum"
INDEX 00 07:36:72
INDEX 01 07:38:45
TRACK 04 AUDIO
TITLE "Just A-Sittin' And A-Rockin'"
PERFORMER "Art Tatum"
INDEX 00 13:27:55
INDEX 01 13:29:30
TRACK 05 AUDIO
TITLE "It's Only A Paper Moon"
PERFORMER "Art Tatum"
INDEX 00 17:27:25
INDEX 01 17:28:60
TRACK 06 AUDIO
TITLE "Have You Met Miss Jones"
PERFORMER "Art Tatum"
INDEX 00 20:07:62
INDEX 01 20:09:55
TRACK 07 AUDIO
TITLE "Stay As Sweet As You Are"
PERFORMER "Art Tatum"
INDEX 00 24:58:02
INDEX 01 25:00:27
TRACK 08 AUDIO
TITLE "My Last Affair"
PERFORMER "Art Tatum"
INDEX 00 30:08:17
INDEX 01 30:09:65
TRACK 09 AUDIO
TITLE "Willow Weep For Me"
PERFORMER "Art Tatum"
INDEX 00 33:01:20
INDEX 01 33:03:70
TRACK 10 AUDIO
TITLE "Too Marvelous For Words"
PERFORMER "Art Tatum"
INDEX 00 37:35:20
INDEX 01 37:36:50
TRACK 11 AUDIO
TITLE "You Took Advantage Of Me"
PERFORMER "Art Tatum"
INDEX 00 40:35:12
INDEX 01 40:37:35
TRACK 12 AUDIO
TITLE "Sophisticated Lady"
PERFORMER "Art Tatum"
INDEX 00 43:53:42
INDEX 01 43:55:70
TRACK 13 AUDIO
TITLE "I'm In The Mood For Love"
PERFORMER "Art Tatum"
INDEX 00 47:31:62
INDEX 01 47:33:70
TRACK 14 AUDIO
TITLE "Everything I Have Is Yours"
PERFORMER "Art Tatum"
INDEX 00 52:00:22
INDEX 01 52:02:07
TRACK 15 AUDIO
TITLE "Blue Lou"
PERFORMER "Art Tatum"
INDEX 00 57:46:57
INDEX 01 57:48:62
TRACK 16 AUDIO
TITLE "Embraceable You"
PERFORMER "Art Tatum"
INDEX 00 60:32:27
INDEX 01 60:34:07
 
Volume Two
Номер по каталогу: PACD-2405-433-2
Продолжительность: 63:31
Треклист:
01. Elegy (3:37)
02. This Can't Be Love (2:39)
03. There Will Never Be Another You (5:30)
04. Gone With The Wind (3:03)
05. I Don't Stand A Ghost Of A Chance With You (4:13)
06. Lover Come Back To Me (6:47)
07. I'll See You In My Dreams (3:19)
08. Heat Wave (3:19)
09. September Song (4:10)
10. I Didn't Know What Time It Was (4:17)
11. Tea For Two (3:33)
12. Come Rain Or Come Shine (5:07)
13. The Very Thought Of You (4:30)
14. Please Be Kind (5:09)
15. Would You LiKe To Take A Walk (4:14)
 
Лог создания рипа
EAC extraction logfile from 24. January 2007, 12:23 for CD
Art Tatum / Solo Masterpieces: Volume Two
Used drive : LITE-ON CD-ROM LTN-527T Adapter: 1 ID: 1
Read mode : Secure with NO C2, accurate stream, disable cache
Read offset correction : 12
Overread into Lead-In and Lead-Out : Yes
Used output format : C:\Program Files\Monkey's Audio\MAC.exe (Monkey's Audio Lossless Encoder)
High Lossless Compression
Other options :
Fill up missing offset samples with silence : Yes
Delete leading and trailing silent blocks : No
Installed external ASPI interface
Range status and errors
Selected range
Filename F:\Downloads\Art Tatum Solo Masterpieces v2 (1953-55 Pablo)[APE Full Scans]\Art Tatum - Solo Masterpieces Volume Two.wav.wav
Peak level 98.5 %
Range quality 99.9 %
CRC F22FA40E
Copy OK
No errors occured
End of status report
 
Содержание индексной карты (.CUE)
REM DATE 1992
REM GENRE Jazz
REM DISCID E40EE20F
REM COMMENT "ExactAudioCopy v0.95b4"
PERFORMER "Art Tatum"
TITLE "The Art Tatum Solo Masterpieces, Volume Two"
FILE "Art Tatum - The Art Tatum Solo Masterpieces, Vol. 2.flac" WAVE
TRACK 01 AUDIO
TITLE "Elegy"
PERFORMER "Art Tatum"
INDEX 01 00:00:00
TRACK 02 AUDIO
TITLE "This Can't Be Love"
PERFORMER "Art Tatum"
INDEX 00 03:35:42
INDEX 01 03:37:37
TRACK 03 AUDIO
TITLE "There Will Never Be Another You"
PERFORMER "Art Tatum"
INDEX 00 06:14:12
INDEX 01 06:16:42
TRACK 04 AUDIO
TITLE "Gone With The Wind"
PERFORMER "Art Tatum"
INDEX 00 11:44:70
INDEX 01 11:46:60
TRACK 05 AUDIO
TITLE "I Don't Stand A Ghost Of A Chance With You"
PERFORMER "Art Tatum"
INDEX 00 14:47:52
INDEX 01 14:50:07
TRACK 06 AUDIO
TITLE "Lover Come Back To Me"
PERFORMER "Art Tatum"
INDEX 00 19:01:27
INDEX 01 19:03:40
TRACK 07 AUDIO
TITLE "I'll See You In My Dreams"
PERFORMER "Art Tatum"
INDEX 00 25:48:60
INDEX 01 25:50:70
TRACK 08 AUDIO
TITLE "Heat Wave"
PERFORMER "Art Tatum"
INDEX 00 29:07:45
INDEX 01 29:10:02
TRACK 09 AUDIO
TITLE "September Song"
PERFORMER "Art Tatum"
INDEX 00 32:26:65
INDEX 01 32:29:30
TRACK 10 AUDIO
TITLE "I Didn't Know What Time It Was"
PERFORMER "Art Tatum"
INDEX 00 36:37:45
INDEX 01 36:39:42
TRACK 11 AUDIO
TITLE "Tea For Two"
PERFORMER "Art Tatum"
INDEX 00 40:54:15
INDEX 01 40:56:42
TRACK 12 AUDIO
TITLE "Come Rain Or Come Shine"
PERFORMER "Art Tatum"
INDEX 00 44:27:02
INDEX 01 44:29:70
TRACK 13 AUDIO
TITLE "The Very Thought Of You"
PERFORMER "Art Tatum"
INDEX 00 49:35:17
INDEX 01 49:37:32
TRACK 14 AUDIO
TITLE "Please Be Kind"
PERFORMER "Art Tatum"
INDEX 00 54:05:72
INDEX 01 54:07:62
TRACK 15 AUDIO
TITLE "Would You LiKe To Take A Walk"
PERFORMER "Art Tatum"
INDEX 00 59:14:65
INDEX 01 59:17:00
 
Volume Three
Номер по каталогу: PACD-2405-434-2
Продолжительность: 62:44
Треклист:
01. Yesterdays (3:29)
02. Tenderly (5:07)
03. Jitterbug Waltz (3:49)
04. Love Me Or Leave Me (3:23)
05. Deep Purple (5:04)
06. Begin The Beguine (3:00)
07. Dixieland Band (3:08)
08. All The Things You Are (6:03)
09. Crazy Rhythm (2:57)
10. Prisoner Of Love (4:19)
11. After You've Gone (4:02)
12. When Your Lover Has Gone (3:40)
13. Indiana (Back Home Again In Indiana) (3:05)
14. I Surrender, Dear (3:54)
15. If You Hadn't Gone Away (4:06)
16. I Can't Give You Anything But Love (3:35)
 
Лог создания рипа
EAC extraction logfile from 24. January 2007, 12:35 for CD
Art Tatum / The Art Tatum Solo Masterpieces (vol. 3)
Used drive : LITE-ON CD-ROM LTN-527T Adapter: 1 ID: 1
Read mode : Secure with NO C2, accurate stream, disable cache
Read offset correction : 12
Overread into Lead-In and Lead-Out : Yes
Used output format : C:\Program Files\Monkey's Audio\MAC.exe (Monkey's Audio Lossless Encoder)
High Lossless Compression
Other options :
Fill up missing offset samples with silence : Yes
Delete leading and trailing silent blocks : No
Installed external ASPI interface
Range status and errors
Selected range
Filename F:\Downloads\Art Tatum Solo Masterpieces v3 (1953-55 Pablo)[APE Full Scans]\Art Tatum - The Art Tatum Solo Masterpieces (vol. 3).wav.wav
Peak level 98.2 %
Range quality 100.0 %
CRC 2D1DF4A4
Copy OK
No errors occured
End of status report
 
Содержание индексной карты (.CUE)
REM DATE 1992
REM GENRE Jazz
REM DISCID D30EB310
REM COMMENT "ExactAudioCopy v0.95b4"
PERFORMER "Art Tatum"
TITLE "The Art Tatum Solo Masterpieces, Volume Three"
FILE "Art Tatum - The Art Tatum Solo Masterpieces, Vol. 3.flac" WAVE
TRACK 01 AUDIO
TITLE "Yesterdays"
PERFORMER "Art Tatum"
INDEX 01 00:00:00
TRACK 02 AUDIO
TITLE "Tenderly"
PERFORMER "Art Tatum"
INDEX 00 03:27:17
INDEX 01 03:29:07
TRACK 03 AUDIO
TITLE "Jitterbug Waltz"
PERFORMER "Art Tatum"
INDEX 00 08:34:12
INDEX 01 08:36:17
TRACK 04 AUDIO
TITLE "Love Me Or Leave Me"
PERFORMER "Art Tatum"
INDEX 00 12:23:32
INDEX 01 12:25:35
TRACK 05 AUDIO
TITLE "Deep Purple"
PERFORMER "Art Tatum"
INDEX 00 15:47:50
INDEX 01 15:48:57
TRACK 06 AUDIO
TITLE "Begin The Beguine"
PERFORMER "Art Tatum"
INDEX 00 20:50:15
INDEX 01 20:52:50
TRACK 07 AUDIO
TITLE "Dixieland Band"
PERFORMER "Art Tatum"
INDEX 00 23:50:57
INDEX 01 23:52:57
TRACK 08 AUDIO
TITLE "All The Things You Are"
PERFORMER "Art Tatum"
INDEX 00 26:59:47
INDEX 01 27:01:12
TRACK 09 AUDIO
TITLE "Crazy Rhythm"
PERFORMER "Art Tatum"
INDEX 00 33:02:52
INDEX 01 33:04:47
TRACK 10 AUDIO
TITLE "Prisoner Of Love"
PERFORMER "Art Tatum"
INDEX 00 36:00:20
INDEX 01 36:02:07
TRACK 11 AUDIO
TITLE "After You've Gone"
PERFORMER "Art Tatum"
INDEX 00 40:19:12
INDEX 01 40:21:27
TRACK 12 AUDIO
TITLE "When Your Lover Has Gone"
PERFORMER "Art Tatum"
INDEX 00 44:21:35
INDEX 01 44:23:10
TRACK 13 AUDIO
TITLE "Indiana (Back Home Again In Indiana)"
PERFORMER "Art Tatum"
INDEX 00 48:01:20
INDEX 01 48:03:25
TRACK 14 AUDIO
TITLE "I Surrender, Dear"
PERFORMER "Art Tatum"
INDEX 00 51:06:67
INDEX 01 51:08:57
TRACK 15 AUDIO
TITLE "If You Hadn't Gone Away"
PERFORMER "Art Tatum"
INDEX 00 55:00:20
INDEX 01 55:02:35
TRACK 16 AUDIO
TITLE "I Can't Give You Anything But Love"
PERFORMER "Art Tatum"
INDEX 00 59:07:02
INDEX 01 59:08:47
 
Volume Four
Номер по каталогу: PACD-2405-435-2
Продолжительность: 65:38
Треклист:
01. Aunt Hagar's Blues (4:53)
02. Isn't This A Lovely Day (3:34)
03. Ill Wind (5:21)
04. I've Got The World On A String (3:56)
05. Stardust (5:05)
06. The Man I Love (4:30)
07. What's New (4:34)
08. They Can't Take That Away From Me (4:47)
09. I Only Have Eyes For You (2:51)
10. If You Hadn't Gone Away (3:58)
11. Without A Song (5:48)
12. I Hadn't Anyone Till You (3:35)
13. Mean To Me (2:58)
14. You're Mine You (4:54)
15. I'll See You Again (4:54)
 
Лог создания рипа
EAC extraction logfile from 24. January 2007, 12:48 for CD
Art Tatum / The Art Tatum Solo Masterpieces - Volume 4
Used drive : LITE-ON CD-ROM LTN-527T Adapter: 1 ID: 1
Read mode : Secure with NO C2, accurate stream, disable cache
Read offset correction : 12
Overread into Lead-In and Lead-Out : Yes
Used output format : C:\Program Files\Monkey's Audio\MAC.exe (Monkey's Audio Lossless Encoder)
High Lossless Compression
Other options :
Fill up missing offset samples with silence : Yes
Delete leading and trailing silent blocks : No
Installed external ASPI interface
Range status and errors
Selected range
Filename F:\Downloads\Art Tatum Solo Masterpieces v4 (1953-55 Pablo)[APE Full Scans]\Art Tatum - The Art Tatum Solo Masterpieces - Volume 4.wav.wav
Peak level 99.8 %
Range quality 99.9 %
CRC 5CE68689
Copy OK
No errors occured
End of status report
 
Содержание индексной карты (.CUE)
REM GENRE Jazz
REM DATE 1992
REM DISCID C20F620F
REM COMMENT "ExactAudioCopy v0.95b4"
PERFORMER "Art Tatum"
TITLE "The Art Tatum Solo Masterpieces, Volume Four"
FILE "Art Tatum - The Art Tatum Solo Masterpieces, Vol. 4.flac" WAVE
TRACK 01 AUDIO
TITLE "Aunt Hagar's Blues"
PERFORMER "Art Tatum"
INDEX 01 00:00:00
TRACK 02 AUDIO
TITLE "Isn't This A Lovely Day"
PERFORMER "Art Tatum"
INDEX 00 04:51:70
INDEX 01 04:53:00
TRACK 03 AUDIO
TITLE "Ill Wind"
PERFORMER "Art Tatum"
INDEX 00 08:25:40
INDEX 01 08:27:27
TRACK 04 AUDIO
TITLE "I've Got The World On A String"
PERFORMER "Art Tatum"
INDEX 00 13:46:25
INDEX 01 13:48:25
TRACK 05 AUDIO
TITLE "Stardust"
PERFORMER "Art Tatum"
INDEX 00 17:42:47
INDEX 01 17:44:35
TRACK 06 AUDIO
TITLE "The Man I Love"
PERFORMER "Art Tatum"
INDEX 00 22:48:02
INDEX 01 22:49:22
TRACK 07 AUDIO
TITLE "What's New"
PERFORMER "Art Tatum"
INDEX 00 27:17:27
INDEX 01 27:19:35
TRACK 08 AUDIO
TITLE "They Can't Take That Away From Me"
PERFORMER "Art Tatum"
INDEX 00 31:51:60
INDEX 01 31:53:50
TRACK 09 AUDIO
TITLE "I Only Have Eyes For You"
PERFORMER "Art Tatum"
INDEX 00 36:39:20
INDEX 01 36:41:05
TRACK 10 AUDIO
TITLE "If You Hadn't Gone Away"
PERFORMER "Art Tatum"
INDEX 00 39:30:15
INDEX 01 39:32:10
TRACK 11 AUDIO
TITLE "Without A Song"
PERFORMER "Art Tatum"
INDEX 00 43:28:10
INDEX 01 43:30:10
TRACK 12 AUDIO
TITLE "I Hadn't Anyone Till You"
PERFORMER "Art Tatum"
INDEX 00 49:16:30
INDEX 01 49:18:27
TRACK 13 AUDIO
TITLE "Mean To Me"
PERFORMER "Art Tatum"
INDEX 00 52:51:00
INDEX 01 52:52:67
TRACK 14 AUDIO
TITLE "You're Mine You"
PERFORMER "Art Tatum"
INDEX 00 55:49:17
INDEX 01 55:50:40
TRACK 15 AUDIO
TITLE "I'll See You Again"
PERFORMER "Art Tatum"
INDEX 00 60:42:40
INDEX 01 60:44:45
 
Volume Five
Номер по каталогу: PACD-2405-436-2
Продолжительность: 60:32
Треклист:
01. Makin' Whopee (2:49)
02. Don't Worry 'Bout Me (4:14)
03. That Old Feeling (5:14)
04. Louise (5:00)
05. Fine And Dandy (3:05)
06. Stompin' At The Savoy (3:01)
07. Blue Moon (5:02)
08. I Cover The Waterfront (3:46)
09. Stars Fell On Alabama (5:57)
10. You're Driving Me Crazy (2:42)
11. I Gotta Right To Sing The Blues (3:55)
12. S'posin' (3:24)
13. The Moon Is Low (4:14)
14. Lullaby In Rhythm (3:11)
15. Memories Of You (5:00)
 
Лог создания рипа
EAC extraction logfile from 17. February 2007, 10:03 for CD
Art Tatum / The Art Tatum Solo Masterpieces - Volume Five
Used drive : LITE-ON CD-ROM LTN-527T Adapter: 1 ID: 1
Read mode : Secure with NO C2, accurate stream, disable cache
Read offset correction : 12
Overread into Lead-In and Lead-Out : Yes
Used output format : C:\Program Files\Monkey's Audio\MAC.exe (Monkey's Audio Lossless Encoder)
High Lossless Compression
Other options :
Fill up missing offset samples with silence : Yes
Delete leading and trailing silent blocks : No
Installed external ASPI interface
Range status and errors
Selected range
Filename F:\Downloads\Art Tatum Solo Masterpieces v5 (1953-55 Pablo)[APE Full Scans]\Art Tatum - The Art Tatum Solo Masterpieces - Volume Five.wav.wav
Peak level 98.2 %
Range quality 100.0 %
CRC B181CCB7
Copy OK
No errors occured
End of status report
 
Содержание индексной карты (.CUE)
REM DATE 1992
REM GENRE Jazz
REM DISCID C80E2F0F
REM COMMENT "ExactAudioCopy v0.95b4"
PERFORMER "Art Tatum"
TITLE "The Art Tatum Solo Masterpieces, Volume Five"
FILE "Art Tatum - The Art Tatum Solo Masterpieces, Vol. 5.flac" WAVE
TRACK 01 AUDIO
TITLE "Makin' Whopee"
PERFORMER "Art Tatum"
INDEX 01 00:00:00
TRACK 02 AUDIO
TITLE "Don't Worry 'Bout Me"
PERFORMER "Art Tatum"
INDEX 00 02:46:05
INDEX 01 02:48:47
TRACK 03 AUDIO
TITLE "That Old Feeling"
PERFORMER "Art Tatum"
INDEX 00 07:00:32
INDEX 01 07:03:00
TRACK 04 AUDIO
TITLE "Louise"
PERFORMER "Art Tatum"
INDEX 00 12:14:50
INDEX 01 12:16:47
TRACK 05 AUDIO
TITLE "Fine And Dandy"
PERFORMER "Art Tatum"
INDEX 00 17:14:15
INDEX 01 17:16:30
TRACK 06 AUDIO
TITLE "Stompin' At The Savoy"
PERFORMER "Art Tatum"
INDEX 00 20:18:37
INDEX 01 20:21:07
TRACK 07 AUDIO
TITLE "Blue Moon"
PERFORMER "Art Tatum"
INDEX 00 23:19:50
INDEX 01 23:22:00
TRACK 08 AUDIO
TITLE "I Cover The Waterfront"
PERFORMER "Art Tatum"
INDEX 00 28:21:57
INDEX 01 28:23:57
TRACK 09 AUDIO
TITLE "Stars Fell On Alabama"
PERFORMER "Art Tatum"
INDEX 00 32:08:00
INDEX 01 32:09:70
TRACK 10 AUDIO
TITLE "You're Driving Me Crazy"
PERFORMER "Art Tatum"
INDEX 00 38:05:47
INDEX 01 38:07:25
TRACK 11 AUDIO
TITLE "I Gotta Right To Sing The Blues"
PERFORMER "Art Tatum"
INDEX 00 40:47:22
INDEX 01 40:49:30
TRACK 12 AUDIO
TITLE "S'posin'"
PERFORMER "Art Tatum"
INDEX 00 44:42:25
INDEX 01 44:43:70
TRACK 13 AUDIO
TITLE "The Moon Is Low"
PERFORMER "Art Tatum"
INDEX 00 48:05:37
INDEX 01 48:07:50
TRACK 14 AUDIO
TITLE "Lullaby In Rhythm"
PERFORMER "Art Tatum"
INDEX 00 52:19:45
INDEX 01 52:21:22
TRACK 15 AUDIO
TITLE "Memories Of You"
PERFORMER "Art Tatum"
INDEX 00 55:30:35
INDEX 01 55:32:02
 
Volume Six
Номер по каталогу: PACD-2405-437-2
Продолжительность: 62:09
Треклист:
01. I've Got A Crush On You (3:37)
02. There's A Small Hotel (5:09)
03. Night And Day (3:17)
04. The Way You Look Tonight (6:40)
05. Cherokee (3:41)
06. I'm Comin' Virginia (3:36)
07. Do Nothing Till You Hear From Me (4:56)
08. You're Blase (4:59)
09. Ain't Misbehavin' (2:37)
10. Boulevard Of Broken Dreams (5:21)
11. Someone To Watch Over Me (3:50)
12. Danny Boy (4:12)
13. Happy Feet (2:38)
14. Over The Rainbow (3:44)
15. Just Like A Butterfly That's Caught In The Rain (3:51)
 
Лог создания рипа
EAC extraction logfile from 17. February 2007, 10:17 for CD
Art Tatum / Solo Masterpieces, Vol VI
Used drive : LITE-ON CD-ROM LTN-527T Adapter: 1 ID: 1
Read mode : Secure with NO C2, accurate stream, disable cache
Read offset correction : 12
Overread into Lead-In and Lead-Out : Yes
Used output format : C:\Program Files\Monkey's Audio\MAC.exe (Monkey's Audio Lossless Encoder)
High Lossless Compression
Other options :
Fill up missing offset samples with silence : Yes
Delete leading and trailing silent blocks : No
Installed external ASPI interface
Range status and errors
Selected range
Filename F:\Downloads\Art Tatum Solo Masterpieces v6 (1953-55 Pablo)[APE Full Scans]\Art Tatum - Solo Masterpieces, Vol VI.wav.wav
Peak level 98.3 %
Range quality 100.0 %
CRC B7A99F1F
Copy OK
No errors occured
End of status report
 
Содержание индексной карты (.CUE)
REM DATE 1992
REM GENRE Jazz
REM DISCID CA0E910F
REM COMMENT "ExactAudioCopy v0.95b4"
PERFORMER "Art Tatum"
TITLE "The Art Tatum Solo Masterpieces, Volume Six"
FILE "Art Tatum - The Art Tatum Solo Masterpieces, Vol. 6.flac" WAVE
TRACK 01 AUDIO
TITLE "I've Got A Crush On You"
PERFORMER "Art Tatum"
INDEX 01 00:00:00
TRACK 02 AUDIO
TITLE "There's A Small Hotel"
PERFORMER "Art Tatum"
INDEX 00 03:35:02
INDEX 01 03:37:17
TRACK 03 AUDIO
TITLE "Night And Day"
PERFORMER "Art Tatum"
INDEX 00 08:44:70
INDEX 01 08:46:50
TRACK 04 AUDIO
TITLE "The Way You Look Tonight"
PERFORMER "Art Tatum"
INDEX 00 12:01:05
INDEX 01 12:03:32
TRACK 05 AUDIO
TITLE "Cherokee"
PERFORMER "Art Tatum"
INDEX 00 18:41:15
INDEX 01 18:43:05
TRACK 06 AUDIO
TITLE "I'm Comin' Virginia"
PERFORMER "Art Tatum"
INDEX 00 22:21:40
INDEX 01 22:23:72
TRACK 07 AUDIO
TITLE "Do Nothing Till You Hear From Me"
PERFORMER "Art Tatum"
INDEX 00 25:58:15
INDEX 01 26:00:05
TRACK 08 AUDIO
TITLE "You're Blase"
PERFORMER "Art Tatum"
INDEX 00 30:54:30
INDEX 01 30:56:35
TRACK 09 AUDIO
TITLE "Ain't Misbehavin'"
PERFORMER "Art Tatum"
INDEX 00 35:53:20
INDEX 01 35:55:32
TRACK 10 AUDIO
TITLE "Boulevard Of Broken Dreams"
PERFORMER "Art Tatum"
INDEX 00 38:30:40
INDEX 01 38:32:42
TRACK 11 AUDIO
TITLE "Someone To Watch Over Me"
PERFORMER "Art Tatum"
INDEX 00 43:52:22
INDEX 01 43:54:02
TRACK 12 AUDIO
TITLE "Danny Boy"
PERFORMER "Art Tatum"
INDEX 00 47:41:12
INDEX 01 47:43:50
TRACK 13 AUDIO
TITLE "Happy Feet"
PERFORMER "Art Tatum"
INDEX 00 51:53:57
INDEX 01 51:55:65
TRACK 14 AUDIO
TITLE "Over The Rainbow"
PERFORMER "Art Tatum"
INDEX 00 54:31:67
INDEX 01 54:34:02
TRACK 15 AUDIO
TITLE "Just Like A Butterfly That's Caught In The Rain"
PERFORMER "Art Tatum"
INDEX 00 58:15:65
INDEX 01 58:18:05
 
Volume Seven
Номер по каталогу: PACD-2405-438-2
Продолжительность: 64:44
Треклист:
01. Mighty Like A Rose (6:09)
02. What Does It Take (2:54)
03. Taboo (2:52)
04. Humoresque (3:57)
05. Smoke Gets In Your Eyes (3:58)
06. Moon Song (4:41)
07. Dancing In The Dark (4:31)
08. Japanese Sandman (3:06)
09. So Beats My Heart For You (5:19)
10. Judy (3:48)
11. Out Of Nowhere (3:47)
12. Somebody Loves Me (3:51)
13. Wrap Your Troubles In Dreams (3:44)
14. Moonlight On The Ganges (2:17)
15. Where Or When (5:17)
16. Isn't It Romantic (4:34)
 
Лог создания рипа
EAC extraction logfile from 17. February 2007, 10:30 for CD
Art-Tatum / Art_Tatum_Solo_Masterpieces_Vol.7
Used drive : LITE-ON CD-ROM LTN-527T Adapter: 1 ID: 1
Read mode : Secure with NO C2, accurate stream, disable cache
Read offset correction : 12
Overread into Lead-In and Lead-Out : Yes
Used output format : C:\Program Files\Monkey's Audio\MAC.exe (Monkey's Audio Lossless Encoder)
High Lossless Compression
Other options :
Fill up missing offset samples with silence : Yes
Delete leading and trailing silent blocks : No
Installed external ASPI interface
Range status and errors
Selected range
Filename F:\Downloads\Art Tatum Solo Masterpieces v7 (1953-55 Pablo)[APE Full Scans]\Art-Tatum - Art_Tatum_Solo_Masterpieces_Vol.7.wav.wav
Peak level 98.7 %
Range quality 100.0 %
CRC 87844BAB
Copy OK
No errors occured
End of status report
 
Содержание индексной карты (.CUE)
REM DATE 1992
REM GENRE Jazz
REM DISCID EA0F2C10
REM COMMENT "ExactAudioCopy v0.95b4"
PERFORMER "Art Tatum"
TITLE "The Art Tatum Solo Masterpieces, Volume Seven"
FILE "Art Tatum - The Art Tatum Solo Masterpieces, Vol. 7.flac" WAVE
TRACK 01 AUDIO
TITLE "Mighty Like A Rose"
PERFORMER "Art Tatum"
INDEX 01 00:00:00
TRACK 02 AUDIO
TITLE "What Does It Take"
PERFORMER "Art Tatum"
INDEX 00 06:07:17
INDEX 01 06:09:17
TRACK 03 AUDIO
TITLE "Taboo"
PERFORMER "Art Tatum"
INDEX 00 09:01:22
INDEX 01 09:03:15
TRACK 04 AUDIO
TITLE "Humoresque"
PERFORMER "Art Tatum"
INDEX 00 11:52:65
INDEX 01 11:55:25
TRACK 05 AUDIO
TITLE "Smoke Gets In Your Eyes"
PERFORMER "Art Tatum"
INDEX 00 15:51:00
INDEX 01 15:52:55
TRACK 06 AUDIO
TITLE "Moon Song"
PERFORMER "Art Tatum"
INDEX 00 19:47:62
INDEX 01 19:50:52
TRACK 07 AUDIO
TITLE "Dancing In The Dark"
PERFORMER "Art Tatum"
INDEX 00 24:29:45
INDEX 01 24:31:25
TRACK 08 AUDIO
TITLE "Japanese Sandman"
PERFORMER "Art Tatum"
INDEX 00 28:59:40
INDEX 01 29:02:27
TRACK 09 AUDIO
TITLE "So Beats My Heart For You"
PERFORMER "Art Tatum"
INDEX 00 32:06:10
INDEX 01 32:08:37
TRACK 10 AUDIO
TITLE "Judy"
PERFORMER "Art Tatum"
INDEX 00 37:25:47
INDEX 01 37:27:47
TRACK 11 AUDIO
TITLE "Out Of Nowhere"
PERFORMER "Art Tatum"
INDEX 00 41:13:05
INDEX 01 41:15:20
TRACK 12 AUDIO
TITLE "Somebody Loves Me"
PERFORMER "Art Tatum"
INDEX 00 44:59:70
INDEX 01 45:02:17
TRACK 13 AUDIO
TITLE "Wrap Your Troubles In Dreams"
PERFORMER "Art Tatum"
INDEX 00 48:50:42
INDEX 01 48:53:10
TRACK 14 AUDIO
TITLE "Moonlight On The Ganges"
PERFORMER "Art Tatum"
INDEX 00 52:34:17
INDEX 01 52:36:50
TRACK 15 AUDIO
TITLE "Where Or When"
PERFORMER "Art Tatum"
INDEX 00 54:50:70
INDEX 01 54:53:35
TRACK 16 AUDIO
TITLE "Isn't It Romantic"
PERFORMER "Art Tatum"
INDEX 00 60:08:10
INDEX 01 60:10:40
 
Volume Eight
Номер по каталогу: PACD-2405-439-2
Продолжительность: 66:35
Треклист:
01. In A Sentimental Mood (6:04)
02. Blue Skies (3:00)
03. These Foolish Things (Remind Me Of You) (4:45)
04. She's Funny That Way (3:53)
05. Sweet Lorraine (4:23)
06. On The Sunny Side Of The Street (3:07)
07. I Won't Dance (3:00)
08. You Go To My Head (4:56)
09. It's The Talk Of The Town (3:43)
10. Can't We Be Friends (3:47)
11. If I Had You (4:13)
12. When A Woman Loves A Man (5:34)
13. Caravan (2:39)
14. Someone To Watch Over Me (3:12)
15. Begin The Beguine (3:03)
16. Willow Weep For Me (3:47)
17. Humoresque (3:29)
 
Лог создания рипа
EAC extraction logfile from 17. February 2007, 10:44 for CD
Art Tatum / The Art Tatum Solo Masterpieces (vol. 8)
Used drive : LITE-ON CD-ROM LTN-527T Adapter: 1 ID: 1
Read mode : Secure with NO C2, accurate stream, disable cache
Read offset correction : 12
Overread into Lead-In and Lead-Out : Yes
Used output format : C:\Program Files\Monkey's Audio\MAC.exe (Monkey's Audio Lossless Encoder)
High Lossless Compression
Other options :
Fill up missing offset samples with silence : Yes
Delete leading and trailing silent blocks : No
Installed external ASPI interface
Range status and errors
Selected range
Filename F:\Downloads\Art Tatum Solo Masterpieces v8 (1953-55 Pablo)[APE Full Scans]\Art Tatum - The Art Tatum Solo Masterpieces (vol. 8).wav.wav
Peak level 99.7 %
Range quality 99.9 %
CRC E6846D9D
Copy OK
No errors occured
End of status report
 
Содержание индексной карты (.CUE)
REM DATE 1992
REM GENRE Jazz
REM DISCID FC0F9B11
REM COMMENT "ExactAudioCopy v0.95b4"
PERFORMER "Art Tatum"
TITLE "The Art Tatum Solo Masterpieces, Volume Eight"
FILE "Art Tatum - The Art Tatum Solo Masterpieces, Vol. 8.flac" WAVE
TRACK 01 AUDIO
TITLE "In A Sentimental Mood"
PERFORMER "Art Tatum"
INDEX 01 00:00:00
TRACK 02 AUDIO
TITLE "Blue Skies"
PERFORMER "Art Tatum"
INDEX 00 06:01:30
INDEX 01 06:03:60
TRACK 03 AUDIO
TITLE "These Foolish Things (Remind Me Of You)"
PERFORMER "Art Tatum"
INDEX 00 09:01:42
INDEX 01 09:03:62
TRACK 04 AUDIO
TITLE "She's Funny That Way"
PERFORMER "Art Tatum"
INDEX 00 13:47:20
INDEX 01 13:48:72
TRACK 05 AUDIO
TITLE "Sweet Lorraine"
PERFORMER "Art Tatum"
INDEX 00 17:39:70
INDEX 01 17:42:17
TRACK 06 AUDIO
TITLE "On The Sunny Side Of The Street"
PERFORMER "Art Tatum"
INDEX 00 22:03:05
INDEX 01 22:05:20
TRACK 07 AUDIO
TITLE "I Won't Dance"
PERFORMER "Art Tatum"
INDEX 00 25:10:57
INDEX 01 25:12:37
TRACK 08 AUDIO
TITLE "You Go To My Head"
PERFORMER "Art Tatum"
INDEX 00 28:09:65
INDEX 01 28:12:12
TRACK 09 AUDIO
TITLE "It's The Talk Of The Town"
PERFORMER "Art Tatum"
INDEX 00 33:05:60
INDEX 01 33:07:52
TRACK 10 AUDIO
TITLE "Can't We Be Friends"
PERFORMER "Art Tatum"
INDEX 00 36:48:67
INDEX 01 36:50:65
TRACK 11 AUDIO
TITLE "If I Had You"
PERFORMER "Art Tatum"
INDEX 00 40:36:55
INDEX 01 40:38:15
TRACK 12 AUDIO
TITLE "When A Woman Loves A Man"
PERFORMER "Art Tatum"
INDEX 00 44:49:00
INDEX 01 44:51:12
TRACK 13 AUDIO
TITLE "Caravan"
PERFORMER "Art Tatum"
INDEX 00 50:23:35
INDEX 01 50:25:30
TRACK 14 AUDIO
TITLE "Someone To Watch Over Me"
PERFORMER "Art Tatum"
INDEX 00 53:03:10
INDEX 01 53:04:45
TRACK 15 AUDIO
TITLE "Begin The Beguine"
PERFORMER "Art Tatum"
INDEX 01 56:16:72
TRACK 16 AUDIO
TITLE "Willow Weep For Me"
PERFORMER "Art Tatum"
INDEX 01 59:19:65
TRACK 17 AUDIO
TITLE "Humoresque"
PERFORMER "Art Tatum"
INDEX 01 63:06:52
01:10
654
Нет комментариев. Ваш будет первым!