Поиск

(Swing) Art Tatum - The Art of Tatum (1938-1939) - 1988, FLAC (image+.cue), lossless

(Swing) Art Tatum - The Art of Tatum (1938-1939) - 1988, FLAC (image+.cue), lossless
Треклист:
Art Tatum - The Art of Tatum
Жанр: Swing
Страна-производитель диска: Нидерланды
Год издания: 1988
Издатель (лейбл): Jazz Life
Номер по каталогу: CD 2673752
Страна: США
Аудиокодек: FLAC (*.flac)
Тип рипа: image+.cue
Битрейт аудио: lossless
Продолжительность: 38:00
Источник (релизер): Mazeppa (hqshare)
Наличие сканов в содержимом раздачи: да
Треклист:
01. Fine and Dandy
02. I've Got the World on a String
03. I've Got a Right to Sing the Blues
04. I'm Coming Virginia
05. Day In - Day Out
06. Make Believe
07. Sweet Emmalina
08. Indiana
09. Sweet Lorraine
10. I'll Get By (As Long as I Have You)
11. I'll Never Be the Same
12. Judy
13. Elegy
14. Body and Soul
15. Can't We Be Friends
16. All God's Chillun Got Rhythm
Art Tatum - solo piano
Recorded in Los Angeles in 1938-1939.
 
Лог создания рипа
EAC extraction logfile from 4. May 2007, 16:18 for CD
Art Tatum / The Art of Tatum
Used drive : LITE-ON CD-ROM LTN-527T Adapter: 1 ID: 1
Read mode : Secure with NO C2, accurate stream, disable cache
Read offset correction : 12
Overread into Lead-In and Lead-Out : Yes
Used output format : C:\Program Files\Monkey's Audio\MAC.exe (Monkey's Audio Lossless Encoder)
High Lossless Compression
Other options :
Fill up missing offset samples with silence : Yes
Delete leading and trailing silent blocks : No
Installed external ASPI interface
Range status and errors
Selected range
Filename F:\Win-Rar\Art Tatum - The Art of Tatum (1938-39 Jazz Life)[APE Full Scans]\Art Tatum - The Art of Tatum.wav.wav
Peak level 94.2 %
Range quality 99.9 %
CRC 389A73E9
Copy OK
No errors occured
End of status report
 
Содержание индексной карты (.CUE)
REM DISCID D208E810
REM COMMENT "ExactAudioCopy v0.95b4"
PERFORMER "Art Tatum"
TITLE "The Art of Tatum"
FILE "Art Tatum - The Art of Tatum.wav" WAVE
TRACK 01 AUDIO
TITLE "Fine and Dandy"
PERFORMER "Art Tatum"
INDEX 01 00:00:00
TRACK 02 AUDIO
TITLE "I've Got the World on a String"
PERFORMER "Art Tatum"
INDEX 01 01:48:50
TRACK 03 AUDIO
TITLE "I've Got a Right to Sing the Blues"
PERFORMER "Art Tatum"
INDEX 01 04:15:30
TRACK 04 AUDIO
TITLE "I'm Coming Virginia"
PERFORMER "Art Tatum"
INDEX 01 06:26:60
TRACK 05 AUDIO
TITLE "Day In - Day Out"
PERFORMER "Art Tatum"
INDEX 01 09:03:00
TRACK 06 AUDIO
TITLE "Make Believe"
PERFORMER "Art Tatum"
INDEX 01 12:30:10
TRACK 07 AUDIO
TITLE "Sweet Emmalina"
PERFORMER "Art Tatum"
INDEX 00 14:40:00
INDEX 01 14:40:55
TRACK 08 AUDIO
TITLE "Indiana"
PERFORMER "Art Tatum"
INDEX 01 16:44:42
TRACK 09 AUDIO
TITLE "Sweet Lorraine"
PERFORMER "Art Tatum"
INDEX 01 18:52:32
TRACK 10 AUDIO
TITLE "I'll Get By (As Long as I Have You)"
PERFORMER "Art Tatum"
INDEX 01 21:26:62
TRACK 11 AUDIO
TITLE "I'll Never Be the Same"
PERFORMER "Art Tatum"
INDEX 01 23:53:27
TRACK 12 AUDIO
TITLE "Judy"
PERFORMER "Art Tatum"
INDEX 01 26:26:40
TRACK 13 AUDIO
TITLE "Elegy"
PERFORMER "Art Tatum"
INDEX 01 28:45:02
TRACK 14 AUDIO
TITLE "Body and Soul"
PERFORMER "Art Tatum"
INDEX 00 31:09:60
INDEX 01 31:10:55
TRACK 15 AUDIO
TITLE "Can't We Be Friends"
PERFORMER "Art Tatum"
INDEX 01 33:39:72
TRACK 16 AUDIO
TITLE "All God's Chillun Got Rhythm"
PERFORMER "Art Tatum"
INDEX 00 35:56:60
INDEX 01 35:57:52
 
Отчет CUETools
[CUETools log; Date: 27.10.2012 16:14:22; Version: 2.1.4]
[CTDB TOCID: GwfakN6zqelIysgyGJK9mcp8IgQ-] found.
Track | CTDB Status
1 | (3/3) Accurately ripped
2 | (3/3) Accurately ripped
3 | (3/3) Accurately ripped
4 | (3/3) Accurately ripped
5 | (3/3) Accurately ripped
6 | (3/3) Accurately ripped
7 | (3/3) Accurately ripped
8 | (3/3) Accurately ripped
9 | (3/3) Accurately ripped
10 | (3/3) Accurately ripped
11 | (3/3) Accurately ripped
12 | (3/3) Accurately ripped
13 | (3/3) Accurately ripped
14 | (3/3) Accurately ripped
15 | (3/3) Accurately ripped
16 | (3/3) Accurately ripped
[AccurateRip ID: 00163a2e-010bd13f-d208e810] found.
Track [ CRC | V2 ] Status
01 [a94b3b50|53db5604] (3+0/3) Accurately ripped
02 [ad3c016c|8fc4eaa7] (4+0/4) Accurately ripped
03 [129e1828|f947a37a] (4+0/4) Accurately ripped
04 [decadf4c|9d6baf93] (4+0/4) Accurately ripped
05 [23cd6ddc|41e88506] (3+0/3) Accurately ripped
06 [59b618c5|5a0b41e2] (4+0/4) Accurately ripped
07 [5df809cb|d3872b70] (4+0/4) Accurately ripped
08 [42f9bb07|5c439738] (4+0/4) Accurately ripped
09 [0e69fbe2|654bea17] (4+0/4) Accurately ripped
10 [9c6de1fe|4d5a000d] (4+0/4) Accurately ripped
11 [c45d7a14|4569e638] (4+0/4) Accurately ripped
12 [88b86870|596851a8] (4+0/4) Accurately ripped
13 [aa07a848|b949a976] (4+0/4) Accurately ripped
14 [b8a8e6c7|6ea1a5e1] (4+0/4) Accurately ripped
15 [8af8e2e2|ca165b79] (4+0/4) Accurately ripped
16 [22efa8f5|26f5d01c] (4+0/4) Accurately ripped
Track Peak [ CRC32 ] [W/O NULL] [ LOG ]
-- 94,2 [389A73E9] [5E3C8C33] CRC32
01 61,3 [163718A8] [F3C4AA70]
02 59,5 [64C48B18] [1DCA2CE4]
03 72,6 [6136B458] [53B4C8D4]
04 71,3 [30589EC6] [2EF2D044]
05 64,0 [94C4646F] [B5003174]
06 87,1 [7BFFC0C9] [AF931EE3]
07 80,9 [78FF8DD5] [2EE0A8F0]
08 94,2 [8995CEBF] [089172EA]
09 85,4 [F0F7A604] [E53935F7]
10 84,7 [25E14CAA] [444B6011]
11 77,0 [C89D1C62] [0BD4B77B]
12 70,9 [6BA5CA40] [86BCEE0A]
13 67,7 [50B8736D] [DEBD6EA8]
14 76,8 [7D8F4F8F] [10A4BF2D]
15 68,3 [2050B234] [ED24F055]
16 81,9 [BFB25B5F] [B3B506CE]
Взамен ушедшей в архив.
06:00
447
Нет комментариев. Ваш будет первым!