Поиск

(Swing, Big Band) Gene Krupa - Not So Quiet - 1997, FLAC (tracks+.cue) lossless

Треклист:
Gene Krupa / Not So Quiet
Жанр: Swing, Big Band
Год издания диска: 1997
Аудио кодек: FLAC (*.flac)
Тип рипа: tracks+.cue
Битрейт аудио: lossless
Продолжительность: 72:34
Источник (релизер): alekow
Наличие сканов в содержимом раздачи: да
Треклист:
01 - Chicago Rhythm Kings - Baby Won't You Please Come Home (Vocals- Eddie Condon)
02 - Miff Mole's Little Molers - Shim-Me-Sha-Wabble
03 - Benny Goodman And His Orchestra - Ain't-Cha Glad? (Vocals- Jack Teagarden)
04 - Benny Goodman And His Orchestra - Sometimes I'm Happy
05 - Gene Krupa And His Chicagoans - The Last Round-Up
06 - Gene Krupa's Swing Band - I Hope Gabriel Likes My Music
07 - Benny Goodman Trio - China Boy
08 - Benny Goodman And His Orchestra - Bugle Call Rag
09 - Benny Goodman And His Orchestra - Sing, Sing, Sing (Live)
10 - Gene Krupa And His Orchestra - Drummin' Man (Vocals- Irene Daye)
11 - Gene Krupa And His Orchestra - Blue Rhythm Fantasy
12 - Gene Krupa And His Orchestra - Drum Boogie (Live) (Vocals- Anita O'Day)
13 - Gene Krupa And His Orchestra - Ball Of Fire
14 - Metronome All-Stars - Dear Old Southland
15 - Gene Krupa And His Orchestra - That Drummer's Band
16 - Benny Goodman Trio - Limehouse Blues
17 - Tommy Dorsey And His Orchestra - Not So Quiet, Please
18 - Gene Krupa And His Orchestra - What's This?
19 - Gene Krupa Trio - Dark Eyes
20 - Gene Krupa And His Orchestra - How High The Moon
Released in Italy by the Italian music magazine 'Musica Jazz'.
 
Лог создания рипа
Exact Audio Copy V0.99 prebeta 5 from 4. May 2009
EAC extraction logfile from 3. December 2010, 23:06
Various / Gene Krupa - Not So Quiet
Used drive : HL-DT-STDVD-RAM GH22NP20 Adapter: 1 ID: 1
Read mode : Secure
Utilize accurate stream : Yes
Defeat audio cache : Yes
Make use of C2 pointers : No
Read offset correction : 102
Overread into Lead-In and Lead-Out : No
Fill up missing offset samples with silence : Yes
Delete leading and trailing silent blocks : No
Null samples used in CRC calculations : Yes
Used interface : Installed external ASPI interface
Gap handling : Appended to previous track
Used output format : User Defined Encoder
Selected bitrate : 1024 kBit/s
Quality : High
Add ID3 tag : No
Command line compressor : C:\Program Files\Exact Audio Copy\FLAC\FLAC.EXE
Additional command line options : -5 -V -T "ARTIST=%a" -T "TITLE=%t" -T "ALBUM=%g" -T "DATE=%y" -T "TRACKNUMBER=%n" -T "GENRE=%m" -T "COMMENT=%e" %s -o %d
TOC of the extracted CD
Track | Start | Length | Start sector | End sector
---------------------------------------------------------
1 | 0:00.00 | 2:41.50 | 0 | 12124
2 | 2:41.50 | 3:03.42 | 12125 | 25891
3 | 5:45.17 | 3:19.20 | 25892 | 40836
4 | 9:04.37 | 3:41.03 | 40837 | 57414
5 | 12:45.40 | 2:46.10 | 57415 | 69874
6 | 15:31.50 | 3:06.25 | 69875 | 83849
7 | 18:38.00 | 2:31.60 | 83850 | 95234
8 | 21:09.60 | 3:01.05 | 95235 | 108814
9 | 24:10.65 | 12:15.10 | 108815 | 163949
10 | 36:26.00 | 3:01.62 | 163950 | 177586
11 | 39:27.62 | 5:54.55 | 177587 | 204191
12 | 45:22.42 | 3:18.40 | 204192 | 219081
13 | 48:41.07 | 3:05.08 | 219082 | 232964
14 | 51:46.15 | 3:22.47 | 232965 | 248161
15 | 55:08.62 | 3:06.70 | 248162 | 262181
16 | 58:15.57 | 2:30.65 | 262182 | 273496
17 | 60:46.47 | 2:09.35 | 273497 | 283206
18 | 62:56.07 | 2:47.53 | 283207 | 295784
19 | 65:43.60 | 3:28.17 | 295785 | 311401
20 | 69:12.02 | 3:20.30 | 311402 | 326431
Track 1
Filename C:\New Folder\01. Chicago Rhythm Kings - Baby Won't You Please Come Home (Vocals- Eddie Condon).wav
Pre-gap length 0:00:02.00
Peak level 100.0 %
Track quality 100.0 %
Test CRC EA61E34D
Copy CRC EA61E34D
Accurately ripped (confidence 2) [4AFF4739]
Copy OK
Track 2
Filename C:\New Folder\02. Miff Mole's Little Molers - Shim-Me-Sha-Wabble.wav
Pre-gap length 0:00:03.57
Peak level 100.0 %
Track quality 100.0 %
Test CRC 8B56D2E7
Copy CRC 8B56D2E7
Accurately ripped (confidence 2) [EF63A477]
Copy OK
Track 3
Filename C:\New Folder\03. Benny Goodman And His Orchestra - Ain't-Cha Glad.wav
Pre-gap length 0:00:03.56
Peak level 79.3 %
Track quality 100.0 %
Test CRC 3F20AC6E
Copy CRC 3F20AC6E
Accurately ripped (confidence 2) [32EC42D3]
Copy OK
Track 4
Filename C:\New Folder\04. Benny Goodman And His Orchestra - Sometimes I'm Happy.wav
Pre-gap length 0:00:03.53
Peak level 99.9 %
Track quality 100.0 %
Test CRC 5816D811
Copy CRC 5816D811
Accurately ripped (confidence 2) [F19ABF6A]
Copy OK
Track 5
Filename C:\New Folder\05. Gene Krupa And His Chicagoans - The Last Round-Up.wav
Pre-gap length 0:00:02.53
Peak level 100.0 %
Track quality 100.0 %
Test CRC 7106AA65
Copy CRC 7106AA65
Accurately ripped (confidence 2) [3CFE0EA7]
Copy OK
Track 6
Filename C:\New Folder\06. Gene Krupa's Swing Band - I Hope Gabriel Likes My Music.wav
Pre-gap length 0:00:03.53
Peak level 99.9 %
Track quality 100.0 %
Test CRC 901872C6
Copy CRC 901872C6
Accurately ripped (confidence 2) [0FD10A61]
Copy OK
Track 7
Filename C:\New Folder\07. Benny Goodman Trio - China Boy.wav
Pre-gap length 0:00:03.53
Peak level 100.0 %
Track quality 100.0 %
Test CRC 1DFC4AC7
Copy CRC 1DFC4AC7
Accurately ripped (confidence 2) [E1513D64]
Copy OK
Track 8
Filename C:\New Folder\08. Benny Goodman And His Orchestra - Bugle Call Rag.wav
Pre-gap length 0:00:03.53
Peak level 99.9 %
Track quality 100.0 %
Test CRC 1D47DA5A
Copy CRC 1D47DA5A
Accurately ripped (confidence 2) [153D6654]
Copy OK
Track 9
Filename C:\New Folder\09. Benny Goodman And His Orchestra - Sing, Sing, Sing (Live).wav
Pre-gap length 0:00:03.53
Peak level 100.0 %
Track quality 100.0 %
Test CRC 1E57D2A6
Copy CRC 1E57D2A6
Accurately ripped (confidence 2) [66CDDAAE]
Copy OK
Track 10
Filename C:\New Folder\10. Gene Krupa And His Orchestra - Drummin' Man (Vocals- Irene Daye).wav
Pre-gap length 0:00:03.54
Peak level 99.9 %
Track quality 100.0 %
Test CRC 4EEF1708
Copy CRC 4EEF1708
Accurately ripped (confidence 2) [D0AC8161]
Copy OK
Track 11
Filename C:\New Folder\11. Gene Krupa And His Orchestra - Blue Rhythm Fantasy.wav
Pre-gap length 0:00:03.56
Peak level 99.9 %
Track quality 100.0 %
Test CRC 1FC75F98
Copy CRC 1FC75F98
Accurately ripped (confidence 2) [6024447E]
Copy OK
Track 12
Filename C:\New Folder\12. Gene Krupa And His Orchestra - Drum Boogie (Live) (Vocals- Anita O'Day).wav
Pre-gap length 0:00:03.56
Peak level 99.9 %
Track quality 100.0 %
Test CRC 4A499486
Copy CRC 4A499486
Accurately ripped (confidence 2) [C4F91CFA]
Copy OK
Track 13
Filename C:\New Folder\13. Gene Krupa And His Orchestra - Ball Of Fire.wav
Pre-gap length 0:00:03.56
Peak level 99.9 %
Track quality 100.0 %
Test CRC 459C2D55
Copy CRC 459C2D55
Accurately ripped (confidence 2) [75217C0E]
Copy OK
Track 14
Filename C:\New Folder\14. Metronome All-Stars - Dear Old Southland.wav
Pre-gap length 0:00:03.57
Peak level 99.9 %
Track quality 100.0 %
Test CRC 7BA876C6
Copy CRC 7BA876C6
Accurately ripped (confidence 2) [1A6A4981]
Copy OK
Track 15
Filename C:\New Folder\15. Gene Krupa And His Orchestra - That Drummer's Band.wav
Pre-gap length 0:00:03.56
Peak level 99.9 %
Track quality 99.9 %
Test CRC 10A59FBC
Copy CRC 10A59FBC
Accurately ripped (confidence 2) [88346313]
Copy OK
Track 16
Filename C:\New Folder\16. Benny Goodman Trio - Limehouse Blues.wav
Pre-gap length 0:00:03.56
Peak level 89.0 %
Track quality 100.0 %
Test CRC 014F2E0B
Copy CRC 014F2E0B
Accurately ripped (confidence 2) [2DC819C9]
Copy OK
Track 17
Filename C:\New Folder\17. Tommy Dorsey And His Orchestra - Not So Quiet, Please.wav
Pre-gap length 0:00:03.56
Peak level 99.9 %
Track quality 100.0 %
Test CRC 36045EF6
Copy CRC 36045EF6
Accurately ripped (confidence 2) [8F8B0FA8]
Copy OK
Track 18
Filename C:\New Folder\18. Gene Krupa And His Orchestra - What's This .wav
Pre-gap length 0:00:03.56
Peak level 100.0 %
Track quality 99.9 %
Test CRC F81350C3
Copy CRC F81350C3
Accurately ripped (confidence 2) [B924A8D0]
Copy OK
Track 19
Filename C:\New Folder\19. Gene Krupa Trio - Dark Eyes.wav
Pre-gap length 0:00:03.57
Peak level 99.9 %
Track quality 99.9 %
Test CRC 2680E002
Copy CRC 2680E002
Accurately ripped (confidence 2) [26A7DC25]
Copy OK
Track 20
Filename C:\New Folder\20. Gene Krupa And His Orchestra - How High The Moon.wav
Pre-gap length 0:00:03.56
Peak level 100.0 %
Track quality 100.0 %
Test CRC 9FA1248C
Copy CRC 9FA1248C
Accurately ripped (confidence 2) [EE4B2DF1]
Copy OK
All tracks accurately ripped
No errors occurred
End of status report
 
Содержание индексной карты (.CUE)
REM GENRE Jazz
REM DATE 1997
REM DISCID 29110014
REM COMMENT "ExactAudioCopy v0.99pb5"
PERFORMER "Various"
TITLE "Gene Krupa - Not So Quiet"
FILE "01. Chicago Rhythm Kings - Baby Won't You Please Come Home (Vocals- Eddie Condon).wav" WAVE
TRACK 01 AUDIO
TITLE "Baby Won't You Please Come Home (Vocals- Eddie Condon)"
PERFORMER "Chicago Rhythm Kings"
INDEX 01 00:00:00
TRACK 02 AUDIO
TITLE "Shim-Me-Sha-Wabble"
PERFORMER "Miff Mole's Little Molers"
INDEX 00 02:38:07
FILE "02. Miff Mole's Little Molers - Shim-Me-Sha-Wabble.wav" WAVE
INDEX 01 00:00:00
TRACK 03 AUDIO
TITLE "Ain't-Cha Glad"
PERFORMER "Benny Goodman And His Orchestra"
INDEX 00 03:00:00
FILE "03. Benny Goodman And His Orchestra - Ain't-Cha Glad.wav" WAVE
INDEX 01 00:00:00
TRACK 04 AUDIO
TITLE "Sometimes I'm Happy"
PERFORMER "Benny Goodman And His Orchestra"
INDEX 00 03:15:55
FILE "04. Benny Goodman And His Orchestra - Sometimes I'm Happy.wav" WAVE
INDEX 01 00:00:00
TRACK 05 AUDIO
TITLE "The Last Round-Up"
PERFORMER "Gene Krupa And His Chicagoans"
INDEX 00 03:38:38
FILE "05. Gene Krupa And His Chicagoans - The Last Round-Up.wav" WAVE
INDEX 01 00:00:00
TRACK 06 AUDIO
TITLE "I Hope Gabriel Likes My Music"
PERFORMER "Gene Krupa's Swing Band"
INDEX 00 02:42:45
FILE "06. Gene Krupa's Swing Band - I Hope Gabriel Likes My Music.wav" WAVE
INDEX 01 00:00:00
TRACK 07 AUDIO
TITLE "China Boy"
PERFORMER "Benny Goodman Trio"
INDEX 00 03:02:60
FILE "07. Benny Goodman Trio - China Boy.wav" WAVE
INDEX 01 00:00:00
TRACK 08 AUDIO
TITLE "Bugle Call Rag"
PERFORMER "Benny Goodman And His Orchestra"
INDEX 00 02:28:20
FILE "08. Benny Goodman And His Orchestra - Bugle Call Rag.wav" WAVE
INDEX 01 00:00:00
TRACK 09 AUDIO
TITLE "Sing, Sing, Sing (Live)"
PERFORMER "Benny Goodman And His Orchestra"
INDEX 00 02:57:40
FILE "09. Benny Goodman And His Orchestra - Sing, Sing, Sing (Live).wav" WAVE
INDEX 01 00:00:00
TRACK 10 AUDIO
TITLE "Drummin' Man (Vocals- Irene Daye)"
PERFORMER "Gene Krupa And His Orchestra"
INDEX 00 12:11:44
FILE "10. Gene Krupa And His Orchestra - Drummin' Man (Vocals- Irene Daye).wav" WAVE
INDEX 01 00:00:00
TRACK 11 AUDIO
TITLE "Blue Rhythm Fantasy"
PERFORMER "Gene Krupa And His Orchestra"
INDEX 00 02:58:20
FILE "11. Gene Krupa And His Orchestra - Blue Rhythm Fantasy.wav" WAVE
INDEX 01 00:00:00
TRACK 12 AUDIO
TITLE "Drum Boogie (Live) (Vocals- Anita O'Day)"
PERFORMER "Gene Krupa And His Orchestra"
INDEX 00 05:51:13
FILE "12. Gene Krupa And His Orchestra - Drum Boogie (Live) (Vocals- Anita O'Day).wav" WAVE
INDEX 01 00:00:00
TRACK 13 AUDIO
TITLE "Ball Of Fire"
PERFORMER "Gene Krupa And His Orchestra"
INDEX 00 03:14:73
FILE "13. Gene Krupa And His Orchestra - Ball Of Fire.wav" WAVE
INDEX 01 00:00:00
TRACK 14 AUDIO
TITLE "Dear Old Southland"
PERFORMER "Metronome All-Stars"
INDEX 00 03:01:40
FILE "14. Metronome All-Stars - Dear Old Southland.wav" WAVE
INDEX 01 00:00:00
TRACK 15 AUDIO
TITLE "That Drummer's Band"
PERFORMER "Gene Krupa And His Orchestra"
INDEX 00 03:19:05
FILE "15. Gene Krupa And His Orchestra - That Drummer's Band.wav" WAVE
INDEX 01 00:00:00
TRACK 16 AUDIO
TITLE "Limehouse Blues"
PERFORMER "Benny Goodman Trio"
INDEX 00 03:03:28
FILE "16. Benny Goodman Trio - Limehouse Blues.wav" WAVE
INDEX 01 00:00:00
TRACK 17 AUDIO
TITLE "Not So Quiet, Please"
PERFORMER "Tommy Dorsey And His Orchestra"
INDEX 00 02:27:23
FILE "17. Tommy Dorsey And His Orchestra - Not So Quiet, Please.wav" WAVE
INDEX 01 00:00:00
TRACK 18 AUDIO
TITLE "What's This?"
PERFORMER "Gene Krupa And His Orchestra"
INDEX 00 02:05:68
FILE "18. Gene Krupa And His Orchestra - What's This .wav" WAVE
INDEX 01 00:00:00
TRACK 19 AUDIO
TITLE "Dark Eyes"
PERFORMER "Gene Krupa Trio"
INDEX 00 02:44:10
FILE "19. Gene Krupa Trio - Dark Eyes.wav" WAVE
INDEX 01 00:00:00
TRACK 20 AUDIO
TITLE "How High The Moon"
PERFORMER "Gene Krupa And His Orchestra"
INDEX 00 03:24:50
FILE "20. Gene Krupa And His Orchestra - How High The Moon.wav" WAVE
INDEX 01 00:00:00
 
Лог проверки качества
-----------------------
DON'T MODIFY THIS FILE
-----------------------
PERFORMER: auCDtect Task Manager, ver. 1.0.3 B1 build 1.0.3.0
Copyright (c) 2008, 2009 y-soft. All rights reserved
http://y-soft.110mb.com
ANALYZER: auCDtect: CD records authenticity detector, version 0.8.2
Copyright (c) 2004 Oleg Berngardt. All rights reserved.
Copyright (c) 2004 Alexander Djourik. All rights reserved.
FILE: 01. Chicago Rhythm Kings - Baby Won't You Please Come Home (Vocals- Eddie Condon).flac
Size: 9748403 Hash: D6F4AFC9A38DE003B74EEDA0447F053E Accuracy: -m0
Conclusion: CDDA 100%
Signature: FB819F9FE92C4EF789C229D5E70CEC044F5C479A
FILE: 02. Miff Mole's Little Molers - Shim-Me-Sha-Wabble.flac
Size: 10832935 Hash: B02CCD5281EEC9704F6F1B25BDB64DB2 Accuracy: -m0
Conclusion: CDDA 100%
Signature: 0BECED039312BDA55331F2334A2C4BC127E96647
FILE: 03. Benny Goodman And His Orchestra - Ain't-Cha Glad.flac
Size: 14320141 Hash: B545C617958B51E0992EADCB5BD067F8 Accuracy: -m0
Conclusion: CDDA 100%
Signature: DCF7722F507D5B4E25BE06DF373FF0F584B468F9
FILE: 04. Benny Goodman And His Orchestra - Sometimes I'm Happy.flac
Size: 13652623 Hash: 2EB05B0DCD30DE9FF189BEA9F005D7EB Accuracy: -m0
Conclusion: CDDA 100%
Signature: 72A1316BF3D8581B768B66ECC1717A03C72B6599
FILE: 05. Gene Krupa And His Chicagoans - The Last Round-Up.flac
Size: 12001008 Hash: 33331C309DB4C620E782D6E1F78F3968 Accuracy: -m0
Conclusion: CDDA 100%
Signature: 48E6ED0A038AE33941DC542744F70093DC15AA59
FILE: 06. Gene Krupa's Swing Band - I Hope Gabriel Likes My Music.flac
Size: 11517518 Hash: E1C7F5FBDF38804ABFEBF961EEE4D70A Accuracy: -m0
Conclusion: CDDA 100%
Signature: 0156DB62C5FA24B2CF51EEBFFFECE5DB3B608731
FILE: 07. Benny Goodman Trio - China Boy.flac
Size: 10959693 Hash: 9C4B8CE2ED524B046B5FBBD8388C295A Accuracy: -m0
Conclusion: CDDA 100%
Signature: 8C5CA2BD94B36D626643CD31C7DB1A2D6019FBB9
FILE: 08. Benny Goodman And His Orchestra - Bugle Call Rag.flac
Size: 13000478 Hash: FBBCB6201418AFDB84EDF8B3A127C9B7 Accuracy: -m0
Conclusion: CDDA 100%
Signature: 008DD7B91ADEBDFC66808640A52B25E003C146AF
FILE: 10. Gene Krupa And His Orchestra - Drummin' Man (Vocals- Irene Daye).flac
Size: 13342989 Hash: DCF1A2DED8DDCA12C4CBF86B86B0B325 Accuracy: -m0
Conclusion: CDDA 100%
Signature: AEC68A12E99A4BAD25DD79529F5A2A3C2DB55282
FILE: 11. Gene Krupa And His Orchestra - Blue Rhythm Fantasy.flac
Size: 21237781 Hash: 11961ED9736EEAD05350E8D98CA2072A Accuracy: -m0
Conclusion: CDDA 100%
Signature: 001298FAEE84D68AB2413CDDC2A19FFA23973755
FILE: 09. Benny Goodman And His Orchestra - Sing, Sing, Sing (Live).flac
Size: 43900560 Hash: 85793CF0F8919BE810DAA58BE9D99901 Accuracy: -m0
Conclusion: CDDA 100%
Signature: A6E621C84943A1B6F4DF795AE525962B9DFCA64B
FILE: 12. Gene Krupa And His Orchestra - Drum Boogie (Live) (Vocals- Anita O'Day).flac
Size: 13042655 Hash: 889395DB07DFF748A5EC3282EC119573 Accuracy: -m0
Conclusion: CDDA 100%
Signature: 4E0426C69A1B95CEB54A7C8DADB6EFB1B263201A
FILE: 13. Gene Krupa And His Orchestra - Ball Of Fire.flac
Size: 12183944 Hash: 0078B6668662AEC9E7754641624FDD8B Accuracy: -m0
Conclusion: CDDA 87%
Signature: 35DD8604177DC33203E46342A23A02211FCC2D78
FILE: 14. Metronome All-Stars - Dear Old Southland.flac
Size: 13964205 Hash: 6A8A03FB95CA7B9BBE1BDB5F4AFD81A3 Accuracy: -m0
Conclusion: CDDA 100%
Signature: 7A4C5B2C91528972017B07B71307338C011A646A
FILE: 15. Gene Krupa And His Orchestra - That Drummer's Band.flac
Size: 11958296 Hash: FEDC83C35774B3C17E1B8E2EF18C4756 Accuracy: -m0
Conclusion: CDDA 99%
Signature: 4AF0D075ECB703D221655BBE9106B34A2EF0732A
FILE: 17. Tommy Dorsey And His Orchestra - Not So Quiet, Please.flac
Size: 7301775 Hash: 588E214C28AA67DA2AEB8FF830DF3506 Accuracy: -m0
Conclusion: CDDA 100%
Signature: 54D4CFBFBD7FB2589DD0971EEA68003A9859BB98
FILE: 16. Benny Goodman Trio - Limehouse Blues.flac
Size: 9514788 Hash: EE823C53C7890C2C3CF14123C9F030C4 Accuracy: -m0
Conclusion: CDDA 100%
Signature: 106421FED69D2A32357DDBE40F473C734AFE7FEF
FILE: 18. Gene Krupa And His Orchestra - What's This .flac
Size: 11036919 Hash: 13F6B619F24210E95A4AB0A9AF522437 Accuracy: -m0
Conclusion: CDDA 94%
Signature: A45D66BB4460EC321985AD22316FB9807EC2F7F6
FILE: 19. Gene Krupa Trio - Dark Eyes.flac
Size: 14539821 Hash: ADDB3FD435C5FC2B6D374A7A8238A401 Accuracy: -m0
Conclusion: CDDA 100%
Signature: 8594D4F2B6B8F00C8A3DA2D9420F9C4BE4788091
FILE: 20. Gene Krupa And His Orchestra - How High The Moon.flac
Size: 16789506 Hash: D37766C0765B3FBCC8CA2855C5EB40EE Accuracy: -m0
Conclusion: MPEG 95%
Signature: 6421B6EDDC24E006B6EACB29B34B03A3CF661AE2
Для ознакомления ; ). Приятного прослушивания!
20:58
732
Нет комментариев. Ваш будет первым!