Поиск

(Swing, Big Band) Gene Krupa plays Gerry Mulligan arrangements (1958) - 2005, APE (image+.cue), lossless

(Swing, Big Band) Gene Krupa plays Gerry Mulligan arrangements (1958) - 2005, APE (image+.cue), lossless
Треклист:
Gene Krupa plays Gerry Mulligan arrangements (1958)
Жанр: Swing, Big Band
Год выпуска диска: 2005
Производитель диска: E.U.
Аудио кодек: APE
Тип рипа: image+.cue
Битрейт аудио: lossless
Продолжительность: 43:54
Трэклист:
01. Bird House (Mulligan) 3:01
02. Margie (Conrad-Robinson-Davis) 3:13
03. Mulligan Stew (Krupa-Mulligan) 3:59
04. Begin The Beguine (Porter) 3:47
05. Sugar (Pinkard-Alexander-Mitchell) 2:45
06. The Way Of All Flesh (Mulligan) 2:49
07. Disc Jockey Jump (Krupa-Mulligan) 3:07
08. Birds Of A Feather (Mulligan) 3:20
09. Sometimes I'm Happy (Youmans-Caesar-Grey)
10. How High The Moon (Lewis-Hamilton) 3:17
11. If You Were The Only Girl In The World (Ayer-Grey) 4:47
12. Yardbird Suite (Parker) 5:37
Gerry Mulligan - arranger and conductor
 
EAC отчёт:
Exact Audio Copy V0.99 prebeta 4 from 23. January 2008
Отчёт EAC об извлечении, выполненном 7. января 2010, 13:32
Gene Krupa / Krupa plays Mulligan
Записи, воспроизведённые на трэках 1, 2, 3 и 12, сделаны 20.10.1958г.,
остальные - 21 и 22.10.1958г. (формат даты - наш).
Дисковод: Optiarc DVD RW AD-7200A Adapter: 0 ID: 0
Режим чтения : Достоверность
Использование точного потока : Да
Отключение кэша аудио : Да
Использование указателей C2 : Нет
Коррекция смещения при чтении : 48
Способность читать области Lead-in и Lead-out : Нет
Заполнение пропущенных сэмплов тишиной : Да
Удаление блоков с тишиной в начале и конце : Нет
При вычислениях CRC использовались нулевые сэмплы : Да
Интерфейс : Встроенный Win32-интерфейс для Win NT/2000
Выходной формат : Внутренние WAV-операции
Формат сэмплов : 44.100 Гц; 16 бит; стерео
TOC извлечённого CD
Трек | Старт | Длительность | Начальный сектор | Конечный сектор
---------------------------------------------------------------------
1 | 0:00.00 | 3:04.36 | 0 | 13835
2 | 3:04.36 | 3:15.73 | 13836 | 28533
3 | 6:20.34 | 4:02.14 | 28534 | 46697
4 | 10:22.48 | 3:50.33 | 46698 | 63980
5 | 14:13.06 | 2:47.67 | 63981 | 76572
6 | 17:00.73 | 2:52.45 | 76573 | 89517
7 | 19:53.43 | 3:09.71 | 89518 | 103763
8 | 23:03.39 | 3:22.62 | 103764 | 118975
9 | 26:26.26 | 3:39.61 | 118976 | 135461
10 | 30:06.12 | 3:19.70 | 135462 | 150456
11 | 33:26.07 | 4:50.45 | 150457 | 172251
12 | 38:16.52 | 5:37.14 | 172252 | 197540
Характеристики диапазона извлечения и сообщения об ошибках
Выбранный диапазон
Имя файла E:\ForTorrents\Temp\Gene Krupa - Krupa plays Mulligan.wav
Пиковый уровень 100.0 %
Качество диапазона 100.0 %
CRC теста 7583C1AF
CRC копии 7583C1AF
Копирование... OK
Ошибок не произошло
AccurateRip: сводка
Трек 1 точное извлечение (доверие 1) [AFF040EE]
Трек 2 точное извлечение (доверие 1) [234B7BB3]
Трек 3 точное извлечение (доверие 1) [DF6A8239]
Трек 4 точное извлечение (доверие 1) [C8E67B97]
Трек 5 точное извлечение (доверие 1) [5742E880]
Трек 6 точное извлечение (доверие 1) [5EF01B5C]
Трек 7 точное извлечение (доверие 1) [74F94C3E]
Трек 8 точное извлечение (доверие 1) [1794713B]
Трек 9 точное извлечение (доверие 1) [A2B6E7B8]
Трек 10 точное извлечение (доверие 1) [E569FED1]
Трек 11 точное извлечение (доверие 1) [B31F3B6F]
Трек 12 точное извлечение (доверие 1) [116BDFAC]
Все треки извлечены точно
Конец отчёта
16:06
712
Нет комментариев. Ваш будет первым!