Поиск

(Swing, Stride Piano) Art Tatum - Deep Night (The Tatum Group Masterpieces, Vol. 7) - 2006, APE (image+.cue), lossless

(Swing, Stride Piano) Art Tatum - Deep Night (The Tatum Group Masterpieces, Vol. 7) - 2006, APE (image+.cue), lossless
Треклист:
Art Tatum - Deep Night (The Tatum Group Masterpieces, Vol. 7)
Жанр: Swing, Stride Piano
Страна-производитель диска: Россия
Год издания диска: 2006
Аудиокодек: APE (*.ape)
Тип рипа: image+.cue
Битрейт аудио: lossless
Продолжительность: 00:58:54
Источник (релизер): Рип с диска.
Наличие сканов в содержимом раздачи: нет
Треклист:
01. Deep Night
02. This Can't Be Love
03. Memories Of You
04. Once In A While
05. Foggy Day, A
06. Lover Man
07. You're Mine You
08. Makin' Whoopee
09. Deep Night (alternate take)
10. Once In A While (alternate take)
11. This Can't Be Love (alternate take)
Personnel:
Art Tatum - p
Buddy DeFranco - cl
Red Callender - b
Bill Douglas - drЗаписано 06.02.1956 в Лос - Анджелесе.
 
Лог создания рипа
Exact Audio Copy V1.0 beta 3 from 29. August 2011
Отчёт EAC об извлечении, выполненном 3. декабря 2011, 14:15
Art Tatum / Deep Night
Дисковод: Optiarc DVD RW AD-5200A Adapter: 0 ID: 1
Режим чтения : Достоверность
Использование точного потока : Да
Отключение кэша аудио : Да
Использование указателей C2 : Нет
Коррекция смещения при чтении : 48
Способность читать области Lead-in и Lead-out : Нет
Заполнение пропущенных сэмплов тишиной : Да
Удаление блоков с тишиной в начале и конце : Нет
При вычислениях CRC использовались нулевые сэмплы : Да
Интерфейс : Установленный внешний ASPI-интерфейс
Выходной формат : Пользовательский кодировщик
Выбранный битрейт : 128 kBit/s
Качество : Высокий
Добавление ID3-тега : Нет
Утилита сжатия : C:\Program Files\Monkey's Audio\MAC.exe
Дополнительные параметры : %source% %dest% -c3000
TOC извлечённого CD
Трек | Старт | Длительность | Начальный сектор | Конечный сектор
---------------------------------------------------------------------
1 | 0:00.00 | 5:48.19 | 0 | 26118
2 | 5:48.19 | 4:38.03 | 26119 | 46971
3 | 10:26.22 | 7:10.33 | 46972 | 79254
4 | 17:36.55 | 5:13.15 | 79255 | 102744
5 | 22:49.70 | 3:24.12 | 102745 | 118056
6 | 26:14.07 | 6:38.22 | 118057 | 147928
7 | 32:52.29 | 7:01.67 | 147929 | 179570
8 | 39:54.21 | 3:37.04 | 179571 | 195849
9 | 43:31.25 | 5:50.48 | 195850 | 222147
10 | 49:21.73 | 5:05.37 | 222148 | 245059
11 | 54:27.35 | 4:27.00 | 245060 | 265084
Характеристики диапазона извлечения и сообщения об ошибках
Выбранный диапазон
Имя файла I:\На трекер\2006.Art Tatum - Deep Night (The Tatum Group Masterpieces, Vol. 7)\Art Tatum - Deep Night.wav
Пиковый уровень 78.8 %
Скорость извлечения 3.8 X
Качество диапазона 99.9 %
CRC теста E0E27CE4
CRC копии E0E27CE4
Копирование... OK
Ошибок не произошло
AccurateRip: сводка
Трек 1 отсутствует в базе данных
Трек 2 отсутствует в базе данных
Трек 3 отсутствует в базе данных
Трек 4 отсутствует в базе данных
Трек 5 отсутствует в базе данных
Трек 6 отсутствует в базе данных
Трек 7 отсутствует в базе данных
Трек 8 отсутствует в базе данных
Трек 9 отсутствует в базе данных
Трек 10 отсутствует в базе данных
Трек 11 отсутствует в базе данных
Ни одного трека нет в базе AccurateRip
Конец отчёта
==== Контрольная сумма отчёта 11B8F6534A36534EC88ACF50EF37492B8E8461831C00BD2B7396E6A50DDE308A ====
 
Содержание индексной карты (.CUE)
REM GENRE Jazz
REM DATE 2006
REM DISCID A40DCE0B
REM COMMENT "ExactAudioCopy v1.0b3"
PERFORMER "Art Tatum"
TITLE "Deep Night"
FILE "Art Tatum - Deep Night.ape" WAVE
TRACK 01 AUDIO
TITLE "Deep Night"
PERFORMER "Art Tatum"
INDEX 01 00:00:00
TRACK 02 AUDIO
TITLE "This Can't Be Love"
PERFORMER "Art Tatum"
INDEX 01 05:48:19
TRACK 03 AUDIO
TITLE "Memories Of You"
PERFORMER "Art Tatum"
INDEX 01 10:26:22
TRACK 04 AUDIO
TITLE "Once In A While"
PERFORMER "Art Tatum"
INDEX 00 17:36:54
INDEX 01 17:36:55
TRACK 05 AUDIO
TITLE "Foggy Day, A"
PERFORMER "Art Tatum"
INDEX 01 22:49:70
TRACK 06 AUDIO
TITLE "Lover Man"
PERFORMER "Art Tatum"
INDEX 01 26:14:07
TRACK 07 AUDIO
TITLE "You're Mine You"
PERFORMER "Art Tatum"
INDEX 01 32:52:29
TRACK 08 AUDIO
TITLE "Makin' Whoopee"
PERFORMER "Art Tatum"
INDEX 01 39:54:21
TRACK 09 AUDIO
TITLE "Deep Night (alternate take)"
PERFORMER "Art Tatum"
INDEX 01 43:31:25
TRACK 10 AUDIO
TITLE "Once In A While (alternate take)"
PERFORMER "Art Tatum"
INDEX 01 49:21:73
TRACK 11 AUDIO
TITLE "This Can't Be Love (alternate take)"
PERFORMER "Art Tatum"
INDEX 01 54:27:35
 
Отчёт программы Tau Analyzer
02:16
502
Нет комментариев. Ваш будет первым!