Поиск

(Swing, Stride, Piano Jazz, Saxophone Jazz) [CD] Ben Webster/Art Tatum - Ben Webster - Art Tatum Quartet - 2010, FLAC (image+.cue), lossless

(Swing, Stride, Piano Jazz, Saxophone Jazz) [CD] Ben Webster/Art Tatum - Ben Webster - Art Tatum Quartet - 2010, FLAC (image+.cue), lossless
Треклист:
Ben Webster/Art Tatum - Ben Webster/Art Tatum Quartet
Жанр: Swing, Stride, Piano Jazz, Saxophone Jazz
Носитель: CD
Страна-производитель диска: Spain
Год издания: 2010
Издатель (лейбл): Poll Winners Records
Номер по каталогу: PWR 27239
Страна: USA
Аудиокодек: FLAC (*.flac)
Тип рипа: image+.cue
Битрейт аудио: lossless
Продолжительность: 75'55
Источник (релизер): собственный диск
Наличие сканов в содержимом раздачи: да
Треклист:
1. All The Things You Are 7:13
2. Gone With The Wind 4:46
3. Have You Met Miss Jones? 4:47
4. Night and Day 5:28
5. Where Or When 6:25
6. My Ideal 7:15
7. My One and Only Love 6:13
8. Gone With The Wind [alt 1] 4:49
9. Have You Met Miss Jones? [alt] 5:02
10. Gone With The Wind [alt 2] 4:48
11. My Funny Valentine 3:26*
12. You're Mine, You! 3:10*
13. Sophisticated Lady 3:07*
14. Love's Away 3:19*
15. All The Things You Are 6:01*
Los Angeles, California, September 11, 1956.
*Bonus Tracks.
 
Лог создания рипа
Exact Audio Copy V0.99 prebeta 5 from 4. May 2009
Отчёт EAC об извлечении, выполненном 10. сентября 2014, 12:02
Ben Webster and art Tatum / Dwn Beat (The Ben Webster-Art Tatum quartet)
Дисковод: ASUS DRW-24F1ST a Adapter: 0 ID: 0
Режим чтения : Достоверность
Использование точного потока : Да
Отключение кэша аудио : Да
Использование указателей C2 : Нет
Коррекция смещения при чтении : 6
Способность читать области Lead-in и Lead-out : Нет
Заполнение пропущенных сэмплов тишиной : Да
Удаление блоков с тишиной в начале и конце : Нет
При вычислениях CRC использовались нулевые сэмплы : Да
Интерфейс : Встроенный Win32-интерфейс для Win NT/2000
Выходной формат : Пользовательский кодировщик
Выбранный битрейт : 768 kBit/s
Качество : Высокий
Добавление ID3-тэга : Нет
Утилита сжатия : D:\05. Other\01. Programmes\Exact Audio Copy\FLAC\FLAC.EXE
Дополнительные параметры : -6 -V -T "ARTIST=%a" -T "TITLE=%t" -T "ALBUM=%g" -T "DATE=%y" -T "TRACKNUMBER=%n" -T "GENRE=%m" -T "COMMENT=%e" %s -o %d
TOC извлечённого CD
Трек | Старт | Длительность | Начальный сектор | Конечный сектор
---------------------------------------------------------------------
1 | 0:00.00 | 7:13.22 | 0 | 32496
2 | 7:13.22 | 4:46.32 | 32497 | 53978
3 | 11:59.54 | 4:47.11 | 53979 | 75514
4 | 16:46.65 | 5:28.29 | 75515 | 100143
5 | 22:15.19 | 6:25.48 | 100144 | 129066
6 | 28:40.67 | 7:15.17 | 129067 | 161708
7 | 35:56.09 | 6:13.31 | 161709 | 189714
8 | 42:09.40 | 4:49.41 | 189715 | 211430
9 | 46:59.06 | 5:02.51 | 211431 | 234131
10 | 52:01.57 | 4:48.20 | 234132 | 255751
11 | 56:50.02 | 3:26.62 | 255752 | 271263
12 | 60:16.64 | 3:10.51 | 271264 | 285564
13 | 63:27.40 | 3:07.30 | 285565 | 299619
14 | 66:34.70 | 3:19.48 | 299620 | 314592
15 | 69:54.43 | 6:01.37 | 314593 | 341704
Характеристики диапазона извлечения и сообщения об ошибках
Выбранный диапазон
Имя файла D:\BEN WEBSTER & ART TATUM QUARTET (BONUS TRACK)\Ben Webster and art Tatum - Dwn Beat (The Ben Webster-Art Tatum quartet).wav
Пиковый уровень 100.0 %
Качество диапазона 100.0 %
CRC теста ACF88DBF
CRC копии ACF88DBF
Копирование... OK
Ошибок не произошло
AccurateRip: сводка
Трек 1 точность не определена (достоверность 6) [71C6118F], AccurateRip вернул [763BFDB3]
Трек 2 точность не определена (достоверность 6) [FFB58E24], AccurateRip вернул [FEE86A09]
Трек 3 точность не определена (достоверность 6) [8F31BDA4], AccurateRip вернул [E9ACF73C]
Трек 4 точность не определена (достоверность 6) [88BFC43C], AccurateRip вернул [F3F526AA]
Трек 5 точность не определена (достоверность 6) [7B4F40A4], AccurateRip вернул [287A29DC]
Трек 6 точность не определена (достоверность 6) [0BBD5782], AccurateRip вернул [E4FBBF8C]
Трек 7 точность не определена (достоверность 6) [F7F6EEAD], AccurateRip вернул [7E5E430D]
Трек 8 точность не определена (достоверность 6) [22638371], AccurateRip вернул [6492C436]
Трек 9 точность не определена (достоверность 6) [665B64A6], AccurateRip вернул [F4E3CA00]
Трек 10 точность не определена (достоверность 6) [9A5ED7F1], AccurateRip вернул [C515587A]
Трек 11 точность не определена (достоверность 5) [096A0D38], AccurateRip вернул [4494C8F8]
Трек 12 точность не определена (достоверность 5) [BEA0089A], AccurateRip вернул [EF61E563]
Трек 13 точность не определена (достоверность 6) [13AC2531], AccurateRip вернул [88998DA4]
Трек 14 точность не определена (достоверность 6) [426FB228], AccurateRip вернул [0C7B008A]
Трек 15 точность не определена (достоверность 6) [172BCCEF], AccurateRip вернул [9BFFAB5C]
Ни один трек не прошёл проверки на точность
В вашей базе может быть иной вариант штамповки диска
Конец отчёта
 
Состав
Ben Webster - tenor sax
Art Tatum - piano
Red Callender - bass
Bill Douglass - drums
*Bonus Tracks:
11-14: BEN WEBSTER-TEDDY WILSON QUARTET:
Ben Webster (ts), Teddy Wilson (p), Ray Brown (b), Jo Jones (d)
New York, March 30, 1954.
15: ART TATUM (solo piano).
Los Angeles, December 29, 1953.
15:44
594
Нет комментариев. Ваш будет первым!