Поиск

[TR24][OF] Dave Koz - Dave Koz & Friends 20th Anniversary Christmas - 2017 (Smooth Jazz, Christmas)

[TR24][OF] Dave Koz - Dave Koz & Friends 20th Anniversary Christmas - 2017 (Smooth Jazz, Christmas)
Треклист:
Dave Koz - Dave Koz & Friends 20th Anniversary Christmas Формат записи/Источник записи: [TR24][OF]
Наличие водяных знаков: Нет
Год издания/переиздания диска: 2017
Жанр: Smooth Jazz, Christmas
Издатель (лейбл): Concord Records
Продолжительность: 45:40
Наличие сканов в содержимом раздачи: Только обложка альбома
Треклист:
01. Winter Wonderland (3:48)
02. Joy To The Wonderful World (4:10)
03. Christmas Time Is Here (3:06)
04. Feliz Navidad (3:57)
05. Hark! The Herald Angels We Have Heard On High (3:37)
06. Have Yourself A Merry Little Christmas (3:53)
07. O Tannenbaum (O Christmas Tree) (4:16)
08. Silent Night (4:41)
09. Hallelujah (4:16)
10. O Little Town Of Bethlehem (4:26)
11. The Home Medley: (5:29)
   • I'll Be Home For Christmas
   • Celebrate Me Home
 
 
Несколько слов на английском
A contender for the instrumental pop saxophone throne, Dave Koz came out of nowhere after his self-titled 1990 release made it onto the Billboard contemporary jazz charts and stayed there several weeks. He has more fire and intensity in his work than Kenny G, and often sounds like a reworked David Sanborn. Koz also played on Arsenio Hall's show, which increased his popularity among the urban contemporary, light jazz, and pop audiences. Koz plays instrumental pop covers and some upbeat tunes, and generally sticks to the fusion production formula: background vocalists, synthesizers, and drum machines, a minimum amount of solo space, and so on. His sessions have been regularly released since his first appearance on the scene. Highlights include 1993's peppy Lucky Man, 1999's collaboration-heavy Dance, 2001's holiday treat A Smooth Jazz Christmas, and 2007's film music-themed At the Movies. Koz left EMI to sign with Concord in 2010 for the release of Hello Tomorrow, produced by John Burk and Marcus Miller. A pair of live albums, Live at Soho and Live at the Blue Note Tokyo, followed in 2011 and 2012, respectively. Koz emerged in June 2013 with the studio album Summer Horns. Billed to Dave Koz & Friends, it was recorded in collaboration with saxophonists Gerald Albright, Mindi Abair, and Richard Elliot, and featured guest appearances by Michael McDonald, Brian Culbertson, Rick Braun, Jonathan Butler, and Jeffrey Osborne. In 2015, Koz's career-spanning compilation of duets and more, Collaborations: 25th Anniversary Collection, topped Billboard's jazz albums chart. In 2017 Koz teamed up with pianist David Benoit, trumpeter Rick Braun, and acoustic guitarist Peter White for the holiday LP Dave Koz and Friends 20th Anniversary Christmas.

Контейнер: FLAC (*.flac)
Тип рипа: tracks
Разрядность: 24/44,1
Формат: PCM
Количество каналов: 2.0
 
 
Лог проверки качества
foobar2000 1.3.9 / Dynamic Range Meter 1.1.1
log date: 2017-12-13 13:13:19
--------------------------------------------------------------------------------
Analyzed: Dave Koz / Dave Koz & Friends 20th Anniversary Christmas
--------------------------------------------------------------------------------
DR         Peak         RMS     Duration Track
--------------------------------------------------------------------------------
DR11      -0.10 dB   -13.79 dB      3:48 01-Winter Wonderland
DR11      -0.10 dB   -14.23 dB      4:10 02-Joy To The Wonderful World
DR12      -1.35 dB   -16.49 dB      3:06 03-Christmas Time Is Here
DR10      -0.10 dB   -12.82 dB      3:57 04-Feliz Navidad
DR11      -0.10 dB   -14.78 dB      3:37 05-Hark! The Herald Angels We Have Heard On High
DR11      -0.10 dB   -14.10 dB      3:53 06-Have Yourself A Merry Little Christmas
DR11      -0.10 dB   -13.90 dB      4:16 07-O Tannenbaum (O Christmas Tree)
DR11      -0.10 dB   -14.95 dB      4:41 08-Silent Night
DR10      -0.10 dB   -13.71 dB      4:16 09-Hallelujah
DR10      -0.10 dB   -13.62 dB      4:26 10-O Little Town Of Bethlehem
DR11      -0.10 dB   -15.11 dB      5:29 11-The Home Medley: I'll Be Home For Christmas / Celebrate Me Home
--------------------------------------------------------------------------------
Number of tracks:  11
Official DR value: DR11
Samplerate:        44100 Hz
Channels:          2
Bits per sample:   24
Bitrate:           1441 kbps
Codec:             FLAC
================================================================================
Источник: hdtracks.com
05:02
781
Нет комментариев. Ваш будет первым!